#TITLE:HELL SCAPER;
#SUBTITLE:-TOKKANKOUJI mix-;
#ARTIST:L.E.D.LIGHT-G remix by paraoka;
#TITLETRANSLIT:;
#SUBTITLETRANSLIT:;
#ARTISTTRANSLIT:;
#CREDIT:;
#BANNER:hell scaper tm-bn.png;
#BACKGROUND:hell scaper tm-bg.png;
#LYRICSPATH:;
#CDTITLE:kyka2016.png;
#MUSIC:HELL SCAPER -TOKKANKOUJI mix-.mp3;
#OFFSET:-0.146;
#SAMPLESTART:46.970;
#SAMPLELENGTH:13.700;
#SELECTABLE:YES;
#BPMS:0.000=210.100,68.000=105.050,76.000=210.100,220.000=212.500,264.000=215.000,296.000=218.000;
#STOPS:260.500=0.260
,261.500=0.400
,262.000=0.140
,262.500=0.140
,263.000=0.140
,356.000=1.040
;
#BGCHANGES:;

//---------------dance-single - ----------------
#NOTES:
     dance-single:
     :
     Hard:
     10:
     1.000,1.000,0.743,0.132,0.818: // measure 1
0000
0000
0000
0000
,  // measure 2
1000
0100
1000
0000
0010
0100
0010
0000
1000
0000
0001
0000
0010
0000
0001
0000
,  // measure 3
0100
0010
0100
0000
0010
1000
0010
0000
0100
0000
0001
0000
1000
0000
0100
0000
,  // measure 4
0010
0001
0100
0000
0010
1000
0001
0000
0100
0000
0010
0000
1000
0000
0100
0000
,  // measure 5
1000
0100
0010
0001
0010
0100
1000
0000
0202
0000
0000
0000
0000
0000
0303
0000
,  // measure 6
0010
1000
0010
0000
0100
0001
0100
0000
0001
0000
0100
0000
0010
0000
1000
0000
,  // measure 7
0100
1000
0100
0000
0010
0001
0010
0000
0100
0000
0010
0000
0001
0000
0100
0000
,  // measure 8
0010
1000
0001
0000
0100
0010
1000
0000
0001
0000
0100
0000
0001
0000
1000
0000
,  // measure 9
0001
0100
0010
1000
0100
1000
0100
1000
0000
0001
0000
1000
0000
0001
0000
0000
,  // measure 10
1000
0100
1000
0000
0001
1000
0001
0000
0100
0000
0001
0000
0100
0000
0010
0000
,  // measure 11
1000
0010
1000
0000
0001
0100
0001
0000
0010
0000
0100
0000
1000
0000
0001
0000
,  // measure 12
0100
0001
1000
0000
0010
0100
0001
0000
1000
0000
0010
0000
0100
0000
0001
0000
,  // measure 13
1000
0010
0100
0001
1000
0100
0010
0000
2002
0000
0000
0000
0000
0000
3003
0000
,  // measure 14
0001
1000
0010
0000
0100
0010
1000
0000
0001
0000
0100
0000
0010
0000
1000
0000
,  // measure 15
0001
0100
0010
0000
1000
0100
0010
0000
0001
0000
0100
0000
0010
0000
1000
0000
,  // measure 16
0100
0010
0001
0000
1000
0010
0100
0000
0010
0000
1000
0000
0001
0000
0100
0000
,  // measure 17
0001
1000
0001
1000
0001
1000
0001
1000
0001
1000
0001
0000
0000
0000
0000
0000
,  // measure 18
2200
0000
0000
0000
3300
0110
0110
0011
,  // measure 19
0011
0000
0000
1100
0000
0000
1010
0000
0110
0000
0000
0110
0000
0000
0000
0000
,  // measure 20
1001
0000
0010
1000
0001
1000
0100
1000
,  // measure 21
0010
0100
0101
0000
1001
0000
1100
0000
,  // measure 22
0110
0000
0000
1010
0000
0000
0110
0000
,  // measure 23
1010
0000
0000
1010
0000
0000
0110
0000
,  // measure 24
1001
0000
0001
0100
0010
1000
0100
1000
,  // measure 25
0010
0100
0011
0000
0101
0000
1001
0000
,  // measure 26
1100
0000
0000
1010
0000
0000
1001
0000
,  // measure 27
1100
0000
0000
1100
0000
0000
0011
0000
,  // measure 28
0011
0000
1000
0100
0010
0001
0100
0001
,  // measure 29
0010
0001
1001
0000
1100
0000
0110
0000
,  // measure 30
1001
0000
0000
0110
0000
0000
1001
0000
,  // measure 31
2002
0000
0000
0000
0000
3003
0010
0001
,  // measure 32
0010
0100
0010
0001
0000
0000
0001
1000
,  // measure 33
1001
0000
0000
0100
0010
1000
0000
0000
,  // measure 34
0001
0010
0100
0010
0001
0100
0010
1000
,  // measure 35
0100
1000
0010
0100
0010
0000
0000
0000
,  // measure 36
1000
0100
0001
0100
0000
0000
0010
0001
,  // measure 37
1001
0000
0000
0001
1000
0001
0000
0000
,  // measure 38
0100
0010
1000
0100
1000
0001
0100
0010
,  // measure 39
1000
0000
0010
0000
0100
0000
0010
0000
1000
0100
1000
0100
0010
0001
0010
0001
,  // measure 40
0100
0010
0000
0100
0010
0000
1000
0010
0000
1000
0010
0000
0100
0000
0001
0000
,  // measure 41
0010
0001
0000
0010
0001
0000
1000
0100
0000
1000
0100
0000
1000
0000
0001
0000
,  // measure 42
1000
0010
0000
1000
0010
0000
0100
0001
0000
0100
0001
0000
0010
0000
0100
0000
,  // measure 43
1000
0000
0010
0000
0100
0000
0001
1000
0000
0000
0001
1000
0001
0100
0010
1000
,  // measure 44
0001
1000
0000
0001
1000
0000
0001
1000
0000
0001
0100
0000
0010
0000
1000
0000
,  // measure 45
0100
1000
0000
0100
1000
0000
0010
0100
0000
0010
0100
0000
0001
0000
0010
0000
,  // measure 46
0100
0010
0000
0100
0010
0000
1000
0001
0000
1000
0001
0000
0100
0000
0010
0000
,  // measure 47
1000
0000
0010
0000
1000
0000
0001
0100
0000
0000
0010
1000
0010
1000
0010
1000
,  // measure 48
0001
0100
0000
0001
0100
0000
0010
1000
0000
0010
1000
0000
0100
0000
0010
0000
,  // measure 49
0001
1000
0000
0001
1000
0000
0100
1000
0000
0100
1000
0000
0010
0000
0100
0000
,  // measure 50
0001
0010
0000
0001
0010
0000
0100
1000
0000
0100
1000
0000
0010
0000
0100
0000
,  // measure 51
0001
0000
1000
0000
0010
0000
1000
0001
0000
0000
1000
0001
0100
0001
0100
0001
,  // measure 52
1000
0010
0000
1000
0010
0000
0100
0001
0000
0100
0001
0000
0010
0000
0001
0000
,  // measure 53
0100
0010
0000
0100
0010
0000
1000
0010
0000
1000
0010
0000
1000
0000
0100
0000
,  // measure 54
1000
0001
0000
1000
0001
0000
0010
0001
0000
0010
0001
0000
0100
0000
0010
0000
,  // measure 55
1000
0100
1000
0100
0000
0022
0000
0033
,  // measure 56
1100
0000
0001
0100
0001
1000
0100
1000
,  // measure 57
0010
1100
1010
0110
,  // measure 58
1001
0000
1000
1100
0000
0000
0101
0000
,  // measure 59
0011
0000
0001
0101
0000
0000
0110
0000
,  // measure 60
1001
0000
0010
1000
0100
1000
0010
0100
,  // measure 61
0001
0011
0101
0110
,  // measure 62
1010
0000
1000
1100
0000
0000
0110
0000
,  // measure 63
0101
0000
0000
0000
0000
0000
0000
0000
1000
0000
0001
0000
1000
0001
1000
0001
,  // measure 64
1000
0110
0000
1010
0000
1100
0000
0101
,  // measure 65
0000
0011
0000
0101
0000
0110
0000
1010
,  // measure 66
1001
1001
0110
0110
1100
1010
0101
1001
,  // measure 67
0100
1000
0010
0100
0000
0000
0001
1000
,  // measure 68
0001
0000
0000
1000
0100
2000
0000
0000
,  // measure 69
3010
0100
0010
1000
0001
0010
0001
0100
,  // measure 70
0010
1000
0100
1000
0001
0100
0010
1000
,  // measure 71
0001
0010
0100
1000
0000
0000
0100
1000
,  // measure 72
0100
0000
0000
0010
0001
0200
0000
0000
,  // measure 73
0310
1000
0001
0100
0001
0010
0001
0100
,  // measure 74
0010
0000
0010
0000
0010
0000
0010
0000
1000
0001
0100
0001
1000
0010
0100
0010
,  // measure 75
1000
0001
0000
1000
0001
0000
0100
0001
0000
0100
0001
0000
0100
0000
0010
0000
,  // measure 76
1000
0100
0000
1000
0100
0000
0010
0100
0000
0010
0100
0000
1000
0000
0001
0000
,  // measure 77
0010
1000
0000
0010
1000
0000
0010
0100
0000
0010
0100
0000
0010
0000
0001
0000
,  // measure 78
0100
0000
0010
0000
1000
0000
0001
1000
0000
0000
0010
0100
0010
1000
0010
1000
,  // measure 79
0001
1000
0000
0001
1000
0000
0010
0100
0000
0010
0100
0000
0010
0000
1000
0000
,  // measure 80
0001
0100
0000
0001
0100
0000
0001
1000
0000
0001
1000
0000
0100
0000
1000
0000
,  // measure 81
0100
0010
0000
0100
0010
0000
0001
0100
0000
0001
0100
0000
0010
0000
1000
0000
,  // measure 82
0100
0000
1000
0000
0001
0000
0100
0010
0000
0000
1000
0100
1000
0001
1000
0001
,  // measure 83
0100
0001
0000
0100
0001
0000
0100
0010
0000
0100
0010
0000
1000
0000
0001
0000
,  // measure 84
0100
0001
0000
0100
0001
0000
1000
0100
0000
1000
0100
0000
0010
0000
0100
0000
,  // measure 85
1000
0001
0000
1000
0001
0000
0100
0010
0000
0100
0010
0000
1000
0000
0001
0000
,  // measure 86
0010
0000
0001
0000
0100
0000
0010
1000
0000
0000
0010
0100
0001
1000
0001
1000
,  // measure 87
0010
1000
0000
0010
1000
0000
0010
0100
0000
0010
0100
0000
0001
0000
0010
0000
,  // measure 88
0001
0100
0000
0001
0100
0000
0010
1000
0000
0010
1000
0000
0010
0000
1000
0000
,  // measure 89
0001
1000
0000
0010
0100
0000
0001
0010
0000
0100
1000
0000
0001
0000
0100
0000
,  // measure 90
2002
3003
0000
0000
0000
0000
0000
0000
0000
0000
0000
0000
0000
0000
0000
0000
0000
0000
0000
0000
0000
0000
0000
0000
0110
0000
0000
0000
0000
0000
0000
0000
1001
0000
0000
0000
0000
0000
0000
0000
0000
0000
0000
0000
0000
0000
0000
0000
0000
0000
0000
0000
0000
0000
0000
0000
0000
0000
0000
0000
0000
0000
0000
0000
;

//---------------dance-single - ----------------
#NOTES:
     dance-single:
     :
     Medium:
     7:
     0.653,0.589,0.141,0.179,0.268: // measure 1
0000
0000
0000
0000
,  // measure 2
1000
0010
0100
0010
1000
0000
0001
0000
,  // measure 3
0100
0001
0010
0001
1000
0000
0010
0000
,  // measure 4
0100
0010
1000
0001
0010
0000
0001
0000
,  // measure 5
0100
0010
1000
0010
2000
0000
0000
0000
,  // measure 6
3001
0100
0001
0010
0001
0000
0100
0000
,  // measure 7
0010
0100
1000
0100
0010
0000
1000
0000
,  // measure 8
0001
0100
0010
1000
0001
0000
1000
0000
,  // measure 9
0100
0000
1000
0000
0010
0000
0000
0100
0000
0000
0010
0000
1000
0000
0000
0000
,  // measure 10
0001
0100
1000
0100
0010
0000
1000
0000
,  // measure 11
0100
0010
0001
1000
0100
0000
0010
0000
,  // measure 12
0100
1000
0010
0100
0001
0000
1000
0000
,  // measure 13
0001
1000
0001
1000
0020
0000
0000
0000
,  // measure 14
0130
0010
1000
0001
0010
0000
0001
0000
,  // measure 15
0100
0010
1000
0001
0100
0000
0001
0000
,  // measure 16
0100
0010
1000
0001
0010
0000
0001
0000
,  // measure 17
0100
0010
0100
0010
0100
0001
0000
0000
,  // measure 18
2002
0000
0000
0000
3003
0001
0100
0001
,  // measure 19
1000
0000
0000
0100
0000
0000
1000
0000
0010
0000
0000
0100
0000
0000
0000
0000
,  // measure 20
1001
0000
1000
0100
1000
0000
0010
0100
,  // measure 21
0010
1000
0100
1000
,  // measure 22
1001
0000
0000
0010
0000
0000
0100
0000
,  // measure 23
1010
0000
0000
0010
0000
0000
0000
0000
,  // measure 24
1001
0000
0001
0100
0010
0000
1000
0010
,  // measure 25
0100
0001
0100
0010
,  // measure 26
1100
0000
0000
0010
0000
0000
1000
0000
,  // measure 27
1010
0000
0000
0010
0000
0000
0100
0000
,  // measure 28
0101
0000
0001
1000
0100
0000
0010
0100
,  // measure 29
1000
0001
0100
0001
,  // measure 30
0011
0000
0000
0100
0000
0000
0010
0000
,  // measure 31
2020
0000
3030
0000
,  // measure 32
0010
0000
0100
0010
0000
0000
1000
0001
,  // measure 33
1000
0000
0000
0001
0100
0001
0000
0000
,  // measure 34
1000
0100
1000
0010
,  // measure 35
0100
0001
1000
0010
,  // measure 36
0100
0000
0001
1000
0000
0000
0001
0100
,  // measure 37
0001
0000
0000
1000
0010
1000
0000
0000
,  // measure 38
0010
0100
0010
1000
,  // measure 39
0001
1000
0001
1000
0001
0000
0200
0000
,  // measure 40
0301
0000
0000
0100
0000
0000
0001
0000
0000
0100
0000
0000
0010
0000
1000
0000
,  // measure 41
0001
0000
0000
0010
0000
0000
0100
0000
0000
0010
0000
0000
0001
0000
1000
0000
,  // measure 42
0100
0000
0000
1000
0000
0000
0010
0000
0000
0100
0000
0000
0010
0000
1000
0000
,  // measure 43
0001
0000
1000
0000
0001
0000
0000
1000
0000
0000
0000
0000
2000
0000
0000
0000
,  // measure 44
3010
0000
0000
0100
0000
0000
0001
0000
0000
1000
0000
0000
0010
0000
0100
0000
,  // measure 45
0001
0000
0000
0100
0000
0000
0001
0000
0000
1000
0000
0000
0100
0000
0010
0000
,  // measure 46
0100
0000
0000
1000
0000
0000
0010
0000
0000
0100
0000
0000
0010
0000
1000
0000
,  // measure 47
0001
0000
1000
0000
0100
0000
0000
0010
0000
0000
0000
0000
0020
0000
0000
0000
,  // measure 48
1030
0000
0000
0001
0000
0000
0100
0000
0000
0010
0000
0000
1000
0000
0001
0000
,  // measure 49
0100
0000
0000
0001
0000
0000
1000
0000
0000
0010
0000
0000
0100
0000
0001
0000
,  // measure 50
1000
0000
0000
0001
0000
0000
0100
0000
0000
0010
0000
0000
1000
0000
0100
0000
,  // measure 51
1000
0000
0001
0000
0010
0000
0000
0001
0000
0000
0000
0000
0002
0000
0000
0000
,  // measure 52
0103
0000
0000
0010
0000
0000
1000
0000
0000
0010
0000
0000
0100
0000
0001
0000
,  // measure 53
1000
0000
0000
0100
0000
0000
1000
0000
0000
0010
0000
0000
0100
0000
0001
0000
,  // measure 54
1000
0000
0000
0100
0000
0000
1000
0000
0000
0010
0000
0000
0100
0000
0001
0000
,  // measure 55
1000
0001
0100
0001
0000
2000
0000
0000
,  // measure 56
3001
0000
0100
0010
1000
0000
0001
1000
,  // measure 57
0100
0010
0001
0100
,  // measure 58
1010
0000
0000
1000
0000
0000
0001
0000
,  // measure 59
0101
0000
0000
0001
0000
0000
1000
0000
,  // measure 60
1100
0000
0010
1000
0001
0000
0100
0010
,  // measure 61
1000
0100
1000
0010
,  // measure 62
0101
0000
0000
0001
0000
0000
1000
0000
,  // measure 63
0002
0000
0000
0000
1000
0000
2000
3003
,  // measure 64
0000
0010
0000
1000
0000
0100
0000
1000
,  // measure 65
0000
0010
0000
0100
0000
0001
0000
1000
,  // measure 66
0001
1000
0001
1000
0001
1000
0001
1000
,  // measure 67
0010
0000
1000
0100
0000
0000
0010
1000
,  // measure 68
0010
0000
0000
0100
0001
0100
0000
0000
,  // measure 69
0010
1000
0100
1000
,  // measure 70
0010
0100
0010
0100
0010
0000
1000
0000
,  // measure 71
0001
0000
1000
0100
0000
0000
0010
0001
,  // measure 72
0100
0000
0000
0010
1000
0010
0000
0000
,  // measure 73
0100
0010
1000
0001
,  // measure 74
1000
0100
1000
0010
1000
0000
0002
0000
,  // measure 75
0103
0000
0000
0001
0000
0000
0100
0000
0000
0010
0000
0000
1000
0000
0001
0000
,  // measure 76
0100
0000
0000
0001
0000
0000
0010
0000
0000
0001
0000
0000
0100
0000
0010
0000
,  // measure 77
1000
0000
0000
0010
0000
0000
0100
0000
0000
0010
0000
0000
1000
0000
0001
0000
,  // measure 78
0100
0000
0010
0000
0100
0000
0000
0010
0000
0000
0000
0000
0020
0000
0000
0000
,  // measure 79
1030
0000
0000
0001
0000
0000
0100
0000
0000
0010
0000
0000
1000
0000
0100
0000
,  // measure 80
1000
0000
0000
0001
0000
0000
0100
0000
0000
0001
0000
0000
0010
0000
0001
0000
,  // measure 81
0100
0000
0000
0010
0000
0000
1000
0000
0000
0100
0000
0000
1000
0000
0010
0000
,  // measure 82
0100
0000
0001
0000
1000
0000
0000
0001
0000
0000
0000
0000
0002
0000
0000
0000
,  // measure 83
1003
0000
0000
0100
0000
0000
1000
0000
0000
0010
0000
0000
0100
0000
0010
0000
,  // measure 84
1000
0000
0000
0001
0000
0000
0010
0000
0000
0001
0000
0000
0100
0000
0010
0000
,  // measure 85
1000
0000
0000
0001
0000
0000
0100
0000
0000
0010
0000
0000
1000
0000
0100
0000
,  // measure 86
0010
0000
0100
0000
1000
0000
0000
0010
0000
0000
0000
0000
0020
0000
0000
0000
,  // measure 87
0130
0000
0000
0001
0000
0000
1000
0000
0000
0001
0000
0000
0100
0000
0001
0000
,  // measure 88
1000
0000
0000
0001
0000
0000
1000
0000
0000
0010
0000
0000
0100
0000
0010
0000
,  // measure 89
1000
0000
0000
0001
0000
0000
0100
0000
0000
0010
0000
0000
1000
0000
0010
0000
,  // measure 90
0220
0330
0000
0000
0000
0000
0000
0000
0000
0000
0000
0000
0000
0000
0000
0000
0000
0000
0000
0000
0000
0000
0000
0000
1000
0000
0000
0000
0000
0000
0000
0000
0001
0000
0000
0000
0000
0000
0000
0000
0000
0000
0000
0000
0000
0000
0000
0000
0000
0000
0000
0000
0000
0000
0000
0000
0000
0000
0000
0000
0000
0000
0000
0000
;

//---------------dance-single - ----------------
#NOTES:
     dance-single:
     :
     Challenge:
     11:
     1.000,1.000,0.921,0.207,1.000: // measure 1
0000
0000
0000
0000
,  // measure 2
1000
0010
0100
0010
1000
0001
0010
0001
0100
0000
0001
0000
0100
0000
0010
0000
,  // measure 3
1000
0010
1000
0010
0100
0001
0010
0001
1000
0000
0010
0000
0100
0000
0010
0000
,  // measure 4
1000
0100
0010
0001
1000
0001
0100
0001
0010
0000
0001
0000
0100
0000
0010
0000
,  // measure 5
1000
0010
1000
0001
1000
0001
1000
0010
0220
0000
0000
0000
0000
0000
0330
0000
,  // measure 6
0001
0100
0010
1000
0001
0010
0001
0100
0010
0000
1000
0000
0001
0000
0010
0000
,  // measure 7
0001
0100
0010
0100
0001
0010
0100
1000
0001
0000
0100
0000
0001
0000
0010
0000
,  // measure 8
0100
1000
0010
0100
0001
1000
0100
1000
0010
0000
0100
0000
0010
0000
1000
0000
,  // measure 9
0001
0100
0010
1000
0100
1000
0010
0100
0000
0010
0000
1000
0000
0001
0000
0100
,  // measure 10
0001
0010
0100
0010
0001
1000
0010
0100
0010
0000
1000
0000
0001
0000
0100
0000
,  // measure 11
0001
0010
0100
1000
0010
0100
0010
1000
0001
0000
0100
0000
0010
0000
1000
0000
,  // measure 12
0001
0010
0001
0100
0010
1000
0100
1000
0010
0000
0100
0000
0001
0000
1000
0000
,  // measure 13
0001
0100
0010
0100
0001
1000
0001
1000
1001
0000
0000
0000
0000
0000
0000
0000
,  // measure 14
1000
0100
1000
0010
0100
0001
0010
0001
0100
0000
0010
0000
1000
0000
0001
0000
,  // measure 15
0100
0010
1000
0001
0010
0001
0010
0001
0100
0000
0010
0000
1000
0000
0001
0000
,  // measure 16
0100
0010
1000
0001
0100
0010
1000
0001
0010
0000
0001
0000
0100
0000
0010
1000
,  // measure 17
0010
0100
0001
0010
0001
0100
0010
1000
0001
1000
0200
0000
0000
0000
0000
0300
,  // measure 18
0022
0000
0000
0000
0000
0000
0000
0000
0033
0000
1010
0010
1100
0010
0101
0001
,  // measure 19
0011
0001
0100
1010
0100
1000
1010
0010
0110
0001
1000
2200
0000
0000
0000
3300
,  // measure 20
0110
0000
0000
0000
0010
1000
0010
0000
1100
0000
0000
0000
0010
0100
0010
0000
,  // measure 21
1001
0101
1001
1100
,  // measure 22
1010
0010
0100
0110
0000
0000
1010
0000
,  // measure 23
0101
0001
0010
0101
0000
0000
1010
0000
,  // measure 24
0110
0000
0000
0000
1000
0010
1000
0000
0110
0000
0000
0000
0010
0100
0010
0000
,  // measure 25
1001
0101
0011
1100
,  // measure 26
1001
0001
1000
1001
0000
0000
0110
0000
,  // measure 27
1010
0010
0100
0011
0000
0000
0101
0000
,  // measure 28
1001
0000
0000
0000
0010
1000
0001
0000
0110
0000
0000
0000
1000
0001
0010
0000
,  // measure 29
0101
1100
1010
0110
,  // measure 30
1001
0001
0010
1100
0000
0000
0101
0000
,  // measure 31
2020
0000
0000
3030
0101
0000
0001
0100
,  // measure 32
0001
1000
0100
1100
0000
0000
0110
0010
,  // measure 33
1010
0000
0000
0010
0100
0101
0000
0000
,  // measure 34
0001
0010
0100
1000
0010
0100
0010
1000
,  // measure 35
0100
0010
0001
0100
0020
0000
0000
0000
,  // measure 36
1030
0100
0010
1100
0000
0000
0010
0100
,  // measure 37
0101
0000
0000
0001
0100
0110
0000
0000
,  // measure 38
0010
1000
0100
0010
0100
1000
0010
0100
,  // measure 39
0002
0000
0023
0000
0230
0000
2300
0000
3001
0010
0100
1000
0001
0010
0100
1000
,  // measure 40
0001
0100
0000
0010
1000
0000
0100
1000
0000
0010
1000
0000
0001
0000
0100
0000
,  // measure 41
0001
0010
0000
0001
0100
0000
0010
1000
0000
0100
1000
0000
0010
0000
0100
0000
,  // measure 42
0010
1000
0000
0010
0100
0000
0001
1000
0000
0001
0010
0000
0001
0000
0100
0000
,  // measure 43
0010
0000
1000
0000
0010
0000
0100
0010
0000
1000
0100
1000
0010
0100
0010
1000
,  // measure 44
0001
1000
0000
0010
1000
0000
0001
0010
0000
0001
0100
0000
0010
0000
1000
0000
,  // measure 45
0100
1000
0000
0001
0010
0000
0001
0100
0000
0010
0100
0000
0001
0000
1000
0000
,  // measure 46
0100
1000
0000
0010
0100
0000
0010
1000
0000
0100
1000
0000
0001
0000
0100
0000
,  // measure 47
0001
0000
0010
0000
0001
0000
0100
0010
0000
1000
0100
1000
0010
1000
0010
0100
,  // measure 48
0001
1000
0000
1000
0001
0000
0001
0010
0000
0010
1000
0000
0010
0000
0100
0000
,  // measure 49
0010
0001
0000
0001
1000
0000
0010
0100
0000
0100
0010
0000
1000
0000
0100
0000
,  // measure 50
1000
0100
0000
0100
0010
0000
0010
0001
0000
0001
1000
0000
0010
0000
1000
0000
,  // measure 51
0001
0000
1000
0000
0001
0000
1000
0010
0000
0010
1000
0100
1000
0010
0100
0001
,  // measure 52
1000
0100
0000
1000
0100
0000
0010
0001
0000
0010
0001
0000
0100
0000
0010
0000
,  // measure 53
1000
0001
0000
1000
0001
0000
0100
0001
0000
0100
0001
0000
0010
0000
0100
0000
,  // measure 54
1000
0010
0000
0100
0010
0000
1000
0001
0000
0100
0001
0000
1000
0000
0100
0000
,  // measure 55
1000
0100
0010
0101
0000
0220
0000
0330
,  // measure 56
1001
0010
0100
0010
1000
0001
0100
0001
,  // measure 57
0010
0001
1100
0010
1100
0001
1100
0010
,  // measure 58
0110
1000
0001
0101
0001
0010
0101
0010
,  // measure 59
1010
0100
1000
0110
1000
0001
0100
0010
,  // measure 60
1100
0001
0100
0001
0010
0001
0100
0010
,  // measure 61
1000
0100
0011
0010
1100
0100
1010
0010
,  // measure 62
0101
0001
1000
0101
0010
1000
1100
0010
,  // measure 63
0110
0000
0001
0000
1000
0000
0001
0000
0010
0000
0001
1000
0010
0100
0001
0010
,  // measure 64
0001
1100
0000
1010
0000
0110
0000
1010
,  // measure 65
0000
0101
0000
0011
0000
0101
0000
0110
,  // measure 66
1010
1010
0101
0101
1100
1010
0110
1001
,  // measure 67
0101
0010
1000
1100
0000
0000
0001
0100
,  // measure 68
0110
0000
0000
0010
1000
1100
0000
0000
,  // measure 69
0001
0100
0010
1000
0100
0010
0001
0100
,  // measure 70
0010
1000
0001
0100
0010
1000
0100
1000
,  // measure 71
0001
0100
0010
1010
0000
0000
0010
0100
,  // measure 72
0110
0000
0000
0010
1000
1001
0000
0000
,  // measure 73
0001
0100
0010
1000
0100
0010
0001
0100
,  // measure 74
0020
0000
2030
0000
3020
0000
0230
0000
0301
0010
0100
0010
0001
0100
0010
1000
,  // measure 75
0001
0100
0000
0010
1000
0000
0100
1000
0000
0010
1000
0000
0001
0000
0100
0000
,  // measure 76
0001
0010
0000
0001
0100
0000
0010
1000
0000
0100
1000
0000
0010
0000
0100
0000
,  // measure 77
0010
1000
0000
0010
0100
0000
0001
1000
0000
0001
0010
0000
0001
0000
0100
0000
,  // measure 78
0010
0000
1000
0000
0010
0000
0100
0010
0000
1000
0100
1000
0010
0100
0010
1000
,  // measure 79
0001
1000
0000
0010
1000
0000
0001
0010
0000
0001
0100
0000
0010
0000
1000
0000
,  // measure 80
0100
1000
0000
0001
0010
0000
0001
0100
0000
0010
0100
0000
0001
0000
1000
0000
,  // measure 81
0100
1000
0000
0010
0100
0000
0010
1000
0000
0100
1000
0000
0001
0000
0100
0000
,  // measure 82
0001
0000
0010
0000
0001
0000
0100
0010
0000
1000
0100
1000
0010
1000
0010
0100
,  // measure 83
0001
1000
0000
1000
0001
0000
0001
0010
0000
0010
1000
0000
0010
0000
0100
0000
,  // measure 84
0010
0001
0000
0001
1000
0000
0010
0100
0000
0100
0010
0000
1000
0000
0100
0000
,  // measure 85
1000
0100
0000
0100
0010
0000
0010
0001
0000
0001
1000
0000
0010
0000
1000
0000
,  // measure 86
0001
0000
1000
0000
0001
0000
1000
0010
0000
0010
1000
0100
1000
0010
0100
0001
,  // measure 87
1000
0100
0000
1000
0100
0000
0010
0001
0000
0010
0001
0000
0100
0000
0010
0000
,  // measure 88
1000
0001
0000
1000
0001
0000
0100
0001
0000
0100
0001
0000
0010
0000
0100
0000
,  // measure 89
1000
0010
0000
0100
0010
0000
1000
0001
0000
0100
0001
0000
1000
0000
0100
0000
,  // measure 90
2200
3300
0000
0000
0000
0000
0000
0000
0000
0000
0000
0000
0000
0000
0000
0000
0000
0000
0000
0000
0000
0000
0000
0000
1010
0000
0000
0000
0000
0000
0000
0000
1001
0000
0000
0000
0000
0000
0000
0000
0000
0000
0000
0000
0000
0000
0000
0000
0000
0000
0000
0000
0000
0000
0000
0000
0000
0000
0000
0000
0000
0000
0000
0000
;

//---------------dance-single - ----------------
#NOTES:
     dance-single:
     :
     Easy:
     5:
     0.404,0.547,0.028,0.103,0.009: // measure 1
0000
0000
0000
0000
,  // measure 2
1000
0010
0100
0100
,  // measure 3
0001
0010
0001
0001
,  // measure 4
0100
0010
1000
1000
,  // measure 5
0100
1000
0100
0000
1100
0000
0000
0000
,  // measure 6
0001
0100
0001
0001
,  // measure 7
0100
0010
1000
1000
,  // measure 8
0010
0100
0001
0001
,  // measure 9
1000
0100
1000
0100
,  // measure 10
0010
0001
0100
0100
,  // measure 11
0010
1000
0001
0001
,  // measure 12
0100
0010
1000
1000
,  // measure 13
0001
0100
0001
0000
0101
0000
0000
0000
,  // measure 14
0010
1000
0010
0010
,  // measure 15
0100
0001
1000
1000
,  // measure 16
0001
0010
0001
0001
,  // measure 17
0100
0010
0100
0010
0100
0010
0000
0000
,  // measure 18
2200
0000
0000
0000
3300
0001
0100
0000
,  // measure 19
0001
0000
0000
0001
0000
0000
0001
0000
0001
0000
0000
0001
0000
0000
0000
0000
,  // measure 20
1000
0100
1000
0010
,  // measure 21
0100
0001
0001
0001
,  // measure 22
1000
0000
0000
1000
0000
0000
1000
0000
,  // measure 23
0010
0000
0000
0010
0000
0000
0000
0000
,  // measure 24
1000
0001
0100
0001
,  // measure 25
1000
0010
0010
0010
,  // measure 26
1000
0000
0000
1000
0000
0000
0001
0000
,  // measure 27
1000
0000
0000
1000
0000
0000
0000
0000
,  // measure 28
0010
0100
0001
1000
,  // measure 29
0001
0010
0010
0010
,  // measure 30
0001
0000
0000
0100
0000
0000
0001
0000
,  // measure 31
0200
0000
0000
0000
,  // measure 32
0310
0000
0000
1000
,  // measure 33
0001
0000
1000
0000
,  // measure 34
0010
1000
0010
1000
,  // measure 35
0001
0100
0001
0100
,  // measure 36
0010
0000
0000
1000
,  // measure 37
0100
0000
0010
0000
,  // measure 38
0001
0100
0001
0100
,  // measure 39
0020
0000
0000
0030
0020
0000
0000
0030
0020
0000
0000
0000
0000
0000
0000
0000
,  // measure 40
1030
0000
0000
0100
0000
0000
1000
0000
,  // measure 41
0010
0000
0000
0100
0000
0000
0010
0000
,  // measure 42
1000
0000
0000
0001
0000
0000
0100
0000
,  // measure 43
0001
0000
0000
1000
0000
0000
0000
0000
,  // measure 44
0010
0000
0000
1000
0000
0000
0100
0000
,  // measure 45
1000
0000
0000
0001
0000
0000
0010
0000
,  // measure 46
0001
0000
0000
0100
0000
0000
0010
0000
,  // measure 47
1000
0000
0000
0010
0000
0000
0000
0000
,  // measure 48
1000
0000
0000
0001
0000
0000
0100
0000
,  // measure 49
0010
0000
0000
0100
0000
0000
0001
0000
,  // measure 50
1000
0000
0000
0001
0000
0000
0100
0000
,  // measure 51
0010
0000
0000
0010
0000
0000
0000
0000
,  // measure 52
1000
0000
0000
0001
0000
0000
0100
0000
,  // measure 53
0010
0000
0000
1000
0000
0000
0100
0000
,  // measure 54
1000
0000
0000
0001
0000
0000
0100
0000
,  // measure 55
0001
1000
0001
1000
0000
0000
0000
0000
,  // measure 56
0010
1000
0100
0010
,  // measure 57
0001
0100
0100
0100
,  // measure 58
0010
0000
0000
1000
0000
0000
0010
0000
,  // measure 59
0100
0000
0000
0001
0000
0000
0000
0000
,  // measure 60
1000
0100
1000
0010
,  // measure 61
0100
0001
0001
0001
,  // measure 62
1000
0000
0000
0010
0000
0000
1000
0000
,  // measure 63
0002
0000
0000
0000
,  // measure 64
0103
0010
0100
0010
,  // measure 65
1000
0001
1000
0001
,  // measure 66
1000
0000
1000
0000
0010
0010
0010
0000
,  // measure 67
1000
0000
0000
0010
,  // measure 68
1000
0000
0001
0000
,  // measure 69
0100
0010
1000
0001
,  // measure 70
0100
0001
1000
0010
,  // measure 71
1000
0000
0000
0001
,  // measure 72
0100
0000
0010
0000
,  // measure 73
1000
0100
1000
0010
,  // measure 74
0200
0000
0000
0300
0200
0000
0000
0300
0200
0000
0000
0000
0000
0000
0000
0000
,  // measure 75
0301
0000
0000
1000
0000
0000
0010
0000
,  // measure 76
0100
0000
0000
0001
0000
0000
1000
0000
,  // measure 77
0100
0000
0000
0010
0000
0000
0001
0000
,  // measure 78
0100
0000
0000
0010
0000
0000
0000
0000
,  // measure 79
0100
0000
0000
0001
0000
0000
1000
0000
,  // measure 80
0010
0000
0000
1000
0000
0000
0001
0000
,  // measure 81
0100
0000
0000
0001
0000
0000
1000
0000
,  // measure 82
0100
0000
0000
1000
0000
0000
0000
0000
,  // measure 83
0010
0000
0000
0100
0000
0000
0010
0000
,  // measure 84
1000
0000
0000
0001
0000
0000
0100
0000
,  // measure 85
0001
0000
0000
1000
0000
0000
0100
0000
,  // measure 86
1000
0000
0000
0010
0000
0000
0000
0000
,  // measure 87
0100
0000
0000
0010
0000
0000
1000
0000
,  // measure 88
0100
0000
0000
1000
0000
0000
0010
0000
,  // measure 89
0100
0000
0000
0001
0000
0000
1000
0000
,  // measure 90
0002
0003
0000
0000
0000
0000
0000
0000
0000
0000
0000
0000
0000
0000
0000
0000
0000
0000
0000
0000
0000
0000
0000
0000
1000
0000
0000
0000
0000
0000
0000
0000
0001
0000
0000
0000
0000
0000
0000
0000
0000
0000
0000
0000
0000
0000
0000
0000
0000
0000
0000
0000
0000
0000
0000
0000
0000
0000
0000
0000
0000
0000
0000
0000
;

//---------------dance-single - ----------------
#NOTES:
     dance-single:
     :
     Beginner:
     3:
     0.243,0.294,0.000,0.094,0.000: // measure 1
0000
0000
0000
0000
,  // measure 2
0100
0000
0100
0000
,  // measure 3
0010
0000
0010
0000
,  // measure 4
1000
0000
1000
0000
,  // measure 5
0001
0000
0002
0000
,  // measure 6
1003
0000
0100
0000
,  // measure 7
1000
0000
0100
0000
,  // measure 8
1000
0000
0010
0000
,  // measure 9
2000
0000
0000
0000
,  // measure 10
3001
0000
0100
0000
,  // measure 11
0010
0000
1000
0000
,  // measure 12
0001
0000
0100
0000
,  // measure 13
0010
0000
0200
0000
,  // measure 14
0301
0000
1000
0000
,  // measure 15
0001
0000
1000
0000
,  // measure 16
0010
0000
0100
0000
,  // measure 17
0020
0000
0000
0000
,  // measure 18
2030
0000
3000
0010
,  // measure 19
0010
0000
0100
0000
,  // measure 20
0001
0000
1000
0000
,  // measure 21
0001
0100
0001
0000
,  // measure 22
1000
0000
1000
0000
,  // measure 23
0010
0000
0010
0000
,  // measure 24
0100
0000
0001
0000
,  // measure 25
1000
0000
0001
1000
,  // measure 26
0001
0000
0100
0000
,  // measure 27
0010
0000
1000
0000
,  // measure 28
0001
0000
0100
0000
,  // measure 29
0001
0000
1000
0100
,  // measure 30
1000
0000
0010
0000
,  // measure 31
0200
0000
0000
0000
,  // measure 32
0310
0000
0010
0000
,  // measure 33
0010
0000
0000
0000
,  // measure 34
1000
0000
1000
0000
,  // measure 35
1000
0000
0000
0000
,  // measure 36
0001
0000
0001
0000
,  // measure 37
0001
0000
0000
0000
,  // measure 38
0100
0000
0100
0000
,  // measure 39
0200
0000
0020
0330
,  // measure 40
0010
0000
0000
1000
,  // measure 41
1000
0000
0000
0001
,  // measure 42
0001
0000
0000
0100
,  // measure 43
0100
0000
0010
0000
,  // measure 44
1000
0000
0000
0001
,  // measure 45
0001
0000
0000
0100
,  // measure 46
0100
0000
0000
0010
,  // measure 47
0010
0000
1000
0000
,  // measure 48
0100
0000
0000
0010
,  // measure 49
0010
0000
0000
0001
,  // measure 50
0001
0000
0000
0100
,  // measure 51
0100
0000
0001
0000
,  // measure 52
1000
0000
0000
0010
,  // measure 53
0010
0000
0000
1000
,  // measure 54
1000
0000
0000
0001
,  // measure 55
0002
0000
0000
0000
,  // measure 56
1003
0000
1000
0000
,  // measure 57
0010
0000
0100
0010
,  // measure 58
0100
0000
0001
0000
,  // measure 59
1000
0000
0001
0000
,  // measure 60
0010
0000
0001
0000
,  // measure 61
0100
0000
0010
1000
,  // measure 62
0010
0000
1000
0000
,  // measure 63
0001
0000
1000
0000
,  // measure 64
0010
0000
0010
0000
,  // measure 65
0010
0000
0010
0000
,  // measure 66
1000
0000
0000
0000
,  // measure 67
1000
0000
0010
0000
,  // measure 68
1000
0000
0000
0000
,  // measure 69
0001
0000
0100
0000
,  // measure 70
0001
0000
0000
0000
,  // measure 71
0100
0000
0010
0000
,  // measure 72
0100
0000
0000
0000
,  // measure 73
0010
0000
1000
0000
,  // measure 74
0002
0000
0000
0000
,  // measure 75
1003
0000
0000
0010
,  // measure 76
0010
0000
0000
0100
,  // measure 77
0100
0000
0000
0001
,  // measure 78
0001
0000
1000
0000
,  // measure 79
0100
0000
0000
0100
,  // measure 80
0100
0000
0000
1000
,  // measure 81
1000
0000
0000
0001
,  // measure 82
0001
0000
0100
0000
,  // measure 83
0010
0000
0000
1000
,  // measure 84
1000
0000
0000
0001
,  // measure 85
0001
0000
0000
0100
,  // measure 86
0100
0000
0010
0000
,  // measure 87
1000
0000
0000
0001
,  // measure 88
0001
0000
0000
0100
,  // measure 89
0100
0000
0000
0010
,  // measure 90
0010
0000
1000
0000
;
