#TITLE:HELL SCAPER;
#SUBTITLE:-Last Escape Remix-;
#ARTIST:L.E.D.LIGHT-G Remixed by DJ TECHNORCH fw. GUHROOVY;
#TITLETRANSLIT:;
#SUBTITLETRANSLIT:;
#ARTISTTRANSLIT:;
#CREDIT:;
#BANNER:;
#BACKGROUND:;
#LYRICSPATH:;
#CDTITLE:;
#MUSIC:HELL SCAPER -Last Escape Remix-.mp3;
#OFFSET:-0.426;
#SAMPLESTART:33.050;
#SAMPLELENGTH:15.000;
#SELECTABLE:YES;
#BPMS:0.000=90.015,15.000=180.030;
#STOPS:15.000=0.960
,176.000=4.060
,372.000=4.680
;
#BGCHANGES:;

//---------------dance-single - ----------------
#NOTES:
     dance-single:
     :
     Hard:
     10:
     0.762,1.000,0.660,0.084,0.432:
0000
0000
0000
0000
,
0000
0000
0000
0000
,
0000
0000
0000
0000
,
0000
0000
0000
0000
,
1000
0100
1000
0100
0010
0001
0010
0001
,
0100
0000
0010
1000
0010
0000
0100
0000
0010
0000
1000
0000
0010
0000
0100
0000
,
0001
0010
0100
1000
0001
0010
0100
1000
,
0001
0000
0100
0000
0010
1000
0010
0100
0010
1000
0100
1000
0010
0000
0100
0000
,
0001
1000
0001
1000
0010
1000
0010
1000
,
0010
0000
0100
0001
0100
0000
0010
0000
1000
0000
0100
0000
0010
0000
0001
0000
,
0100
0010
1000
0100
1000
0010
0100
0010
,
0000
1010
0000
0101
0000
0011
0001
0100
,
0001
1000
0010
0100
0001
1000
0010
0100
,
0001
0000
1000
0100
0010
0100
1000
0100
1000
0000
0000
0000
1010
0000
0000
0000
,
1000
0010
0100
0001
1000
0100
0010
0001
,
0100
0000
0010
0100
0000
0100
0000
0100
0010
0000
0000
0000
1010
0000
0000
0000
,
0100
0010
1000
0001
0010
0001
0100
0001
,
0100
0010
0100
0010
0100
0000
0010
0000
1000
0000
0000
0000
1100
0000
0000
0000
,
0001
0010
0100
1000
0001
0010
0100
1000
,
2002
0000
0000
0000
0000
3003
0001
0100
,
0001
1100
0000
0110
0000
0010
1000
0001
,
0000
1100
0000
0010
0100
0001
1000
0001
,
0000
0011
0000
0101
0000
0010
1000
0001
,
0000
0101
0000
0011
0000
0100
0010
1000
,
0000
1100
0000
1010
0000
0110
0000
0101
,
0000
0000
0011
0000
0000
0000
0100
0000
0001
0000
0000
1100
0000
0000
1010
0000
,
0000
0110
0000
1100
0000
0011
0000
0101
,
0000
0011
0000
0101
0000
0110
0000
1010
,
0000
0101
0000
0011
0000
0001
0100
0010
,
0000
1010
0000
1000
0100
0010
0001
0010
,
0000
0101
0000
0110
0000
1000
0100
0010
,
0000
0011
0000
0101
0000
0001
1000
0010
,
0000
1100
0000
0110
0000
1010
0000
0110
,
0000
0000
0101
0000
0000
0000
0001
0000
1000
0000
0000
1010
0000
0000
0110
0000
,
0000
1010
0000
0110
0000
1001
0000
0011
,
0000
0101
0000
0110
0000
1010
0000
1001
,
0001
0100
0001
0100
0010
1000
0010
1000
,
0100
1000
0100
1000
0010
0100
0010
0100
,
0001
1000
0001
1000
0001
0010
0001
0010
,
0001
0100
0001
0100
0010
1000
0010
1000
,
0001
0000
0100
0010
0100
0000
0010
1000
0010
0000
0100
0001
0100
0000
0001
0010
,
0001
0000
1000
0001
1000
0000
0010
0100
0010
0000
1000
0100
1000
0000
0001
0100
,
0001
0010
0001
0010
0001
0100
0001
0100
0010
0100
0010
0100
0010
1000
0010
1000
,
0001
1000
0001
1000
0010
0100
0010
0100
0001
0100
0001
0100
0010
1000
0010
1000
,
0001
0000
0000
0000
,
1000
0000
0000
0000
0001
0000
0000
0100
0000
0001
0000
1000
0000
0000
0000
0000
,
0001
1000
0001
2000
0000
0000
0000
3000
,
1000
0000
0010
0000
1000
0000
0010
0000
0100
0010
0000
0100
0010
0000
0000
0000
,
0010
0000
1000
0000
0010
0000
0100
0000
0000
0110
0000
0000
0110
0000
0000
0000
,
0001
0000
1000
0000
0001
0000
1000
0000
0001
0010
0000
0100
1000
0000
0000
0000
,
0010
0000
1000
0000
0010
0000
0100
0000
0000
0011
0000
0000
0011
0000
0000
0000
,
1000
0000
0100
0000
1000
0000
0010
0000
0100
0001
0000
1000
0001
0000
0000
0000
,
0100
0000
0001
0000
0100
0000
0010
0000
0000
1100
0000
0000
1010
0000
0000
0000
,
0001
0000
0100
0000
0001
0000
0100
0000
0010
1000
0000
0001
0010
0000
0000
0000
,
0001
0000
1000
0000
0001
0000
0100
0000
0000
0110
0000
0000
1010
0000
0000
0000
,
0001
0000
1000
0000
0100
0000
1000
0000
0010
0100
0000
0010
1000
0010
1000
0000
,
0001
0000
0010
0000
0001
0000
0100
0000
0000
1010
0000
0000
1100
0000
0000
0000
,
0001
0000
0100
0000
0010
0000
0100
0000
0010
1000
0000
0010
0100
0010
0100
0000
,
0001
0000
0010
0000
0100
0000
1000
0000
0000
1010
0000
0000
1010
0000
0000
0000
,
1000
0010
0100
0010
1000
0100
1000
0100
,
0010
0001
0010
0001
0100
0010
1000
0010
,
0100
0010
0100
0010
1000
0100
1000
0100
0010
0001
0010
0001
0100
0001
0100
0001
,
1000
0001
2000
0002
0000
3003
0220
0330
,
0001
0000
0100
0000
0010
0000
1000
0000
0010
1000
0000
0010
1000
0000
0000
0000
,
0001
0000
0100
0000
0001
0000
0010
0000
0000
0011
0000
0000
1100
0000
0000
0000
,
0010
0000
1000
0000
0100
0000
1000
0000
0010
0100
0000
0001
0010
0000
0000
0000
,
0001
0000
1000
0000
0100
0000
0010
0000
0000
0011
0000
0000
0101
0000
0000
0000
,
0010
0000
1000
0000
0100
0000
1000
0000
0010
1000
0000
0100
1000
0000
0000
0000
,
0001
0000
0010
0000
0001
0000
0100
0000
0000
0110
0000
0000
1001
0000
0000
0000
,
0100
0000
0010
0000
1000
0000
0100
0000
0010
0001
0000
1000
0100
0000
0000
0000
,
0010
0001
0010
0001
0100
0010
0100
0010
1000
0001
1000
0001
1000
0000
0000
0000
,
0001
0000
0100
0000
0010
0000
1000
0000
0100
1000
0000
0010
0100
0000
0000
0000
,
0010
0000
0100
0000
0010
0000
1000
0000
0000
1100
0000
0000
1001
0000
0000
0000
,
0001
0000
0100
0000
0010
0000
1000
0000
0001
0100
0000
0001
0100
0000
0000
0000
,
0010
0000
1000
0000
0100
0000
1000
0000
0000
0110
0000
0000
1001
0000
0000
0000
,
0100
0000
0010
0000
1000
0000
0100
0000
1000
0001
0000
0100
0001
0000
0000
0000
,
0100
0000
0001
0000
1000
0000
0100
0000
0000
1100
0000
0000
1010
0000
0000
0000
,
0001
0100
0001
0100
0010
1000
0010
1000
0010
0100
0010
0100
0001
1000
0001
1000
,
0001
1000
0001
0000
2002
0000
0000
3003
,
1000
0100
1000
0100
2200
0000
3300
0110
,
0000
1001
0000
0001
0100
0010
1000
0100
,
1000
0010
0100
0010
1001
0000
0010
1000
,
0000
1100
0000
1000
0010
0100
0010
1000
,
0100
1001
0110
1001
,
0001
0000
0100
0000
0010
0000
1000
0000
0001
1000
0001
0100
0020
0000
0000
0000
,
1030
0000
0001
0000
0100
0000
0001
0000
1000
0001
0000
1000
0001
0000
0000
0000
,
0100
0000
0001
0000
0010
0000
0001
0000
0000
1100
0000
0000
1010
0000
0000
0000
,
0010
0000
0100
0000
0001
0000
1000
0000
0001
0100
0000
0010
0100
0000
0000
0000
,
0010
0000
1000
0000
0100
0000
1000
0000
0000
1001
0000
0000
0101
0000
0000
0000
,
0001
0000
0100
0000
0010
0000
0100
0000
0010
1000
0000
0001
0010
0000
0000
0000
,
0001
0000
0010
0000
0001
0000
0100
0000
0000
0110
0000
0000
1010
0000
0000
0000
,
0001
0000
0100
0000
0010
0000
1000
0000
0001
0100
0001
0100
0001
0100
0001
0100
,
0001
0000
0010
0000
0010
0000
0010
0000
0000
0011
0000
0000
0001
0100
0010
0100
,
0110
0000
1100
0000
;

//---------------dance-single - ----------------
#NOTES:
     dance-single:
     :
     Medium:
     7:
     0.528,0.558,0.077,0.133,0.154:
0000
0000
0000
0000
,
0000
0000
0000
0000
,
0000
0000
0000
0000
,
0000
0000
0000
0000
,
1000
0001
0100
0000
0010
1000
0010
0000
,
0100
0001
1000
0001
0100
0010
1000
0000
,
0010
0100
0001
0000
1000
0100
1000
0000
,
0001
0100
0001
0010
0001
0100
0010
0000
,
1000
0100
0010
0000
0010
0100
1000
0000
,
0010
0100
0001
0010
0001
0100
0010
0000
,
1000
0010
0100
0000
0001
1000
0001
1000
,
0000
1010
0000
0110
0000
0010
1000
0100
,
1000
0001
0100
0000
0010
1000
0001
0000
,
0100
0000
0000
0001
0100
0000
0010
0000
0100
0000
0000
0000
1001
0000
0000
0000
,
0010
1000
0001
0000
0010
0001
0100
0000
,
0010
0000
0000
0100
0000
0000
0001
0000
0010
0000
0000
0000
1001
0000
0000
0000
,
1000
0100
0010
0000
0001
0100
0010
0000
,
1000
0001
0010
0001
0100
0000
1001
0000
,
0100
0010
0100
0010
1000
0001
1000
0001
,
0201
0000
0000
0000
0000
0000
0310
1000
,
0010
1000
0000
0001
0000
0100
0010
0100
,
0000
0010
0000
1000
0100
1000
0010
1000
,
0000
0001
0000
0100
0000
0001
0010
0001
,
0000
0100
0000
0010
0000
0100
0001
1000
,
0000
0100
0000
1000
0000
0010
0000
0100
,
0000
0000
0001
0000
0000
0000
1000
0000
0001
0000
0000
0001
0000
0000
0001
0000
,
0000
1000
0000
0100
0000
1000
0000
0010
,
0000
0100
0000
0010
0000
1010
0000
1010
,
0000
0001
0000
0100
0000
0001
0100
0001
,
0000
1000
0000
0010
0100
0010
1000
0001
,
0000
0100
0000
0010
0000
1000
0100
1000
,
0000
0001
0000
0100
0000
0010
1000
0001
,
0000
0100
0000
0010
0000
1000
0000
0010
,
0000
0000
0100
0000
0000
0000
0010
0000
1000
0000
0000
1000
0000
0000
1000
0000
,
0000
0001
0000
0100
0000
0010
0000
1000
,
0000
0001
0000
0100
0000
0010
0000
1000
,
0001
1000
0001
0000
0100
0010
0100
0000
,
0010
1000
0010
0000
0100
0001
0100
0000
,
0010
1000
0010
0000
0100
0001
0100
0000
,
0010
0100
0010
0000
1000
0001
1000
0000
,
0001
0000
0000
0001
1000
0000
0000
1000
0010
0000
0000
0010
0100
0000
0000
0100
,
0010
0000
0000
0010
1000
0000
0000
1000
0001
0000
0000
0001
0010
0000
0000
0010
,
0100
1000
0100
0010
0001
0010
0100
1000
,
0100
0010
0001
0010
0100
1000
0100
0010
,
0001
0000
0000
0000
,
2000
0000
0002
0000
0000
0000
0000
3003
,
0200
0000
0010
0020
0000
0000
0000
0330
,
1000
0000
0001
0000
1000
0000
0001
0000
0000
1000
0000
0000
0001
0000
0000
0000
,
1000
0000
0000
0000
1000
0000
0100
0000
0000
0100
0000
0000
0010
0000
0000
0000
,
1000
0000
0001
0000
0100
0000
0001
0000
0000
1000
0000
0000
0001
0000
0000
0000
,
0100
0000
0000
0000
0001
0000
0010
0000
0000
0001
0000
0000
0100
0000
0000
0000
,
0010
0000
1000
0000
0001
0000
1000
0000
0000
0010
0000
0000
0100
0000
0000
0000
,
0001
0000
0000
0000
0010
0000
0001
0000
0000
0100
0000
0000
0010
0000
0000
0000
,
1000
0000
0001
0000
1000
0000
0001
0000
0000
0100
0000
0000
0010
0000
0000
0000
,
1000
0000
0000
0000
0010
0000
0100
0000
0000
0010
0000
0000
1000
0000
0000
0000
,
0001
0000
0100
0000
0001
0000
0000
0000
1000
0000
0000
0100
0000
0000
1000
0000
,
0010
0000
0100
0000
0010
0000
0000
0100
0000
0000
0001
0000
1000
0000
0000
0000
,
0001
0000
1000
0000
0001
0000
0000
0000
0100
0000
0000
0010
0000
0000
0100
0000
,
0010
0000
1000
0000
0010
0000
0100
0000
0000
0001
0000
0000
1000
0000
0000
0000
,
0001
1000
0001
0000
0100
0001
1000
0000
,
0001
0100
0001
0000
1000
0001
1000
0000
,
0001
0100
0001
0100
0010
1000
0010
1000
,
0010
0100
0010
0200
0000
0000
0310
0000
,
1000
0000
0100
0000
1000
0000
0000
0000
0002
0000
0000
0103
0000
0000
0000
0000
,
0010
0000
1000
0000
0010
0000
1000
0000
0000
0001
0000
0000
0010
0000
0000
0000
,
0001
0000
0100
0000
0010
0000
0000
0000
2000
0000
0000
3010
0000
0000
0000
0000
,
0001
0000
0100
0000
0001
0000
1000
0000
0000
0100
0000
0000
1000
0000
0000
0000
,
0010
0000
0100
0000
0001
0000
0000
0000
2000
0000
0000
3001
0000
0000
0000
0000
,
0001
0000
0100
0000
0001
0000
1000
0000
0000
0100
0000
0000
0010
0000
0000
0000
,
0001
0000
0100
0000
0010
0000
0000
0000
2000
0000
0000
3001
0000
0000
0000
0000
,
0001
1000
0001
1000
0001
1000
0001
0000
,
1000
0000
0100
0000
1000
0000
0000
0000
0020
0000
0000
0130
0000
0000
0000
0000
,
0001
0000
1000
0000
0100
0000
0010
0000
0000
0001
0000
0000
0100
0000
0000
0000
,
0010
0000
1000
0000
0001
0000
0000
0000
0200
0000
0000
0310
0000
0000
0000
0000
,
0010
0000
1000
0000
0001
0000
0100
0000
0000
0001
0000
0000
0010
0000
0000
0000
,
0001
0000
1000
0000
0001
0000
0000
0000
2000
0000
0000
3001
0000
0000
0000
0000
,
0100
0000
0010
0000
0100
0000
0001
0000
0000
0010
0000
0000
0001
0000
0000
0000
,
1000
0001
1000
0001
0100
0010
0100
0010
,
1000
0100
1000
0000
2002
0000
3003
0000
,
0001
0000
0100
0001
0100
0000
0000
0010
,
0000
1000
0000
0010
0100
0000
0010
0000
,
1000
0001
1000
0001
1000
0000
0001
0100
,
0000
0010
0000
0100
0010
1000
0010
1000
,
0010
1000
0010
0100
,
0001
1000
0001
0000
0100
0010
2000
0000
,
3001
0000
0100
0000
0001
0000
0000
0000
2000
0000
0000
3100
0000
0000
0000
0000
,
0001
0000
0100
0000
0001
0000
0100
0000
0000
0010
0000
0000
0100
0000
0000
0000
,
0010
0000
1000
0000
0001
0000
0000
0000
0200
0000
0000
0310
0000
0000
0000
0000
,
0010
0000
1000
0000
0010
0000
0100
0000
0000
0100
0000
0000
0010
0000
0000
0000
,
1000
0000
0100
0000
1000
0000
0000
0000
0002
0000
0000
0103
0000
0000
0000
0000
,
0010
0000
1000
0000
0010
0000
0001
0000
0000
0010
0000
0000
1000
0000
0000
0000
,
0010
0000
1000
0000
0001
1000
0001
1000
,
0001
0000
0000
0000
1000
0000
0001
0000
0000
1000
0000
0000
0001
0000
0000
0000
,
1001
0000
1001
0000
;

//---------------dance-single - ----------------
#NOTES:
     dance-single:
     :
     Challenge:
     11:
     0.867,1.000,1.000,0.105,0.449: // measure 1
0000
0000
0000
0000
,  // measure 2
0000
0000
0000
0000
,  // measure 3
0000
0000
0000
0000
,  // measure 4
0000
0000
0000
0000
,  // measure 5
1000
0100
0010
0100
1000
0001
0100
0001
,  // measure 6
0010
0000
0001
1000
0100
0000
1000
0000
0010
0000
0100
0000
0001
0000
0010
0000
,  // measure 7
0100
1000
0100
0010
0001
0100
0010
1000
,  // measure 8
0100
0000
0010
0001
1000
0100
1000
0001
1000
0100
0010
0001
0100
0000
0010
0000
,  // measure 9
1000
0100
0010
0001
0100
0010
1000
0001
,  // measure 10
1000
0000
0001
0100
0010
0000
1000
0000
0100
0000
1000
0000
0010
0000
0100
0000
,  // measure 11
0001
1000
0100
1000
0010
0100
0010
1000
,  // measure 12
0000
1001
0000
0101
0000
0011
1001
1000
,  // measure 13
1010
0010
0100
0010
1000
0001
0010
0001
,  // measure 14
0100
0000
0010
1000
0100
0010
0001
1000
0100
0000
0000
0000
1001
0000
0000
0000
,  // measure 15
1001
0100
0010
0001
0100
0010
1000
0100
,  // measure 16
0011
0000
0001
0101
0000
0110
0000
1010
1100
0000
0000
0000
0110
0000
0000
0000
,  // measure 17
1001
0100
0001
0010
0001
0100
0010
1000
,  // measure 18
0100
0010
0100
1000
0100
0000
0100
0000
0010
0000
0000
0000
1100
0000
0000
0000
,  // measure 19
1001
0001
0100
0010
1000
0100
1000
0010
,  // measure 20
0220
0000
0000
0000
0000
0330
0010
1000
,  // measure 21
1001
1100
0000
1010
0000
0110
1010
0101
,  // measure 22
0000
0011
0000
0110
1010
0110
0101
0110
,  // measure 23
0000
1100
0000
0101
0000
0011
0110
1010
,  // measure 24
0000
1001
0000
0101
0000
0011
0110
1100
,  // measure 25
0000
0110
0000
1001
0000
0101
0000
0011
,  // measure 26
0000
0000
0101
0000
0000
0000
0110
0000
1010
0000
0000
1100
0000
0000
1010
0000
,  // measure 27
0000
1100
0000
1010
0000
0110
0000
1001
,  // measure 28
0000
0011
0000
0011
0000
1100
1000
1010
,  // measure 29
0010
0110
0000
1100
0000
1001
0101
0011
,  // measure 30
0000
1100
0000
0110
1100
0101
0110
1001
,  // measure 31
0000
0011
0000
0110
0000
1010
0110
0101
,  // measure 32
0000
0011
0000
0110
0000
1100
0110
0011
,  // measure 33
0000
0101
0000
0110
0000
1010
0000
1100
,  // measure 34
0000
0000
1010
0000
0000
0000
0110
0000
1001
0000
0000
0011
0000
0000
0101
0000
,  // measure 35
0000
1100
0000
1010
0000
0110
0000
1001
,  // measure 36
0000
0101
0000
0110
0000
1010
0000
0110
,  // measure 37
0001
0010
0100
0010
0001
1000
0100
0001
,  // measure 38
0100
1000
0010
0100
0001
0010
0001
0100
,  // measure 39
0010
1000
0100
1000
0010
0100
0001
1000
,  // measure 40
0001
1000
0100
0010
0001
0100
0001
0100
,  // measure 41
0010
0000
1000
0100
0001
0000
0100
1000
0010
0000
0100
0001
0010
0000
0001
0100
,  // measure 42
0010
0000
1000
0100
0010
0000
0001
0100
0001
0000
1000
0010
0100
0000
0001
0010
,  // measure 43
0001
0100
0010
1000
0100
1000
0010
0100
0001
0010
0001
0100
0001
0100
0010
1000
,  // measure 44
0010
0100
0010
1000
0001
0010
0001
0010
0100
1000
0010
0100
0001
1000
0010
0100
,  // measure 45
0001
0000
0000
0000
,  // measure 46
1100
0000
0000
0000
1001
0000
0000
0100
0000
0001
0000
1000
0000
0000
0000
0000
,  // measure 47
1000
0001
0100
2020
0000
0000
0000
3030
,  // measure 48
1000
0000
0010
0000
0100
0000
0010
0000
1000
0001
0000
0001
0100
0000
0000
0000
,  // measure 49
0010
0000
1000
0000
0010
0000
0110
0000
0000
0101
0000
0000
1001
0000
0000
0000
,  // measure 50
0001
0000
0100
0000
1000
0000
0100
0000
0010
1000
0000
1000
0001
0000
0000
0000
,  // measure 51
0001
0000
0100
0000
0010
0000
1010
0000
0000
0110
0000
0000
1001
0000
0000
0000
,  // measure 52
1000
0000
0010
0000
0100
0000
0001
0000
0010
0001
0000
0001
0100
0000
0000
0000
,  // measure 53
0010
0000
1000
0000
0100
0000
1001
0000
0000
0101
0000
0000
0011
0000
0000
0000
,  // measure 54
1000
0000
0001
0000
0100
0000
0010
0000
0100
0001
0000
0001
0010
0000
0000
0000
,  // measure 55
0001
0000
1000
0000
0100
0000
1100
0000
0000
1010
0000
0000
0110
0000
0000
0000
,  // measure 56
1000
0000
0010
0000
0100
0000
0001
0000
0010
0001
0000
0100
0010
1000
0010
0000
,  // measure 57
0100
0000
0010
0000
1000
0000
1100
0000
0000
1100
0000
0000
0011
0000
0000
0000
,  // measure 58
0001
0000
0100
0000
0001
0000
0010
0000
0001
0100
0000
0010
1000
0010
0100
0000
,  // measure 59
0001
0000
1000
0000
0100
0000
0110
0000
0000
1001
0000
0000
1001
0000
0000
0000
,  // measure 60
1000
0100
0010
0001
0100
0010
1000
0100
,  // measure 61
1000
0010
0100
0001
0010
0001
0100
0001
,  // measure 62
1000
0010
0100
0010
1000
0100
0010
0100
0001
0100
1000
0010
0100
0001
0010
0100
,  // measure 63
1000
0100
1000
2002
0000
3003
0220
0330
,  // measure 64
0001
0000
0100
0000
0010
0000
0100
0000
0010
1000
0010
1000
0100
0000
0000
0000
,  // measure 65
0010
0000
0001
0000
1000
0000
0011
0000
0000
0101
0000
0000
0110
0000
0000
0000
,  // measure 66
0010
0000
1000
0000
0100
0000
0010
0000
0001
1000
0001
0010
0100
0000
0000
0000
,  // measure 67
0010
0000
0001
0000
1000
0000
1010
0000
0000
0101
0000
0000
1001
0000
0000
0000
,  // measure 68
0001
0000
0100
0000
0010
0000
1000
0000
0100
1000
0001
0010
0100
0000
0000
0000
,  // measure 69
1000
0000
0010
0000
0100
0000
0101
0000
0000
0101
0000
0000
0110
0000
0000
0000
,  // measure 70
0010
0000
1000
0000
0001
0000
0010
0000
0001
0100
0010
1000
0001
0000
0000
0000
,  // measure 71
1000
0100
1000
0010
1000
0010
0100
0001
1000
0010
1000
0001
0101
0000
0000
0000
,  // measure 72
0010
0000
1000
0000
0100
0000
1000
0000
0001
0100
0001
0000
1000
0100
1000
0000
,  // measure 73
0001
0000
0010
0000
0001
0000
0110
0000
0000
1010
0000
0000
1100
0000
0000
0000
,  // measure 74
0100
0000
0010
0000
0100
0000
0001
0000
0010
0001
0010
0000
0001
0100
0001
0000
,  // measure 75
1000
0010
1000
0010
1000
0010
0110
0000
0000
1010
0000
0000
0101
0000
0000
0000
,  // measure 76
0010
0000
1000
0000
0100
0000
1000
0000
0001
1000
0000
0001
0100
0000
0000
0000
,  // measure 77
0010
0000
0100
0000
0010
0000
1100
0000
0000
0011
0000
0000
0101
0000
0000
0000
,  // measure 78
0010
0100
0010
1000
0100
0010
0001
0100
0010
1000
0001
0010
0001
0100
0010
1000
,  // measure 79
0001
1000
0020
0000
0200
0000
0000
0330
,  // measure 80
0101
0011
0101
0011
0202
0000
0303
1010
,  // measure 81
0000
1010
0000
0110
1001
0011
0101
0011
,  // measure 82
1001
1100
1010
0110
0202
0303
1010
0110
,  // measure 83
0000
1010
0000
0110
1001
1100
1010
0110
,  // measure 84
1001
0110
1010
0101
,  // measure 85
1001
0000
0001
0000
0100
0000
0010
0000
1000
0100
0010
0001
0200
0000
0000
0000
,  // measure 86
0301
0000
0100
0000
0010
0000
1000
0000
0100
1000
0000
0010
0100
0000
0000
0000
,  // measure 87
0001
0000
0010
0000
0100
0000
1100
0000
0000
0110
0000
0000
0011
0000
0000
0000
,  // measure 88
0001
0000
0100
0000
0010
0000
1000
0000
0100
1000
0000
0001
0100
0000
0000
0000
,  // measure 89
0010
0000
0100
0000
0010
0000
1010
0000
0000
1100
0000
0000
1001
0000
0000
0000
,  // measure 90
1000
0000
0100
0000
0010
0000
0001
0000
0100
0001
0000
0010
0001
0000
0000
0000
,  // measure 91
0100
0000
0001
0000
1000
0000
0110
0000
0000
0101
0000
0000
0011
0000
0000
0000
,  // measure 92
1000
0000
0100
0000
0010
0000
0001
0000
0100
0010
0100
1000
0100
0010
1000
0001
,  // measure 93
0100
0000
0000
0000
0011
0000
0000
0000
0101
0000
0000
0000
1001
0000
0000
0000
0000
0000
1100
0000
0000
0000
0000
0000
1000
0010
1000
0010
1000
0000
0000
0000
,  // measure 94
1001
0000
0110
0000
;

//---------------dance-single - ----------------
#NOTES:
     dance-single:
     :
     Easy:
     4:
     0.336,0.328,0.042,0.056,0.000:
0000
0000
0000
0000
,
0000
0000
0000
0000
,
0000
0000
0000
0000
,
0000
0000
0000
0000
,
1000
0100
1000
0001
,
0100
0010
1000
0001
,
0010
0001
0100
0010
,
1000
0001
0100
0001
,
0010
0001
0100
0010
,
1000
0100
1000
0010
,
0100
0010
1000
0001
,
0000
0100
0000
0100
0000
0100
0010
0000
,
1000
0001
0100
0001
,
1000
0100
1000
1010
,
0100
0010
1000
0001
,
0010
0000
0000
0001
1000
0000
0001
0000
,
1000
0100
0010
0001
,
0100
0000
0010
1000
0001
0000
1000
0000
,
0100
0010
0001
0100
,
0210
0000
0000
0000
0000
0000
0310
1000
,
0001
1000
0000
1000
0000
0010
0000
0100
,
0000
0001
0000
0010
0001
0000
0000
0100
,
0000
0010
0000
1000
0000
0001
0000
0100
,
0000
0001
0000
0010
0000
0001
0000
0100
,
0000
0010
0000
1000
0000
0100
0000
1000
,
0000
0010
0000
0100
0001
0000
0000
0001
,
1000
0001
0000
0100
0000
0010
0000
1000
,
0000
0100
0000
1000
0000
0010
0000
0100
,
0000
0001
0000
1000
0000
0001
0000
1000
,
0000
0010
0000
0100
0010
0000
0010
1000
,
0000
0001
0000
0100
0000
0001
0000
1000
,
0000
0100
0000
1000
0000
0010
0000
0001
,
0000
0010
0000
1000
0000
0001
0000
0100
,
0000
0001
0000
1000
0001
0000
0001
1000
,
0000
0001
0000
0100
0000
0001
0000
0100
,
0000
0010
0000
1000
0000
0010
0000
1000
,
0001
0001
1000
1000
,
0010
0010
0100
0100
,
0001
0010
0100
0010
,
0001
0100
0010
1000
,
0001
1000
0001
1000
,
0010
0100
0010
1000
,
0100
1000
0010
1000
,
0010
0000
0100
0000
0010
0000
1000
0010
,
1000
0000
0000
0000
,
2002
0000
0000
0000
,
0000
0000
0000
3003
,
0010
1000
0010
0000
,
0100
0001
1000
0000
,
0100
1000
0010
0000
,
0100
0001
0010
0000
,
0001
1000
0010
0000
,
0100
0010
1000
0000
,
0001
0100
0010
0000
,
1000
0001
0010
0000
,
0001
1000
0100
0000
,
0010
0001
1000
0000
,
0010
1000
0001
0000
,
0100
0010
1000
0000
,
0001
0100
0001
1000
,
0001
0100
0001
0010
,
0001
0100
0010
1000
,
0001
0000
1000
0002
0000
0000
0000
0000
,
1003
0100
0010
0000
,
0001
0100
0010
0000
,
1000
0001
1000
0000
,
0001
0010
0100
0000
,
1000
0010
0100
0000
,
0001
1000
0001
0000
,
0100
0010
1000
0000
,
0001
0000
0100
0000
0001
0100
0001
0000
,
1000
0010
0100
0010
,
1000
0001
0100
0000
,
0001
0010
0001
0100
,
0010
1000
0001
0000
,
0100
0010
1000
0001
,
0100
0010
1000
0000
,
0001
1000
0001
1000
,
0001
0000
1000
0000
2200
0000
0000
3300
,
0001
0000
1000
0000
0001
0000
0000
0100
,
0000
0100
0000
0000
0010
0000
1000
0000
,
0010
0000
0100
0000
0001
0000
0000
1000
,
0000
1000
0000
0000
0001
0000
1000
0000
,
0001
0000
1000
0000
,
2002
0000
0000
3003
,
0001
0100
0010
1000
,
0100
1000
0010
0000
,
0100
0001
0010
0001
,
1000
0100
0010
0000
,
0001
0100
0010
1000
,
0001
0100
0001
0000
,
1000
0100
0010
0001
,
0100
0000
0010
1000
0000
1000
0001
0000
,
0100
0000
1001
0000
;

//---------------dance-single - ----------------
#NOTES:
     dance-single:
     :
     Beginner:
     3:
     0.197,0.295,0.000,0.084,0.000:
0000
0000
0000
0000
,
0000
0000
0000
0000
,
0000
0000
0000
0000
,
0000
0000
0000
0000
,
1000
0000
1000
0000
,
0001
0000
0001
0000
,
0100
0000
0100
0000
,
0010
0000
0010
0000
,
1000
0000
1000
0000
,
0001
0000
0100
0000
,
0010
0000
1000
0000
,
0020
0000
0000
0000
,
0030
0000
1000
0000
,
0001
0000
0001
0001
,
1000
0000
0010
0000
,
0100
0000
0001
0001
,
1000
0000
0100
0000
,
1000
0000
0010
0010
,
1000
0000
0001
0000
,
2000
0000
0000
3001
,
1000
0000
0010
0000
,
1000
0000
0001
0100
,
0001
0000
1000
0000
,
0100
0000
1000
0100
,
0010
0000
0001
0000
,
0100
0000
0002
0000
,
1003
0000
1000
0000
,
0010
0000
0010
0100
,
0010
0000
1000
0000
,
0100
0000
1000
0000
,
0001
0000
0100
0000
,
0001
0000
1000
0001
,
1000
0000
0001
0000
,
0100
0000
0020
0000
,
0230
0000
0320
0000
,
2030
0000
3002
0000
,
1003
0000
1000
0000
,
1000
0000
1000
0000
,
0001
0000
0001
0000
,
0001
0000
0001
0000
,
0010
0100
0010
0000
,
0100
0010
0100
0000
,
0010
0100
0010
0000
,
0100
0010
0100
0010
,
1000
0000
0000
0000
,
0000
0000
0000
0000
,
0000
0000
0000
0000
,
0010
0000
0010
0000
,
0100
0000
0100
0000
,
0010
0000
0010
0000
,
1000
0000
1000
0000
,
0001
0000
0001
0000
,
0100
0000
0010
0000
,
1000
0000
0001
0000
,
1000
0000
0001
0000
,
0010
0000
0001
0000
,
0100
0000
0010
0000
,
1000
0000
0001
0000
,
1000
0000
0001
0000
,
1000
0000
0100
0000
,
1000
0000
0010
0000
,
0100
0000
0010
0000
,
0200
0000
0000
0000
,
0301
0000
0001
0000
,
1000
0000
0010
0000
,
0100
0000
0010
0000
,
1000
0000
0100
0000
,
0001
0000
0100
0000
,
1000
0000
0001
0000
,
0100
0000
0001
0000
,
1000
0000
0000
0001
,
1000
0000
0010
0000
,
0100
0000
0010
0000
,
0100
0000
0001
0000
,
1000
0000
0100
0000
,
1000
0000
0001
0000
,
0100
0000
0010
0000
,
1000
0000
0001
0000
,
2000
0000
0200
3300
,
1000
1000
1000
0000
,
0001
0000
0001
0000
,
0100
0100
0100
0000
,
0010
0000
0010
0000
,
1000
0000
0010
0000
,
2000
0000
0000
0000
,
3001
0000
0001
0000
,
0100
0000
0100
0000
,
0010
0000
0010
0000
,
1000
0000
1000
0000
,
0001
0000
0100
0000
,
0010
0000
1000
0000
,
0001
0000
0010
0000
,
0001
0000
0100
0000
,
0010
0000
0100
0000
;
