#TITLE:Get Low;
#SUBTITLE:;
#ARTIST:Dillon Francis & DJ Snake;
#TITLETRANSLIT:;
#SUBTITLETRANSLIT:;
#ARTISTTRANSLIT:;
#CREDIT:;
#BANNER:;
#BACKGROUND:;
#LYRICSPATH:;
#CDTITLE:kyka2016.png;
#MUSIC:get low.mp3;
#OFFSET:-0.046;
#SAMPLESTART:26.170;
#SAMPLELENGTH:15.000;
#SELECTABLE:YES;
#BPMS:0.000=101.050;
#STOPS:;
#BGCHANGES:0.000=get low.avi=1.000=1=1=0,
99999=-nosongbg-=1.000=0=0=0 // don't automatically add -songbackground-
;

//---------------dance-single - ----------------
#NOTES:
     dance-single:
     :
     Challenge:
     10:
     0.711,0.879,0.365,0.084,0.949: // measure 1
0000
0000
0000
0000
,  // measure 2
0000
0000
0000
0000
,  // measure 3
1000
0010
0100
0010
0000
1000
0001
0010
,  // measure 4
0001
0000
0100
0000
0010
0000
1000
0000
0001
0010
0000
0001
0010
0000
0001
0000
,  // measure 5
0100
0000
0000
0110
0000
0000
0010
0000
1000
0000
0001
0000
0011
0000
0000
0000
,  // measure 6
0100
0000
0000
0011
0000
0000
0100
0000
1000
0000
0010
0000
0110
0000
0000
0000
,  // measure 7
1000
0000
0001
1000
0000
0100
0010
0000
0001
0000
0000
0100
0010
1000
0100
0000
,  // measure 8
0010
0001
0100
0001
0000
1000
0010
0000
0100
0000
0000
0001
0010
0001
0100
0000
,  // measure 9
0010
1000
0010
1000
0010
0100
0010
0100
0001
0010
0001
0010
0100
1000
0100
1000
,  // measure 10
0001
1000
0001
1000
0010
0100
0010
0100
0001
0010
0001
0010
0100
0010
0100
0010
,  // measure 11
0001
1000
0001
0001
1000
0100
1000
1000
0010
1000
0001
0001
0100
0010
0100
0100
,  // measure 12
0010
0000
0010
0000
0010
0000
0010
0000
1100
0000
0001
0100
0001
0100
0001
0000
,  // measure 13
0011
0000
0000
0000
0000
0000
1000
0000
0100
0010
0100
0000
0010
0000
0001
0000
0100
0010
0100
0000
0010
0000
1000
0000
0001
0000
0000
0000
0010
0000
0000
0000
,  // measure 14
1100
0000
0000
0000
0000
0000
0001
0000
0100
0001
0100
0000
0010
0000
0100
0000
0010
1000
0010
0000
1000
0000
0010
0000
2000
0000
0000
0000
0000
0000
3001
0000
,  // measure 15
0110
0000
0000
0000
0000
0000
1000
0000
0001
0010
0100
0000
0010
0000
0001
0000
1000
0100
0010
0000
0100
0000
1000
0000
0001
0000
0000
0000
1000
0000
0000
0000
,  // measure 16
0101
0000
0000
0000
0000
0000
0010
0000
0100
0001
0100
0000
0001
0000
1000
0000
0100
1000
0010
0000
0100
0000
0001
0000
0020
0000
0000
0000
0000
0000
0031
0000
,  // measure 17
0101
0000
0000
0000
0000
0000
0100
0000
0001
1000
0001
0000
0100
0000
0001
0000
0010
0100
0010
0000
0001
0000
1000
0000
0010
0000
0000
0000
0100
0000
0000
0000
,  // measure 18
0011
0000
0000
0000
0000
0000
0001
0000
1000
0100
1000
0000
0010
0000
0100
0000
0001
0010
0001
0000
0100
0000
0010
0000
2000
0000
0000
0000
0000
0000
3001
0000
,  // measure 19
0100
0000
0000
0010
0000
0000
1010
0000
0000
0010
0000
0000
0101
0000
0000
1000
0000
0000
0001
0000
0000
0010
0000
0000
0011
0000
0000
0010
0000
0000
0101
0000
0000
0001
0000
0000
0100
0000
0010
0000
1000
0000
0001
0000
0000
0100
0000
0000
,  // measure 20
0010
0000
1000
0000
0011
0000
0100
0000
0110
0000
0010
0000
1000
0000
0001
0000
0100
0001
0100
0001
0100
0000
0010
0000
1000
0000
0001
0000
0010
0000
0001
0000
,  // measure 21
1000
0000
0001
0000
0100
0010
0000
1010
0000
0010
0100
0001
0010
0000
0001
0000
,  // measure 22
0100
0000
0001
0000
0010
0001
0000
1100
0000
0010
0100
0001
1000
0000
0001
0000
,  // measure 23
0100
0000
0010
0000
1000
0001
0000
0011
0000
0001
0100
0010
1000
0000
0001
0000
,  // measure 24
0101
0000
0000
1010
0000
0000
0110
0000
0000
0000
1001
0000
0110
0000
0000
0000
,  // measure 25
1000
0000
0100
0000
1000
0001
0000
1100
0000
0001
0010
0100
1000
0000
0001
0000
,  // measure 26
0010
0000
0001
0000
0100
0001
0000
1100
0000
0010
0100
0010
1000
0010
0100
0001
,  // measure 27
1000
0000
0001
0000
0010
0100
0000
0011
0000
0100
1000
0010
0100
0000
0001
0000
,  // measure 28
0010
0000
0000
0001
1000
0000
0001
0000
0010
0001
0010
0100
1000
0010
0100
0001
,  // measure 29
1000
0000
1000
0000
0001
0000
0001
0000
1100
0000
0010
0100
0010
0100
0010
0000
,  // measure 30
1001
0000
0000
0000
1000
0010
1000
0000
0001
0100
0001
0000
0010
0000
0001
0000
,  // measure 31
0101
0000
0000
0000
0010
1000
0010
0000
0100
0001
0000
0100
0002
0000
0000
0000
,  // measure 32
0013
0000
0000
0000
0001
0010
0100
0000
1000
0100
0010
0000
0001
0000
1000
0000
,  // measure 33
0110
0000
0000
0000
0010
1000
0010
0000
0100
0001
0000
1000
0020
0000
0000
0000
,  // measure 34
1030
0000
0000
0000
0000
0000
0000
0000
0000
0000
0000
0000
0001
0000
0000
0010
0000
0000
0001
0000
0000
0000
0000
0000
1000
0000
0100
0000
1000
0000
0100
0000
0000
0000
0000
0000
0010
0000
0000
0000
0000
0000
0100
0000
0000
0000
0000
0000
,  // measure 35
1000
0000
0000
0000
0000
0000
0000
0000
0000
0000
0000
0000
0001
0000
0010
0000
0100
0000
0010
0000
0000
0000
0000
0000
0001
0000
0000
1000
0000
0000
0000
0000
0000
0001
0000
0000
0200
0000
0000
0000
0000
0000
0000
0000
0000
0000
0000
0000
,  // measure 36
0301
0000
0000
1000
0000
0000
1010
0000
0000
0100
0000
0000
1010
0000
0000
0001
0000
0000
0010
0000
0000
0001
0000
0000
0101
0000
0000
0001
0000
0000
0011
0000
0000
0100
0000
0000
0010
0000
0100
0000
0010
0000
0100
0000
0000
0001
0000
0000
,  // measure 37
1000
0000
0001
0000
0010
0000
0001
0000
0100
0000
0010
0000
1000
0000
0001
0000
0100
0001
0100
0001
0100
0000
0010
0000
1000
0000
0001
0000
0010
0000
0001
0000
,  // measure 38
1000
0000
0000
0000
0010
0100
0010
0000
1000
0010
1000
0000
0001
0000
0100
0000
,  // measure 39
0011
0000
0000
0000
0010
0001
0100
0000
0010
1000
0000
0010
0200
0000
0000
0000
,  // measure 40
0301
0000
0000
0000
0100
0010
1000
0000
0001
0100
0010
0000
1000
0000
0100
0000
,  // measure 41
1000
0000
0000
0000
0001
0010
0100
0000
1000
0010
0000
1000
0002
0000
0000
0000
,  // measure 42
1003
0000
0000
0000
0000
0000
0000
0000
0000
0000
0000
0000
0001
0000
0000
1000
0000
0000
0001
0000
0000
0000
0000
0000
1000
0000
0001
0000
1000
0000
0001
0000
0000
0000
0000
0000
0010
0000
0000
0000
0000
0000
0001
0000
0000
0000
0000
0000
,  // measure 43
0101
0000
0000
0000
0000
0000
0000
0000
0000
0000
0000
0000
0001
0000
0010
0000
0001
0000
1000
0000
0000
0000
0000
0000
0100
0000
0000
0010
0000
0000
0000
0000
0000
0001
0000
0000
2000
0000
0000
0000
0000
0000
0000
0000
0000
0000
0000
0000
,  // measure 44
3001
0000
0100
0010
1000
0001
0010
0001
0100
0001
0010
0001
0100
0010
1000
0001
,  // measure 45
0100
0010
0100
0010
1000
0001
0010
0001
0100
0001
0010
0100
0110
0000
0000
0000
;

//---------------dance-single - ----------------
#NOTES:
     dance-single:
     :
     Hard:
     9:
     0.577,0.607,0.075,0.000,0.692: // measure 1
0000
0000
0000
0000
,  // measure 2
0000
0000
0000
0000
,  // measure 3
1000
0001
0100
0001
0000
0100
0001
0100
,  // measure 4
0010
1000
0010
0100
0000
0010
1000
0001
,  // measure 5
0100
0000
0000
0010
0000
0000
0100
0000
0010
0000
0100
0000
0010
0000
0000
0000
,  // measure 6
1000
0000
0000
0001
0000
0000
1000
0000
0001
0000
1000
0000
0001
0000
0000
0000
,  // measure 7
1000
0000
0000
0100
0000
0000
1000
0000
0100
0000
0010
0000
0001
0000
0000
0000
,  // measure 8
0100
0000
0000
0010
0000
0000
1000
0000
0001
0000
1000
0000
0001
0000
0000
0000
,  // measure 9
0100
0010
0100
0010
0100
0010
0100
0000
0010
1000
0010
1000
0010
1000
0010
0000
,  // measure 10
0100
0001
0100
0001
0100
0001
0100
0000
0001
1000
0001
1000
0001
1000
0001
0000
,  // measure 11
1000
0100
0010
0001
1000
0100
0010
0001
1000
0100
0010
0001
1000
0100
0010
0001
,  // measure 12
1000
0000
0001
0000
1000
0000
0001
0000
1000
0000
0010
1000
0010
1000
0010
0000
,  // measure 13
0100
0000
0000
0100
0001
0100
0001
0010
0001
0100
0001
0010
0001
0000
0100
0000
,  // measure 14
0010
0000
0000
1000
0010
0100
0010
1000
0010
0100
0010
1000
0001
0000
0000
0100
,  // measure 15
0001
0000
0000
0010
0001
0010
0100
1000
0001
0010
0100
1000
0001
0000
0010
0000
,  // measure 16
0001
0000
0000
0100
0010
1000
0010
0100
0010
1000
0001
0010
0001
0000
0000
0100
,  // measure 17
0001
0000
0000
0100
0010
1000
0001
0100
0010
1000
0001
0100
0010
0000
1000
0000
,  // measure 18
0001
0000
0000
0100
0001
0010
0001
0010
0001
0100
0001
0100
0001
0000
0000
1000
,  // measure 19
0010
0000
0000
0100
0000
0000
0010
0000
0000
0000
0000
0000
1000
0000
0000
0000
0000
0000
0001
0000
0000
0100
0000
0000
0001
0000
0000
0000
0000
0000
0010
0000
0000
0000
0000
0000
0001
0000
0010
0000
0001
0000
0010
0000
0000
0000
0000
0000
,  // measure 20
0100
0000
1000
0000
0100
0000
0000
0000
0010
0000
0000
0000
0001
0000
0100
0000
0001
1000
0001
1000
0001
0000
0000
0000
0100
0000
0010
0000
0100
0000
0000
0000
,  // measure 21
0010
0000
1000
0000
0001
1000
0000
0001
0000
0010
0001
0010
0001
0000
0100
0000
,  // measure 22
0010
0000
1000
0000
0001
0100
0000
0010
0000
1000
0001
1000
0001
0000
0010
0000
,  // measure 23
0001
0000
0100
0000
0010
1000
0000
0001
0000
0100
0010
0100
0010
0000
1000
0000
,  // measure 24
1001
0000
0000
1001
0000
0000
1001
0000
0000
0000
0110
0000
0110
0000
0000
0000
,  // measure 25
0010
0000
1000
0000
0001
0010
0000
0001
0000
0100
0001
0100
0001
0000
1000
0000
,  // measure 26
0010
0000
0100
0000
0001
1000
0000
0100
0000
1000
0010
1000
0010
0000
0100
0000
,  // measure 27
0010
0000
1000
0000
0001
1000
0000
0001
0000
1000
0001
1000
0001
0000
0100
0000
,  // measure 28
0110
0000
0000
0010
0000
0000
1000
0000
0001
1000
0001
1000
0001
1000
0001
0000
,  // measure 29
1000
0000
0001
0000
1000
0000
0001
0000
0100
0000
0010
0100
0010
0100
0010
0000
,  // measure 30
1000
0000
0000
0000
0001
1000
0001
0000
1000
0001
1000
0000
0010
0000
0100
0000
,  // measure 31
0010
0000
0000
0000
0100
0010
0100
0000
0010
1000
0000
0010
1000
0000
0000
0000
,  // measure 32
0001
0000
0000
0000
0010
0001
0010
0000
0001
0010
0001
0000
1000
0000
0010
0000
,  // measure 33
1000
0000
0000
0000
0010
0100
0010
0000
0100
0010
0000
0100
0010
0000
0000
0000
,  // measure 34
1000
0000
0000
0000
0001
0100
0001
0000
1000
0010
1000
0000
0010
0000
1000
0000
,  // measure 35
0001
0000
0000
0000
0010
0001
0010
0000
0001
0100
0000
0001
0100
0000
0000
0000
,  // measure 36
0010
0000
0000
1000
0000
0000
0010
0000
0000
0000
0000
0000
0100
0000
0000
0000
0000
0000
0010
0000
0000
1000
0000
0000
0010
0000
0000
0000
0000
0000
0100
0000
0000
0000
0000
0000
0001
0000
1000
0000
0001
0000
1000
0000
0000
0000
0000
0000
,  // measure 37
0010
0000
0100
0000
0010
0000
0000
0000
1000
0000
0000
0000
0001
0000
0000
0000
1000
0010
1000
0010
1000
0000
0000
0000
0001
0000
0100
0000
0001
0000
0000
0000
,  // measure 38
1000
0000
0000
0000
0010
0100
0010
0000
1000
0001
1000
0000
0001
0000
0100
0000
,  // measure 39
0001
0000
0000
0000
1000
0100
1000
0000
0010
0100
0000
0001
0100
0000
0000
0000
,  // measure 40
0010
0000
0000
0000
1000
0001
1000
0000
0001
0100
0001
0000
0100
0000
0010
0000
,  // measure 41
1000
0000
0000
0000
0010
1000
0010
0000
1000
0001
0000
1000
0001
0000
0000
0000
,  // measure 42
0100
0000
0000
0000
0001
0010
0001
0000
1000
0100
1000
0000
0010
0000
1000
0000
,  // measure 43
0001
0000
0000
0000
0100
0001
0100
0000
0010
1000
0000
0001
0100
0000
0000
0000
,  // measure 44
0010
0000
1000
0100
1000
0100
1000
0100
1000
0100
1000
0100
1000
0100
1000
0100
,  // measure 45
1000
0000
0001
1000
0000
0001
1000
0000
0000
0000
0101
0000
1001
0000
0000
0000
;

//---------------dance-single - ----------------
#NOTES:
     dance-single:
     :
     Medium:
     6:
     0.345,0.377,0.122,0.000,0.075: // measure 1
0000
0000
0000
0000
,  // measure 2
0000
0000
0000
0000
,  // measure 3
1000
0100
1000
0000
0000
0001
0100
0000
,  // measure 4
0010
1000
0010
0000
0000
0100
0010
0000
,  // measure 5
1000
0000
0000
1000
0000
0000
1000
0000
0001
0000
0000
0000
0001
0000
0000
0000
,  // measure 6
0100
0000
0000
0100
0000
0000
0100
0000
0010
0000
0000
0000
0010
0000
0000
0000
,  // measure 7
0100
0000
0000
0100
0000
0000
0100
0000
0001
0000
0000
0000
0001
0000
0000
0000
,  // measure 8
1000
0000
0000
1000
0000
0000
1000
0000
0001
0000
0000
0000
0001
0000
0000
0000
,  // measure 9
0110
1010
1100
0011
,  // measure 10
0101
1001
1100
0110
,  // measure 11
1001
0110
0011
1001
,  // measure 12
1000
0100
1000
0100
0010
0001
0010
0001
,  // measure 13
0100
0000
0000
0010
1000
0000
0100
0000
1000
0000
0000
0000
0001
0000
0100
0000
,  // measure 14
0001
0000
0000
0100
0001
0000
0010
0000
0001
0000
0000
0000
1000
0000
0000
0000
,  // measure 15
0001
0000
0000
0100
0001
0000
1000
0000
0001
0000
0000
0000
1000
0000
0010
0000
,  // measure 16
1000
0000
0000
0001
0100
0000
0001
0000
0100
0000
0000
0000
0001
0000
0000
0000
,  // measure 17
1000
0000
0000
0001
0100
0000
0010
0000
0100
0000
0000
0000
0010
0000
1000
0000
,  // measure 18
0010
0000
0000
0100
0001
0000
1000
0000
0001
0000
0000
0000
0100
0000
0000
0000
,  // measure 19
0010
1000
0010
0000
0100
0000
0010
0100
,  // measure 20
0001
0000
0000
0001
0000
0000
0001
0000
1000
0000
0000
0000
0001
0000
1000
0000
,  // measure 21
0001
0010
0001
0000
1000
0000
0010
0100
,  // measure 22
0010
0100
0001
0000
1000
0000
0010
0100
,  // measure 23
0001
0100
0001
0000
1000
0000
0010
0100
,  // measure 24
0010
0000
0000
0010
0000
0000
0010
0000
0000
0000
0010
0000
1000
0000
0000
0000
,  // measure 25
0001
1000
0001
0000
0100
0000
0010
1000
,  // measure 26
0010
1000
0010
0000
0100
0000
0001
0010
,  // measure 27
0001
0010
0001
0000
0100
0000
0010
0100
,  // measure 28
0010
0000
0000
0010
0000
0000
0010
0000
1000
0000
0000
0000
0001
0000
0100
0000
,  // measure 29
0001
1000
0001
1000
0001
1000
0001
1000
,  // measure 30
0001
0000
1000
0000
0010
0000
0100
0001
,  // measure 31
0100
0000
0010
0000
1000
0010
1000
0000
,  // measure 32
0001
0000
0100
0000
0001
0000
1000
0010
,  // measure 33
1000
0000
0010
0000
0100
0010
0100
0000
,  // measure 34
0001
0000
0100
0000
0001
0000
1000
0100
,  // measure 35
1000
0000
0001
0000
0100
0001
1000
0000
,  // measure 36
0010
0000
0100
0000
0010
0000
0000
0000
1000
0000
0000
0000
0010
0100
0010
0000
,  // measure 37
1000
0000
0010
0000
1000
0000
0001
0000
1000
0001
1000
0000
0001
0000
0100
0000
,  // measure 38
0001
0000
1000
0000
0010
0000
0100
0001
,  // measure 39
1000
0000
0010
0000
0100
0010
1000
0000
,  // measure 40
0001
0000
0010
0000
0001
0000
0100
0001
,  // measure 41
1000
0000
0010
0000
0100
0001
1000
0000
,  // measure 42
0001
0000
0100
0000
0001
0000
0010
0001
,  // measure 43
0100
0000
0010
0000
1000
0001
0100
0000
,  // measure 44
0010
1000
0001
0100
0001
0010
0001
0100
,  // measure 45
0010
0000
0000
1000
0000
0000
0010
0000
0000
0000
1000
0000
1001
0000
0000
0000
;

//---------------dance-single - ----------------
#NOTES:
     dance-single:
     :
     Easy:
     4:
     0.245,0.293,0.327,0.000,0.000: // measure 1
0000
0000
0000
0000
,  // measure 2
0000
0000
0000
0000
,  // measure 3
1000
1000
0000
0001
,  // measure 4
0001
0001
0000
0100
,  // measure 5
0100
0000
0010
0010
,  // measure 6
0010
0000
0100
0100
,  // measure 7
0100
0000
0001
0001
,  // measure 8
0001
0000
1000
1000
,  // measure 9
1010
1000
1010
1000
,  // measure 10
0101
0001
0101
0001
,  // measure 11
1001
1000
1001
0001
,  // measure 12
1000
0100
0010
0011
,  // measure 13
0001
1000
0100
1000
,  // measure 14
1000
0010
0100
0001
,  // measure 15
0001
0010
0100
1000
,  // measure 16
1000
0010
0100
0001
,  // measure 17
0001
0100
0010
0100
,  // measure 18
0100
0010
1000
0010
,  // measure 19
0010
1000
1000
0010
,  // measure 20
1100
0000
1100
0000
,  // measure 21
1010
0010
1000
0010
,  // measure 22
1001
0001
0100
0001
,  // measure 23
0011
0100
1000
0100
,  // measure 24
0101
0000
1001
0000
,  // measure 25
1010
0010
0100
0010
,  // measure 26
1001
0001
0100
0010
,  // measure 27
1010
0001
0100
0001
,  // measure 28
0011
0000
1001
0000
,  // measure 29
1000
0100
1000
1100
,  // measure 30
1001
0000
0001
0100
,  // measure 31
1001
0000
1000
0100
,  // measure 32
0101
0000
0001
0010
,  // measure 33
1001
0000
1000
0001
,  // measure 34
1100
0000
0010
0100
,  // measure 35
0101
0000
0001
1000
,  // measure 36
1000
0100
1000
0010
,  // measure 37
0100
0100
0110
1001
,  // measure 38
1100
0000
0010
0100
,  // measure 39
0101
0000
0001
0010
,  // measure 40
1100
0000
0010
1000
,  // measure 41
1001
0000
0001
0010
,  // measure 42
0101
0000
0001
1000
,  // measure 43
1010
0000
0010
0100
,  // measure 44
1001
0001
0100
0001
,  // measure 45
1000
0000
0100
0000
0000
1000
0001
0000
;

//---------------dance-single - ----------------
#NOTES:
     dance-single:
     :
     Beginner:
     2:
     0.138,0.146,0.019,0.056,0.000:
0000
0000
0000
0000
,
0000
0000
0000
0000
,
1000
0000
0000
0001
,
0001
0000
0000
0100
,
0100
0000
0010
0000
,
1000
0000
0001
0000
,
0100
0000
0010
0000
,
1000
0000
0001
0000
,
1000
0000
1000
0000
,
0001
0000
0001
0000
,
0100
0000
0100
0000
,
0020
0000
0000
0000
,
1030
0000
1000
1000
,
1000
0000
0001
0001
,
0001
0000
0100
0100
,
0100
0000
0010
0010
,
0010
0000
1000
1000
,
1000
0000
0001
0001
,
0001
0000
0001
0000
,
1001
0000
1001
0000
,
1000
0000
1000
0000
,
0001
0000
0001
0000
,
0100
0000
0100
0000
,
0001
0000
0001
0000
,
0010
0000
0010
0000
,
0100
0000
0100
0000
,
1000
0000
1000
0000
,
0020
0000
0000
0000
,
2030
0000
0000
0000
,
3001
0000
1000
1000
,
1000
0000
0010
0010
,
0010
0000
0100
0100
,
0100
0000
0001
0001
,
0001
0000
1000
1000
,
1000
0000
0100
0100
,
0100
0000
0010
0000
,
0002
0000
0000
0000
2000
0000
0000
3003
,
0001
0000
1000
0000
,
0001
0000
1000
0000
,
0010
0000
0100
0000
,
0010
0000
0100
0000
,
0010
0000
1000
0000
,
0001
0000
1000
0000
,
0001
0000
0001
0000
,
2000
0000
0000
3001
;
