#TITLE:Fascination MAXX;
#SUBTITLE:[another];
#ARTIST:100-200-400;
#TITLETRANSLIT:;
#SUBTITLETRANSLIT:;
#ARTISTTRANSLIT:;
#CREDIT:;
#BANNER:Fascination MAXX [another].png;
#BACKGROUND:Fascination MAXX [another]-bg.png;
#LYRICSPATH:;
#CDTITLE:kykaCD.png;
#MUSIC:Fascination MAXX [another].mp3;
#OFFSET:-0.300;
#SAMPLESTART:18.910;
#SAMPLELENGTH:17.400;
#SELECTABLE:YES;
#BPMS:0.000=50.000,7.625=400.000,46.000=200.000,48.000=400.000,78.000=200.000,79.000=400.000,102.000=200.000,103.500=400.000,134.500=200.000,135.500=400.000,304.500=200.000,344.000=400.000,536.000=100.000,540.000=400.000;
#STOPS:7.625=0.400
,15.000=0.600
,23.000=0.750
,29.000=0.750
,37.000=0.600
,328.500=2.300
,336.667=0.300
,542.000=0.150
,545.000=0.150
,547.000=0.150
,550.000=0.150
,552.000=0.150
,555.000=0.150
;
#BGCHANGES:;

//---------------dance-single - ----------------
#NOTES:
     dance-single:
     :
     Hard:
     12:
     0.999,1.000,0.814,0.027,0.438: // measure 1
0000
0000
0000
0000
,  // measure 2
0000
0000
0000
0000
,  // measure 3
1000
0100
0010
0001
,  // measure 4
0100
0001
1000
1001
,  // measure 5
0010
1000
0100
1000
,  // measure 6
0010
0100
0010
1010
,  // measure 7
1000
0001
0100
0001
,  // measure 8
1000
1001
0010
1000
,  // measure 9
0100
0010
0001
0100
,  // measure 10
0010
1010
1100
0100
,  // measure 11
1100
0100
0011
0010
,  // measure 12
0011
0010
1001
0110
,  // measure 13
1000
0000
0010
0100
0010
0000
1000
0000
,  // measure 14
0001
1000
0001
0000
0100
0000
0010
1000
,  // measure 15
0010
0000
1000
0000
0100
1000
0100
0000
,  // measure 16
0010
0000
0001
0010
0001
0000
0100
0000
,  // measure 17
0010
1000
0010
0000
1000
0000
0100
1000
,  // measure 18
0100
0000
0010
0000
0001
1000
0001
0000
,  // measure 19
0100
0000
0010
1000
0010
0000
1000
0000
,  // measure 20
0010
0100
0010
0000
1010
0000
1001
0000
,  // measure 21
1000
0100
1000
0000
0010
0000
0100
0010
,  // measure 22
0100
0000
0001
0000
1000
0001
1000
0000
,  // measure 23
0100
0000
1000
0100
1000
0000
0010
0000
,  // measure 24
0100
0010
0100
0000
0001
0000
1000
0001
,  // measure 25
1000
0000
0100
0000
1000
0100
1000
0000
,  // measure 26
0010
0000
0100
0010
0100
0000
0000
1010
,  // measure 27
0000
0100
0010
0100
0000
0010
0000
1000
,  // measure 28
0100
1000
0000
0001
0000
0100
0001
0100
,  // measure 29
0000
0010
0000
1000
0100
1000
0000
0010
,  // measure 30
0000
0100
0010
0100
0000
0010
0000
1000
,  // measure 31
0100
1000
0000
0001
0000
0100
0001
0100
,  // measure 32
0000
0010
0000
1000
0100
1000
0000
0010
,  // measure 33
0000
0100
0010
0100
0000
0010
0000
1000
,  // measure 34
0100
1000
0000
0010
0000
0110
0000
1001
,  // measure 35
0000
1100
0000
0100
1000
0100
0000
0010
,  // measure 36
0000
0001
0100
0001
0000
1000
0000
0001
,  // measure 37
0100
0001
0000
1001
0000
1000
0000
0100
,  // measure 38
0000
0010
0000
0001
0000
0100
0000
0010
,  // measure 39
0000
1000
0000
0100
0000
1000
0000
0010
,  // measure 40
0000
0100
0010
0100
0010
1000
0001
1000
,  // measure 41
0001
0100
0000
0100
0000
0010
0000
1000
,  // measure 42
0000
0100
0000
1000
0000
1010
0000
0010
,  // measure 43
0000
0010
0000
0100
0000
0001
0000
1000
,  // measure 44
0000
1001
0000
1000
0000
0001
0000
0100
,  // measure 45
0010
0100
0000
0010
0000
0110
0000
0010
,  // measure 46
0000
1010
0000
1000
0000
1001
0000
0001
,  // measure 47
0000
1001
0000
1000
0000
0100
0000
0010
,  // measure 48
0000
0001
0000
0100
0000
0101
0000
0001
,  // measure 49
1000
0001
0000
1000
0000
0001
0000
0100
,  // measure 50
0000
0110
0000
0010
0000
1000
0000
0100
,  // measure 51
0000
0010
0000
0001
0000
0100
0000
0010
,  // measure 52
0000
1000
0000
0100
0000
1000
0000
0001
,  // measure 53
1000
0001
0000
0100
0000
0010
0000
1000
,  // measure 54
0000
0100
0000
1000
0000
1100
0000
0010
,  // measure 55
0000
0100
0000
0001
0000
1000
0000
0001
,  // measure 56
0000
1100
0000
0010
0000
1000
0000
0100
,  // measure 57
0010
0100
0000
0010
0000
1001
0000
0001
,  // measure 58
0000
1001
0000
1000
0000
1100
0000
0100
,  // measure 59
0000
0110
0000
0010
0000
0001
0000
1000
,  // measure 60
0000
0001
0000
1000
0000
1100
0000
0010
,  // measure 61
1000
0010
0000
1000
0000
0001
0000
1000
,  // measure 62
0000
1001
0000
1000
0000
0100
0000
1000
,  // measure 63
0010
1000
0000
0100
0000
1000
0000
0100
,  // measure 64
0000
0010
0001
0010
0001
0100
0010
0100
,  // measure 65
0010
1000
0000
0001
0000
0100
0000
0010
,  // measure 66
0000
1000
0000
0010
0000
1010
0000
0010
,  // measure 67
0000
0100
0000
0001
0000
0010
0000
0001
,  // measure 68
0000
0110
0000
1000
0000
0100
0000
1000
,  // measure 69
0010
1000
0000
0100
0000
0011
0000
0001
,  // measure 70
0000
0011
0000
0001
0000
1001
0000
0001
,  // measure 71
0000
1100
0000
0100
0000
1000
0000
0010
,  // measure 72
0000
0100
0000
0001
0000
1010
0000
0100
,  // measure 73
0000
0001
0000
1000
0000
0010
0000
0100
,  // measure 74
0000
1001
0000
1000
0000
0100
0000
1000
,  // measure 75
0000
0010
0000
0100
0000
0001
0000
0010
,  // measure 76
0000
0100
0000
1000
0000
0001
0000
0100
,  // measure 77
0000
0101
0000
1000
0100
1000
0000
0101
,  // measure 78
0000
0010
0001
0010
0000
1010
0000
0010
,  // measure 79
0010
0010
0000
0110
0000
1001
0000
0101
,  // measure 80
0000
1001
0000
1000
0000
0100
0000
0011
,  // measure 81
0000
0010
0000
0011
0000
1001
0000
0001
,  // measure 82
0000
1000
0000
0110
0000
1000
0000
0100
,  // measure 83
0000
0000
0000
1001
0000
0000
1000
0000
0100
0000
1000
0000
0100
0000
1000
0000
0100
0000
1000
0000
0100
0000
0010
0000
,  // measure 84
0001
0010
0001
0010
0001
0010
0001
0010
0100
1000
0100
1000
,  // measure 85
0100
1000
0200
0310
0001
0010
0001
0010
0001
0010
0001
0010
,  // measure 86
0100
1000
0100
1000
0100
1000
0100
0010
0001
0010
0001
0010
,  // measure 87
0001
0000
1000
0000
0100
0000
1000
0000
0010
0000
0100
0000
,  // measure 88
0010
0000
1000
0000
0100
0000
1000
0000
0001
0000
0100
0000
,  // measure 89
0001
0000
1000
0000
0100
0000
1000
0000
0010
0000
0100
0000
,  // measure 90
0010
0000
1000
0000
0100
0000
1000
0000
0010
0000
0100
0000
,  // measure 91
0001
0000
1000
0000
0100
0000
1000
0000
0010
0000
0100
0000
,  // measure 92
0010
0000
1000
0000
0001
0000
0100
0000
0001
0000
0010
0000
,  // measure 93
0001
0000
1000
0000
0100
0000
1000
0000
0010
0000
0100
0000
,  // measure 94
0010
0000
1000
0000
0100
0000
1000
0000
0010
0000
0100
0000
,  // measure 95
0001
0000
1000
0000
0010
0000
0100
0000
0010
0000
1000
0000
,  // measure 96
0010
0000
0100
0000
0001
0000
0010
0000
0001
0000
0010
0000
,  // measure 97
0001
0000
0010
0000
0100
0000
1000
0000
0010
0000
0100
0000
,  // measure 98
0010
0000
1000
0000
0100
0000
1000
0000
0010
0000
0100
0000
,  // measure 99
0001
0000
1000
0000
0100
0000
1000
0000
0010
0000
0100
0000
,  // measure 100
0010
0000
1000
0000
0001
0000
0010
0000
0001
0000
0100
0000
,  // measure 101
0010
0000
1000
0000
0100
0000
1000
0000
0010
0000
0100
0000
,  // measure 102
0010
0000
1000
0000
0010
0000
0110
0000
0000
0000
0000
0000
,  // measure 103
1001
1000
0100
1010
,  // measure 104
0010
0100
1001
0010
,  // measure 105
0001
0110
0001
1000
,  // measure 106
0110
1000
0010
1100
,  // measure 107
0101
0010
0001
1100
,  // measure 108
0001
1000
0110
1000
,  // measure 109
0010
1100
0010
1000
,  // measure 110
0011
0100
0001
1010
,  // measure 111
0101
0100
0001
1010
,  // measure 112
0001
1000
0101
1000
,  // measure 113
0010
1100
0010
1000
,  // measure 114
0011
0100
0001
1010
,  // measure 115
1001
0100
0010
1001
,  // measure 116
0100
1000
1010
0100
,  // measure 117
0001
1010
0100
1000
,  // measure 118
0110
0100
0001
1010
,  // measure 119
1010
0010
1000
0001
,  // measure 120
0100
0010
1000
0100
,  // measure 121
1000
0010
0010
0100
,  // measure 122
0010
1000
0010
0100
,  // measure 123
0010
1000
0001
0100
,  // measure 124
0001
0010
0001
0100
,  // measure 125
0010
1000
0100
1000
,  // measure 126
0010
1000
0100
1000
0001
1000
0010
1000
,  // measure 127
0001
0100
0010
1000
,  // measure 128
0100
0010
0001
0100
,  // measure 129
0010
1000
0100
1000
,  // measure 130
0010
0100
0001
1000
,  // measure 131
0001
0100
0010
1000
,  // measure 132
0100
1000
0010
0100
,  // measure 133
0010
1000
0001
0100
,  // measure 134
0001
0010
0001
1000
0001
0100
0001
1000
,  // measure 135
0001
1000
0010
0100
0100
0000
0010
0010
0010
0000
1000
1000
0000
1001
0000
0001
,  // measure 136
1000
0100
1010
0010
,  // measure 137
0100
0110
0010
1010
,  // measure 138
0010
0100
1001
0001
,  // measure 139
1001
1000
0100
1100
,  // measure 140
1000
0100
1000
0010
,  // measure 141
0100
0010
1000
0010
,  // measure 142
0100
0001
2002
0000
,  // measure 143
0000
3003
1100
1010
,  // measure 144
0101
0011
0000
0000
;

//---------------dance-single - ----------------
#NOTES:
     dance-single:
     :
     Medium:
     10:
     0.736,1.000,0.563,0.018,0.040:
0000
0000
0000
0000
,
0000
0000
0000
0000
,
1000
0100
1000
0100
,
0010
0001
0010
0001
,
1000
0100
0010
0001
,
1000
0100
0010
0001
,
0100
0010
1000
0010
,
0100
0010
1000
0100
,
1000
0001
0100
0001
,
0010
0001
1000
1000
,
0100
0100
0010
0010
,
0001
0001
1001
1001
,
1000
0100
1000
0001
,
0100
0001
0010
0001
,
0010
0100
1000
0100
,
0010
0100
0010
0001
,
1000
0001
1000
0100
,
1000
0010
0100
0010
,
1000
0100
1000
0001
,
0010
0100
1000
0010
,
0100
0010
1000
0001
,
0100
0001
0010
0001
,
0100
0010
1000
0100
,
1000
0010
0100
0001
,
1000
0001
0100
0001
,
0010
0000
0001
0000
0100
0000
0000
0010
,
0000
1000
0000
0100
0000
1000
0000
0010
,
0000
0100
0000
0001
0000
0010
0000
0001
,
0000
0100
0000
0010
0000
1000
0000
0100
,
0000
1000
0000
0010
0000
0100
0000
0001
,
0000
1000
0000
0001
0000
0100
0000
0001
,
0000
0010
0000
0001
0000
0100
0000
0010
,
0000
1000
0000
0010
0000
0100
0000
0010
,
0000
1000
0000
0001
0000
1001
0000
1000
,
0000
1001
0000
0010
0000
1000
0000
0100
,
0000
0010
0000
0001
0000
0100
0000
0001
,
0000
1000
0000
0001
0000
0001
0000
0100
,
0000
0100
0000
0010
0000
0010
0000
1000
,
0000
1000
0000
0001
0000
1000
0000
0010
,
0000
1000
0001
1000
0001
1000
0001
1000
,
0001
1000
0000
0000
0000
0010
0000
1000
,
0000
0010
0000
0000
0000
1001
0000
0000
,
0000
1000
0000
0100
0000
1000
0000
0000
,
0000
1010
0000
0000
0000
0010
0000
0100
,
0000
0010
0000
0000
0000
1001
0000
0000
,
0000
1100
0000
0000
0000
1001
0000
0000
,
0000
1100
0000
0000
0000
0010
0000
1000
,
0000
0010
0000
0000
0000
0110
0000
0000
,
0000
0001
0000
1000
0000
0001
0000
0000
,
0000
1100
0000
0000
0000
0010
0000
1000
,
0000
0010
0000
1000
0000
0001
0000
0100
,
0000
0001
0000
0100
0000
0010
0000
1000
,
0000
1001
0000
0000
0000
1000
0000
0100
,
0000
0010
0000
0000
0000
0101
0000
0000
,
0000
0001
0000
1000
0000
0100
0000
0000
,
0000
1100
0000
0000
0000
1000
0000
0010
,
0000
0100
0000
0000
0000
1001
0000
0000
,
0000
1100
0000
0000
0000
1010
0000
0000
,
0000
0110
0000
0000
0000
1000
0000
0001
,
0000
0010
0000
0000
0000
0011
0000
0000
,
0000
1000
0000
0100
0000
1000
0000
0000
,
0000
1010
0000
0000
0000
0010
0000
1000
,
0000
0010
0000
0000
0000
0100
0000
0010
,
0000
1000
0001
1000
0001
1000
0001
1000
,
0001
1000
0000
0000
0000
0010
0000
0100
,
0000
0010
0000
0000
0000
1010
0000
0000
,
0000
1000
0000
0100
0000
1000
0000
0000
,
0000
1001
0000
0000
0000
1000
0000
0100
,
0000
0010
0000
0000
0000
0101
0000
0000
,
0000
1001
0000
0000
0000
1100
0000
0000
,
0000
1010
0000
0000
0000
1000
0000
0001
,
0000
1000
0000
0000
0000
0101
0000
0000
,
0000
1000
0000
0010
0000
0100
0000
0000
,
0000
1001
0000
0000
0000
0100
0000
0010
,
0000
0100
0000
0010
0000
1000
0000
0010
,
0000
0100
0000
0000
0000
0010
0000
1000
,
0000
0010
0000
1000
0000
0100
0000
1100
,
0000
0010
0000
0100
0000
0110
0000
0010
,
1000
0010
0000
1100
0000
1100
0000
0011
,
0000
0011
0000
0100
0000
0010
0000
1010
,
0000
0010
0000
1100
0000
1010
0000
0010
,
0000
0100
0000
1001
0000
0001
0000
1000
,
0000
0101
1000
0000
0100
0000
0010
0000
,
0001
0100
0010
1000
,
0100
1000
0100
0010
0000
0000
0001
0000
0000
0100
0000
0000
,
0010
0000
0000
1000
0000
0000
0100
0000
0000
1000
0010
1000
,
0010
1000
0010
0100
,
0001
1000
0001
0100
,
0001
0010
0001
0100
,
0001
1000
0100
1000
,
0110
1000
0010
0100
,
0001
1000
0100
1000
,
0010
0100
0001
1000
,
1001
0000
1001
0000
,
0110
0010
1000
0100
,
1000
0010
0100
0001
,
0010
0001
0100
0001
,
1000
0100
1000
0010
,
0110
0010
1000
0100
,
1000
0010
0100
0001
,
1001
0000
0110
0000
,
1001
0000
1100
0000
,
1001
0000
1000
0100
,
0000
0010
0001
0000
,
0100
0010
0000
1000
,
0100
0000
0000
0110
,
1001
0000
1000
0100
,
0000
0010
0001
0000
,
0100
0010
0000
1000
,
0100
0000
0000
1100
,
1100
0000
0010
0100
,
0000
0001
1000
0000
,
0001
0100
0000
0010
,
1000
0000
0000
1001
,
1001
0000
0010
1000
,
0000
0010
0100
0000
,
0001
1000
0000
0001
,
0100
0000
0000
0110
,
1001
0001
1000
0100
,
1000
0010
0100
0000
,
0001
1000
0100
1000
,
0010
0100
0001
0000
,
0100
0010
1000
0001
,
1000
0001
0010
0000
,
0001
1000
0100
1000
,
0010
0100
0010
0100
0010
0100
0010
0100
,
0010
1000
0010
0100
,
0001
1000
0001
0000
,
1000
0100
1000
0010
,
0100
0001
1000
0000
,
0010
1000
0100
1000
,
0100
0010
0001
0000
,
0100
0010
1000
0001
,
1000
0001
1000
0001
1000
0001
1000
0001
,
1000
0000
0010
0100
0010
0000
1000
0001
1000
0000
0001
1000
0000
0001
0000
1000
,
0001
1000
0001
1000
,
0100
1000
0010
0100
,
0010
1000
0001
0100
,
0001
0010
0001
0100
,
0010
1000
0100
1000
,
0010
0100
0010
1000
,
0010
1000
2002
0000
,
0000
3003
0011
0110
,
0011
1100
0000
0000
;

//---------------dance-single - ----------------
#NOTES:
     dance-single:
     :
     Easy:
     6:
     0.448,0.513,0.107,0.080,0.000:
0000
0000
0000
0000
,
0000
0000
0000
0000
,
1000
0000
0000
0000
,
0010
0100
0010
1000
,
0001
0000
1000
0000
,
0010
0100
0010
1000
,
0010
0100
0000
0010
,
0000
1000
0001
0000
,
0100
0000
0010
1000
,
0001
1000
0010
0000
,
0010
0000
0100
0000
,
0100
0000
0010
0100
,
0001
0000
1000
0001
,
0000
1000
0100
0000
,
0010
0001
0000
1000
,
0001
0000
1000
0100
,
0000
0010
0100
0000
,
0010
0001
0000
1000
,
0001
0000
1000
0100
,
0000
1000
0010
0100
,
0000
0010
1000
0000
,
0100
1000
0000
0001
,
0100
0000
0010
1000
,
0000
0100
1000
0000
,
0001
0010
0000
0001
,
0100
0000
0000
0000
0010
0000
0000
1000
,
0000
0000
0000
0100
0000
1000
0000
0000
,
0000
0010
0000
0100
0000
0000
0000
0001
,
0000
1000
0000
0000
0000
0100
0000
1000
,
0000
0000
0000
0010
0000
0100
0000
0000
,
0000
0001
0000
1000
0000
0000
0000
0100
,
0000
1000
0000
0000
0000
0010
0000
0100
,
0000
0000
0000
0001
0000
0010
0000
0000
,
0000
0001
0000
1000
0000
0010
0000
1000
,
0000
0010
0000
0000
0000
0100
0000
0001
,
0000
0000
0000
1000
0000
0100
0000
0000
,
0000
0010
0000
0001
0000
1000
0000
0001
,
0000
1000
0000
0010
0000
0100
0000
0010
,
0000
0100
0000
0010
0000
1000
0000
0001
,
0000
0100
0000
0010
0000
0100
0000
0010
,
0000
0100
0000
0000
0000
0000
0000
0000
,
0000
0010
0000
0000
0000
0100
0000
0000
,
0000
0000
0000
0000
0000
0010
0000
0000
,
0000
1000
0000
0000
0000
0000
0000
0000
,
0000
0010
0000
0000
0000
1000
0000
0000
,
0000
0001
0000
0000
0000
0100
0000
0000
,
0000
0110
0000
0000
0000
1000
0000
0000
,
0000
0010
0000
0000
0000
0100
0000
0000
,
0000
0010
0000
0000
0000
1000
0000
0000
,
0000
0001
0000
0000
0000
0100
0000
0000
,
0000
0010
0000
0000
0000
1000
0000
0000
,
0000
0100
0000
0000
0000
0010
0000
0000
,
0000
0011
0000
0000
0000
0001
0000
0000
,
0000
1000
0000
0000
0000
0100
0000
0000
,
0000
1000
0000
0000
0000
0010
0000
0000
,
0000
0100
0000
0000
0000
0010
0000
0000
,
0000
1000
0000
0000
0000
0001
0000
0000
,
0000
0001
0000
0000
0000
0001
0000
0000
,
0000
1001
0000
0000
0000
1000
0000
0000
,
0000
0100
0000
0000
0000
0010
0000
0000
,
0000
0001
0000
0000
0000
0100
0000
0000
,
0000
0010
0000
0000
0000
1000
0000
0000
,
0000
0010
0000
0000
0000
0100
0000
0000
,
0000
0010
0000
1000
0000
0010
0000
0100
,
0000
0001
0000
0000
0000
1000
0000
0000
,
0000
0010
0000
0000
0000
0100
0000
0000
,
0000
0010
0000
0000
0000
1000
0000
0000
,
0000
0100
0000
0000
0000
1000
0000
0000
,
0000
0001
0000
0000
0000
0100
0000
0000
,
0000
0100
0000
0000
0000
0100
0000
0000
,
0000
0110
0000
0000
0000
1000
0000
0000
,
0000
0010
0000
0000
0000
0100
0000
0000
,
0000
0010
0000
0000
0000
1000
0000
0000
,
0000
0001
0000
0000
0000
0100
0000
0000
,
0000
0010
0000
0000
0000
1000
0000
0000
,
0000
0100
0000
0000
0000
1000
0000
0100
,
0000
1000
0000
0000
0000
0010
0000
0100
,
0000
0000
0000
0010
0000
1000
0000
0000
,
0000
0000
0000
0001
0000
1000
0000
0010
,
0000
0100
0000
0000
0000
0100
0000
0010
,
0000
0000
0000
0010
0000
0100
0000
0000
,
0000
0010
0000
2000
0000
0001
0000
0001
,
0000
3001
2000
0000
0000
0000
0000
0000
,
0000
3020
0000
0230
,
0000
0000
0300
0020
0000
0000
0000
0000
0000
0000
0000
0000
,
2030
0000
3020
0000
,
1030
0000
0010
0000
,
0100
0000
0001
0000
,
1000
0000
0100
0000
,
1000
0000
0010
0000
,
0110
0000
0010
0000
,
1000
0000
0001
0000
,
0100
0000
0010
0000
,
1100
0000
0011
0000
,
0101
0000
0010
0000
,
1000
0000
0100
0000
,
1000
0000
0010
0000
,
0100
0000
0001
0000
,
1001
0000
1000
0000
,
0100
0000
1000
0000
,
0010
0000
0010
0000
,
0010
0000
0110
0000
,
1001
0000
0000
0100
,
0000
0000
0100
0000
,
0000
0010
0000
0000
,
0010
0000
0000
1000
,
0001
0000
0000
0100
,
0000
0000
0010
0000
,
0000
1000
0000
0000
,
0010
0000
0000
0100
,
0001
0000
0000
1000
,
0000
0000
0100
0000
,
0000
1000
0000
0000
,
0010
0000
0000
0100
,
0010
0000
0000
1000
,
0000
0000
0001
0000
,
0000
0100
0000
0000
,
0010
0000
0000
1000
,
0001
1000
0001
0000
,
0100
0010
0100
0000
,
0010
1000
0010
0000
,
1000
0100
1000
0000
,
0001
0100
0001
0000
,
1000
0001
1000
0000
,
0010
1000
0010
0000
,
1000
1000
1000
1000
,
1000
0001
1000
0000
,
0010
1000
0010
0000
,
0100
0010
0100
0000
,
0010
1000
0001
0000
,
0100
0001
1000
0000
,
0100
1000
0010
0000
,
0100
0010
1000
0000
,
0001
0001
0001
0001
,
0100
0010
0100
0010
,
1000
0000
0000
0010
,
0000
0000
1000
0000
,
0001
0000
0000
1000
,
0000
0010
0000
0000
,
1000
0000
0100
0000
,
0010
0000
0001
0000
,
1000
0000
0220
0000
,
0000
0000
0330
0001
,
0010
0100
1000
0000
;

//---------------dance-single - ----------------
#NOTES:
     dance-single:
     :
     Beginner:
     2:
     0.174,0.320,0.027,0.027,0.000:
0000
0000
0000
0000
,
0000
0000
0000
0000
,
1000
0000
0000
0000
,
0010
0000
0000
0000
,
1000
0000
0000
0000
,
0001
0000
0000
0000
,
0000
0000
0000
0000
,
0000
0000
1000
0000
,
0000
0000
0010
0000
,
0000
0000
0100
0000
,
0000
0000
0010
0000
,
0000
0000
1000
0000
,
0001
0000
0000
0000
,
0000
0000
0010
0000
,
0000
0000
0000
0000
,
1000
0000
0000
0000
,
0000
0000
0010
0000
,
0000
0000
0000
0000
,
0001
0000
0000
0000
,
0000
0000
0000
1000
,
0000
0000
0000
0000
,
0000
0010
0000
0000
,
0000
0000
0000
0100
,
0000
0000
0000
0000
,
0000
0001
0000
0000
,
0000
0000
0000
0000
0000
0000
0000
0010
,
0000
0000
0000
0000
,
0000
0000
0000
0100
0000
0000
0000
0000
,
0000
0000
0000
0000
0000
0000
0000
0001
,
0000
0000
0000
0000
,
0000
0000
0000
1000
0000
0000
0000
0000
,
0000
0000
0000
0000
0000
0000
0000
0001
,
0000
0000
0000
0000
,
0000
0000
0000
0100
0000
0000
0000
0000
,
0000
0010
0000
0000
0000
0000
0000
0000
,
0000
0000
0000
0000
0000
1000
0000
0000
,
0000
0000
0000
0001
0000
0000
0000
0000
,
0000
0000
0000
0000
,
0000
0000
0000
1000
0000
0000
0000
0000
,
0000
0000
0000
0000
,
0000
0010
0000
0000
0000
0000
0000
0000
,
0000
0000
0000
0000
0000
1000
0000
0000
,
0000
0000
0000
0000
,
0000
0001
0000
0000
0000
0000
0000
0000
,
0000
0000
0000
0000
0000
0100
0000
0000
,
0000
0000
0000
0000
,
0000
0010
0000
0000
0000
0000
0000
0000
,
0000
0000
0000
0000
0000
1000
0000
0000
,
0000
0000
0000
0000
,
0000
0010
0000
0000
0000
0000
0000
0000
,
0000
0000
0000
0000
0000
0100
0000
0000
,
0000
0000
0000
0000
,
0000
0010
0000
0000
0000
0000
0000
0000
,
0000
0000
0000
0000
0000
1000
0000
0000
,
0000
0000
0000
0000
,
0000
0001
0000
0000
0000
0000
0000
0000
,
0000
0000
0000
0000
0000
1000
0000
0000
,
0000
0001
0000
0000
0000
1000
0000
0000
,
0000
0001
0000
0000
0000
0000
0000
0000
,
0000
0000
0000
0000
,
0000
1000
0000
0000
0000
0000
0000
0000
,
0000
0000
0000
0000
,
0000
0010
0000
0000
0000
0000
0000
0000
,
0000
1000
0000
0000
0000
1000
0000
0000
,
0000
1000
0000
0000
0000
0000
0000
0000
,
0000
0000
0000
0000
0000
0010
0000
0000
,
0000
0000
0000
0000
,
0000
0100
0000
0000
0000
0000
0000
0000
,
0000
0000
0000
0000
0000
0001
0000
0000
,
0000
1000
0000
0000
0000
0001
0000
0000
,
0000
1000
0000
0000
0000
0000
0000
0000
,
0000
0000
0000
0000
0000
0001
0000
0000
,
0000
0000
0000
0000
,
0000
0100
0000
0000
0000
0000
0000
0000
,
0000
0010
0000
0000
0000
0000
0000
0000
,
0000
1000
0000
0000
0000
0000
0000
0000
,
0000
0001
0000
0000
0000
0000
0000
1000
,
0000
0000
0000
0000
0000
0010
0000
0000
,
0000
0000
0000
0100
0000
0100
0000
0100
,
0000
0100
0000
0000
0000
0000
0000
0010
,
0000
0000
0000
1000
0000
1000
0000
0000
,
0000
0000
0000
0001
0000
0000
0000
0000
,
0000
1000
0001
0000
0000
0000
0000
0000
,
0000
0100
0000
0100
,
0000
0000
0000
0000
,
0010
0000
0010
0000
,
1000
0000
0000
0000
,
1000
0000
0000
0000
,
0001
0000
0000
0000
,
0001
0000
0000
0000
,
0110
0000
0000
0000
,
0010
0000
0000
0000
,
1000
0000
0000
0000
,
0001
0000
1000
0000
,
0001
0000
0000
0000
,
1000
0000
0000
0000
,
0010
0000
0000
0000
,
0100
0000
0000
0000
,
1001
0000
0000
0000
,
0001
0000
0000
0000
,
1000
0000
0010
0000
,
0100
0000
0010
0000
,
1000
0000
0000
0000
,
0000
0000
0010
0000
,
0000
0000
0000
0000
,
1000
0000
0000
0000
,
0001
0000
0000
0000
,
0000
0000
1000
0000
,
0000
0000
0000
0000
,
0010
0000
0000
0000
,
0100
0000
0000
0000
,
0000
0000
0010
0000
,
0000
0000
0000
0000
,
1000
0000
0000
0000
,
0001
0000
0000
0000
,
0000
0000
0100
0000
,
0000
0000
0000
0000
,
0001
0000
0000
0000
,
1000
0000
0000
0000
,
0010
0000
0000
0000
,
1000
0000
0000
0000
,
0001
0000
0000
0000
,
1000
0000
0000
0000
,
0100
0000
0000
0000
,
1000
0000
0000
0000
,
0020
0000
0000
0000
,
0130
0000
0000
0000
,
0001
0000
0000
0000
,
1000
0000
0000
0000
,
0100
0000
0000
0000
,
1000
0000
0000
0000
,
0010
0000
0000
0000
,
0100
0000
0000
0000
,
0002
0000
0000
0000
,
1003
0000
1000
0000
,
1001
0000
0000
0000
,
0000
0000
0000
0000
,
0000
0000
0000
0000
,
0000
0000
0000
0000
,
1000
0000
0000
0000
,
0010
0000
0000
0000
,
0000
0000
0020
0000
,
0000
0000
0130
0000
,
0000
0100
0000
0000
;
