#TITLE:Euphoria;
#SUBTITLE:(From Limited Edition Megamix);
#ARTIST:KaW feat Smiley;
#TITLETRANSLIT:;
#SUBTITLETRANSLIT:;
#ARTISTTRANSLIT:;
#CREDIT:;
#BANNER:euphoriaLM.png;
#BACKGROUND:euphoriaLM-bg.png;
#LYRICSPATH:;
#CDTITLE:kykaCD.png;
#MUSIC:KaW feat Smiley - Euphoria (From Limited Edition Megamix).mp3;
#OFFSET:-0.080;
#SAMPLESTART:67.760;
#SAMPLELENGTH:11.300;
#SELECTABLE:YES;
#BPMS:0.000=140.000,32.000=70.000,66.000=140.000;
#STOPS:;
#BGCHANGES:;

//---------------dance-single - ----------------
#NOTES:
     dance-single:
     :
     Hard:
     9:
     0.579,0.618,0.134,0.227,0.649: // measure 1
0000
0000
0000
0000
,  // measure 2
0000
0000
0000
0000
,  // measure 3
0000
0000
0000
0000
,  // measure 4
0000
0000
0000
0000
,  // measure 5
1000
0000
0000
0001
0100
0000
0010
0000
1000
0000
0100
0000
0000
0000
0010
0000
,  // measure 6
0001
0000
0000
0100
0001
0000
1000
0000
0001
0000
1000
0000
0000
0000
0010
0000
,  // measure 7
1000
0000
0000
0010
1000
0000
0010
0000
0100
0000
0010
0000
0000
0000
1000
0000
,  // measure 8
0001
0000
0000
1000
0010
0000
0100
0000
,  // measure 9
0002
0000
0000
0000
2003
0000
0000
0000
3002
0000
0000
0000
0000
0000
1000
1000
,  // measure 10
1003
0000
0010
0000
0100
0000
0000
0001
2000
0000
0000
0000
3001
0010
0100
0010
,  // measure 11
0002
0000
0000
0000
2003
0000
0000
0000
3020
0000
0000
0000
0000
0000
0100
0100
,  // measure 12
0130
0001
1000
0001
1000
0000
0010
0200
0000
0000
0000
0000
0000
0000
0000
0310
,  // measure 13
2000
0000
0000
0000
3002
0000
0000
0000
2003
0000
0000
0000
0000
0000
0001
0001
,  // measure 14
3001
0000
0100
0000
0010
0000
0000
1000
0002
0000
0000
0000
1003
0100
0010
0100
,  // measure 15
2000
0000
0000
0000
3002
0000
0000
0000
0203
0000
0000
0000
0000
0000
0010
0010
,  // measure 16
0310
1000
0001
1000
0001
0000
0100
0020
0000
0000
0000
0230
0000
0000
0000
0300
,  // measure 17
2002
0000
0000
0000
0000
0000
0000
0000
0000
0000
0000
0000
0000
0000
0000
0000
0000
0000
0000
0000
0000
3003
0000
0000
1000
0000
0000
0000
0100
0000
0000
0000
0010
0000
0000
0000
0001
0000
0000
0000
0100
0000
0000
0000
0010
0000
0000
0000
,  // measure 18
1000
0100
0000
0010
0001
0000
0100
0001
0000
1000
0001
0000
1000
0010
1000
0000
,  // measure 19
0001
0100
0000
0001
1000
0000
0100
1000
0000
0010
0100
0000
0010
1000
0010
0000
,  // measure 20
1000
0100
0000
0010
0001
0000
0000
0100
0000
0010
0000
0100
0010
0000
1000
0000
,  // measure 21
0001
0100
0000
0001
1000
0000
0000
0010
0000
1000
0000
0100
0010
0000
0001
0000
,  // measure 22
1000
0100
0000
0010
0001
0000
0100
0001
0000
1000
0001
0000
1000
0010
1000
0000
,  // measure 23
0001
0100
0000
0001
1000
0000
0100
1000
0000
0010
0100
0000
0010
1000
0010
0000
,  // measure 24
1000
0100
0000
0010
0001
0000
0000
0100
0000
0010
0000
0100
0010
0000
1000
0000
,  // measure 25
0001
0100
0000
0001
1000
0000
0000
0010
0000
1000
0000
0100
0010
0000
0001
0000
,  // measure 26
1000
0100
0000
0100
1000
0000
0010
0000
0100
0001
0000
0001
0100
0000
0010
0000
,  // measure 27
1000
0100
0000
0100
1000
0000
0010
0000
0100
0000
0000
0010
1000
0000
0001
0000
,  // measure 28
0100
0001
0000
0001
0100
0000
0010
0000
1000
0001
0000
0001
1000
0000
0100
0000
,  // measure 29
1000
0010
0000
0010
1000
0000
0010
0000
0100
0000
0000
0010
1000
0000
0010
0000
,  // measure 30
0110
0000
1001
0000
,  // measure 31
1100
0000
1001
1001
0000
0110
0110
0000
,  // measure 32
1000
0010
1000
0010
0000
0100
0000
0010
1000
0010
0100
0000
0000
0010
1000
0010
,  // measure 33
0100
0001
1000
0000
0000
0001
0100
0010
1000
0100
1000
0100
0010
0001
0010
0001
,  // measure 34
0100
0000
0010
1000
0000
0010
0000
0100
0001
0000
1000
0100
0000
1000
0000
0010
,  // measure 35
0100
0000
0010
1000
0000
0010
0000
0100
0010
0000
1000
0000
0001
0100
0001
0100
,  // measure 36
0001
0100
0001
0100
0000
0010
0000
0100
0001
0100
0010
0000
0000
0100
0001
0100
,  // measure 37
0010
1000
0001
0000
0000
1000
0010
0100
0001
0010
0001
0010
0100
1000
0100
1000
,  // measure 38
0010
0000
0100
0001
0000
0100
0000
0010
1000
0000
0001
0010
0000
0001
0000
0100
,  // measure 39
0010
0110
0000
1010
0000
0110
1001
0000
,  // measure 40
0100
0010
1000
0001
0100
0010
0000
0010
,  // measure 41
1000
0100
1000
0010
0100
0001
0000
1000
,  // measure 42
0001
0100
0010
1000
0100
0010
0000
0010
,  // measure 43
0001
0100
0010
1000
0100
1000
0010
0100
,  // measure 44
0001
1000
0100
1000
0010
0100
0000
0100
,  // measure 45
0001
0010
0001
0100
0010
1000
0000
0100
,  // measure 46
1000
0010
0100
0001
0010
0001
0000
0100
,  // measure 47
0010
0000
0000
1000
0000
0000
0100
0000
0000
1000
0000
0000
0010
0000
0100
0000
0010
0000
0200
0000
0000
0000
0300
0000
,  // measure 48
2002
0000
0000
0000
,  // measure 49
3003
0000
0000
0000
;

//---------------dance-single - ----------------
#NOTES:
     dance-single:
     :
     Easy:
     4:
     0.264,0.322,0.206,0.103,0.010:
0000
0000
0000
0000
,
0000
0000
0000
0000
,
0000
0000
0000
0000
,
0000
0000
0000
0000
,
1000
1000
1000
0000
,
0001
0001
0001
0000
,
0100
0100
0100
0000
,
0110
0000
1010
1010
,
1000
0000
0010
0000
0100
0000
0000
0010
,
1000
0000
0001
0000
0200
0000
0310
1000
,
0010
0000
1000
0000
0200
0000
0000
0310
,
0001
0000
0000
0000
1000
0000
0000
0200
0000
0000
0000
0000
0000
0000
0300
0000
,
0010
0000
0010
0000
0002
0000
0000
1003
,
0100
1000
0100
0000
0020
0000
0031
1000
,
0100
0000
1000
0000
0020
0000
0000
0130
,
0001
0000
0000
0000
1000
0000
0000
0000
0100
0000
0000
0110
0000
0000
0000
0000
,
2002
0000
0000
3003
0110
0000
0110
0000
,
1000
0100
1000
0010
,
0100
0001
1000
0001
,
1000
0100
1000
0100
,
0010
0001
0010
0001
,
0100
0010
1000
0001
,
0100
0001
0010
0001
,
0100
0010
1000
0100
,
1000
0010
0100
0001
,
0010
0001
0100
0001
,
1000
0100
1000
0010
,
0100
0010
1000
0001
,
0100
0001
1000
0001
,
1001
0000
0110
0000
,
1001
0000
0000
1100
0000
0000
1001
0000
,
0101
0000
1000
0000
,
0100
0000
0010
0001
,
0100
0000
0010
0000
,
1000
0000
0001
0100
,
0001
0000
1000
0000
,
0100
0000
1000
0010
,
0100
0000
0001
0000
,
1001
0000
0000
0110
0000
0000
0110
0000
,
1001
1000
0100
0000
,
0010
0001
0100
0000
,
0010
1000
0100
0000
,
0010
0001
0100
0010
,
1000
0100
1000
0000
,
0001
0100
0010
0000
,
1000
0100
1000
0000
,
0001
0100
1001
1010
,
2002
0000
0000
0000
,
3003
0000
0000
0000
;

//---------------dance-single - ----------------
#NOTES:
     dance-single:
     :
     Medium:
     6:
     0.409,0.470,0.155,0.175,0.072:
0000
0000
0000
0000
,
0000
0000
0000
0000
,
0000
0000
0000
0000
,
0000
0000
0000
0000
,
1000
0000
1000
0010
0100
0010
0000
1000
,
0100
0000
0010
0001
0010
0001
0000
0100
,
0010
0000
1000
0100
1000
0100
0000
0010
,
0011
0000
0000
0001
0101
0000
1010
0000
,
1002
0000
0000
0000
2003
0000
0000
0000
3200
0000
0000
0000
0300
0000
0010
0001
,
1000
0000
0100
0000
1000
0000
0000
0010
0100
0000
0000
0000
0001
1000
0001
1000
,
0002
0000
0000
0000
2003
0000
0000
0000
3200
0000
0000
0000
0300
0000
0010
0001
,
1000
0000
0010
0000
0100
0000
0010
2000
0000
0000
0000
0000
0000
0000
0000
3001
,
0200
0000
0000
0000
0302
0000
0000
0000
0023
0000
0000
0000
0030
0000
0001
0100
,
0010
0000
1000
0000
0100
0000
0000
0010
0001
0000
0000
0000
0100
0010
0100
0000
,
0020
0000
0000
0000
2030
0000
0000
0000
3002
0000
0000
0000
0003
0000
0100
0010
,
0100
0000
0010
0100
0010
0000
1000
0001
0000
0000
0000
0020
0000
0000
0000
0000
,
0032
0000
0000
0003
1001
0000
0110
0000
,
1000
0100
1000
0000
0010
0100
0001
0000
,
1000
0001
0100
0000
0010
0000
1000
0000
,
0010
0100
0001
0000
0010
0001
0100
0000
,
0001
1000
0010
0000
0001
0100
0010
1000
,
0001
1000
0100
0000
1000
0001
0100
0000
,
0001
1000
0100
0000
1000
0000
0010
0000
,
0100
0010
1000
0000
0001
0100
0010
0000
,
1000
0100
1000
0000
0001
0100
0010
1000
,
0001
0000
1000
0100
1000
0000
0010
0100
,
0010
0000
1000
0001
1000
0000
1001
0000
,
0001
0000
0100
0010
0100
0000
0010
1000
,
0010
0000
1000
0100
1000
0000
1001
0000
,
0101
0001
1001
0001
,
1001
0000
1000
1000
0000
0010
0010
0000
,
0100
0010
0000
1000
0001
1000
0000
0001
,
0100
0001
0000
1000
0100
1000
0100
1000
,
0010
0100
0000
0001
0010
0001
0000
0100
,
0010
1000
0000
0010
0100
0010
1000
0010
,
1000
0001
0000
0100
0001
0100
0000
0010
,
1000
0010
0000
0100
0010
0100
0010
0100
,
0001
1000
0000
0100
1000
0100
0000
0010
,
0001
1000
0000
1001
0000
0110
0000
1000
,
0001
0000
1000
0000
0100
1000
0000
1000
,
0100
0000
0010
0000
0001
0100
0000
0100
,
0001
0000
1000
0000
0001
0100
0000
0100
,
0010
0000
1000
0000
0100
1000
0100
1000
,
0010
0000
0100
0000
0001
0010
0000
0010
,
0001
0000
0100
0000
0010
1000
0000
1000
,
0010
0000
0100
0000
0010
0100
0000
0100
,
0010
0000
1000
0000
0001
1000
1001
0000
,
0220
0000
0000
0000
,
0330
0000
0000
0000
;

//---------------dance-single - ----------------
#NOTES:
     dance-single:
     :
     Beginner:
     1:
     0.094,0.145,0.021,0.010,0.000:
0000
0000
0000
0000
,
0000
0000
0000
0000
,
0000
0000
0000
0000
,
0000
0000
0000
0000
,
0100
0000
0000
0000
,
0010
0000
0000
0000
,
1000
0000
0000
0000
,
0001
0000
0000
0000
,
1000
0000
0100
0000
,
0010
0000
0001
0100
,
0001
0000
1000
0000
,
0100
0000
1000
0000
,
0010
0000
0100
0000
,
0010
0000
1000
0100
,
0010
0000
0001
0000
,
0100
0000
0010
0000
,
1010
0000
2000
0000
,
3010
0000
0000
0000
,
0010
0000
0000
0000
,
1000
0000
0000
0000
,
1000
0000
0000
0000
,
0001
0000
0000
0000
,
0001
0000
0000
0000
,
0100
0000
0000
0000
,
0100
0000
0000
0000
,
0010
0000
0000
0000
,
0010
0000
0000
0000
,
1000
0000
0000
0000
,
1000
0000
0000
0000
,
0001
0000
1000
0000
,
0001
0000
0000
0000
,
1000
0000
0000
0000
,
0010
0000
0100
0000
,
0001
0000
0000
0000
,
1000
0000
0010
0000
,
0100
0000
0000
0000
,
0001
0000
1000
0000
,
0010
0000
0000
0000
,
0100
0000
0000
0000
,
0001
0000
0000
0000
,
1000
0000
0000
0000
,
0010
0000
0000
0000
,
0100
0000
0000
0000
,
0001
0000
0000
0000
,
0100
0000
0000
0000
,
0010
0000
0000
0000
,
1000
0000
0010
0010
,
1001
0000
0000
0000
;
