#TITLE:Dam Dadi Doo;
#SUBTITLE:;
#ARTIST:Nightcore;
#TITLETRANSLIT:;
#SUBTITLETRANSLIT:;
#ARTISTTRANSLIT:;
#CREDIT:;
#BANNER:dam dadi doo.png;
#BACKGROUND:dam dadi doo-bg.png;
#LYRICSPATH:;
#CDTITLE:kykaCD.png;
#MUSIC:Dam Dadi Doo.mp3;
#OFFSET:-0.120;
#SAMPLESTART:50.150;
#SAMPLELENGTH:12.000;
#SELECTABLE:YES;
#BPMS:0.000=172.610;
#STOPS:;
#BGCHANGES:0.000=dam dadi doo.avi=1.000=1=1=0,
467.000=dam dadi doo-bg.png=1.000=0=0=1,
99999=-nosongbg-=1.000=0=0=0 // don't automatically add -songbackground-
;

//---------------dance-single - ----------------
#NOTES:
     dance-single:
     :
     Easy:
     4:
     0.307,0.359,0.178,0.006,0.000: // measure 1
1000
0000
0100
0000
0010
0000
0000
0001
,  // measure 2
0000
1000
0000
0000
0010
0000
0100
0000
,  // measure 3
0010
0000
1000
0000
0100
0000
0000
0010
,  // measure 4
0000
0001
0000
0000
1000
0000
0001
0000
,  // measure 5
1000
0100
0010
0001
,  // measure 6
0100
0001
0010
0001
,  // measure 7
0100
0010
1000
0100
,  // measure 8
1000
0010
0100
0001
,  // measure 9
1001
0000
0000
0000
0000
1010
0000
0000
,  // measure 10
0000
0000
0000
0000
0000
0110
0000
0000
,  // measure 11
0000
0000
0000
0000
0000
1001
0000
0000
,  // measure 12
0000
0000
1000
0100
,  // measure 13
0011
0000
0000
0000
0000
0101
0000
0000
,  // measure 14
0000
0000
0000
0000
0000
1001
0000
0000
,  // measure 15
0000
0000
0000
0000
0000
1100
0000
0000
,  // measure 16
0000
0000
1000
0001
,  // measure 17
0100
0010
1000
0000
,  // measure 18
0001
0100
0001
0000
,  // measure 19
1000
0100
1000
0000
,  // measure 20
0010
0100
0001
0000
,  // measure 21
1000
0100
1000
0000
,  // measure 22
0010
0100
0001
0000
,  // measure 23
1000
0001
1000
0000
,  // measure 24
0101
0000
1001
0000
,  // measure 25
1000
0000
0000
0010
0000
0000
0000
1000
,  // measure 26
0000
0000
0000
0001
0000
0000
0000
0100
,  // measure 27
0000
0000
0000
0010
0000
0000
0000
1000
,  // measure 28
0000
0000
0000
0001
0000
0000
0000
1000
,  // measure 29
0000
0000
0000
0010
0000
0000
0000
0100
,  // measure 30
0000
0000
0000
0001
0000
0000
0000
0010
,  // measure 31
0000
0000
0000
0001
0000
0000
0000
0100
,  // measure 32
0000
0000
0000
0010
0000
0000
0000
0000
,  // measure 33
1000
0100
0010
0000
,  // measure 34
0001
0100
0001
0000
,  // measure 35
1000
0000
0100
0000
1000
0000
0000
0100
,  // measure 36
0000
0010
1000
0000
,  // measure 37
0010
0000
0100
0000
0001
0000
0000
1000
,  // measure 38
0000
0100
0000
0000
0010
0000
0001
0000
,  // measure 39
0100
0000
0010
0000
1000
0000
0000
0001
,  // measure 40
0000
1000
0000
0000
0010
0000
0100
0000
,  // measure 41
0001
0000
1000
0000
0100
0000
0000
0010
,  // measure 42
0000
0001
0000
0000
0100
0000
0010
0000
,  // measure 43
1000
0000
0100
0000
1000
0000
0000
0010
,  // measure 44
0000
0100
0000
0000
0001
0000
1000
0000
,  // measure 45
1001
0000
0000
0000
0000
1100
0000
0000
,  // measure 46
0000
0000
0000
0000
0000
0101
0000
0000
,  // measure 47
0000
0000
0000
0000
0000
1001
0000
0000
,  // measure 48
0000
0000
1000
0001
,  // measure 49
0101
0000
0000
0000
0000
1001
0000
0000
,  // measure 50
0000
0000
0000
0000
0000
1100
0000
0000
,  // measure 51
0000
0000
0000
0000
0000
0101
0000
0000
,  // measure 52
0000
0000
1000
0100
,  // measure 53
0010
0010
0001
0001
,  // measure 54
0100
0100
0010
0010
,  // measure 55
1000
0001
0100
0010
,  // measure 56
1001
0000
1000
1000
,  // measure 57
0001
1000
0100
0000
,  // measure 58
0010
0001
0100
0000
,  // measure 59
0001
1000
0001
0000
,  // measure 60
1000
0100
1000
0000
,  // measure 61
0001
0010
0100
0000
,  // measure 62
1000
0010
0100
0000
,  // measure 63
0001
1000
0001
0000
,  // measure 64
1001
0000
1100
0000
,  // measure 65
0010
0000
0000
1000
0000
0000
0000
0010
,  // measure 66
0000
0000
0000
0100
0000
0000
0000
0001
,  // measure 67
0000
0000
0000
1000
0000
0000
0000
0100
,  // measure 68
0000
0000
0000
0010
0000
0000
0000
0001
,  // measure 69
0000
0000
0000
1000
0000
0000
0000
0100
,  // measure 70
0000
0000
0000
0010
0000
0000
0000
0100
,  // measure 71
0000
0000
0000
1000
0000
0000
0000
0001
,  // measure 72
0000
0000
0000
1000
0000
0000
0000
0000
,  // measure 73
0001
1000
0001
0000
,  // measure 74
1000
0100
0010
0000
,  // measure 75
0001
0100
0010
0000
,  // measure 76
1000
0001
1000
0010
,  // measure 77
0100
0000
0010
0000
1000
0000
0000
0001
,  // measure 78
0000
1000
0000
0000
0010
0000
0100
0000
,  // measure 79
0001
0000
1000
0000
0100
0000
0000
0010
,  // measure 80
0000
0001
0000
0000
0100
0000
0001
0000
,  // measure 81
0100
0000
0010
0000
1000
0000
0000
0100
,  // measure 82
0000
1000
0000
0000
0010
0000
0100
0000
,  // measure 83
0001
0000
1000
0000
0001
0000
0000
0100
,  // measure 84
0000
0001
0000
0000
1000
0000
0001
0000
,  // measure 85
0100
0000
0010
0000
1000
0000
0000
0001
,  // measure 86
0000
1000
0000
0000
0010
0000
0100
0000
,  // measure 87
0001
0000
1000
0000
0100
0000
0000
0010
,  // measure 88
0000
0001
0000
0000
0100
0000
0001
0000
,  // measure 89
0100
0000
0010
0000
1000
0000
0000
0100
,  // measure 90
0000
1000
0000
0000
0010
0000
0100
0000
,  // measure 91
0001
0000
1000
0000
0001
0000
0000
0100
,  // measure 92
0000
0001
0000
0000
1000
0000
0001
0000
,  // measure 93
0110
0000
0000
0000
0000
1100
0000
0000
,  // measure 94
0000
0000
0000
0000
0000
0110
0000
0000
,  // measure 95
0000
0000
0000
0000
0000
1001
0000
0000
,  // measure 96
0000
0000
1000
0100
,  // measure 97
0011
0000
0000
0000
0000
1100
0000
0000
,  // measure 98
0000
0000
0000
0000
0000
1001
0000
0000
,  // measure 99
0000
0000
0000
0000
0000
0101
0000
0000
,  // measure 100
0000
0000
1000
0100
,  // measure 101
1000
0000
0000
0001
0000
0000
0000
1000
,  // measure 102
0000
0000
0000
0100
0000
0000
0000
0000
,  // measure 103
0010
0001
0100
0001
,  // measure 104
1000
0000
0100
0000
1000
0000
0000
0010
,  // measure 105
0000
0000
0000
1000
0000
0000
0000
0001
,  // measure 106
0000
0000
0000
0100
0000
0000
0000
0000
,  // measure 107
0010
1000
0100
1000
,  // measure 108
0010
0100
0001
1000
,  // measure 109
0010
0000
0100
0000
0001
0000
0000
1000
,  // measure 110
0000
0001
0000
0000
0100
0000
0010
0000
,  // measure 111
1000
0000
0001
0000
0010
0000
0000
0100
,  // measure 112
0000
1000
0000
0000
0010
0000
1000
0000
,  // measure 113
0010
0000
0100
0000
0001
0000
0000
0010
,  // measure 114
0000
0001
0000
0000
0100
0000
0010
0000
,  // measure 115
1000
0001
1000
0000
,  // measure 116
1000
0001
1000
0001
,  // measure 117
0020
0000
0000
0030
;

//---------------dance-single - ----------------
#NOTES:
     dance-single:
     :
     Hard:
     9:
     0.702,1.000,0.670,0.043,0.138:
1000
0000
0010
0100
0110
0000
0000
1010
,
0000
0110
0000
1000
0001
1000
0020
0000
,
0130
0000
0001
1000
1100
0000
0000
0101
,
0000
0011
0000
0100
0010
1000
0200
0000
,
0310
0000
0001
1000
1001
0000
0000
1100
,
0000
1010
0000
0100
0010
1000
0002
0000
,
1003
0100
1000
0100
1000
0100
1000
0100
1000
0100
1000
0100
1000
0100
1000
0100
,
1000
0000
0010
0100
0010
0000
1000
0001
1000
0010
1000
0010
1000
0001
1000
0001
,
1000
0000
0010
0000
1000
0010
0010
0010
,
0100
0000
0001
0000
0010
0001
0001
0001
,
1000
0000
0010
0000
0100
1000
1000
1000
,
0000
0100
0000
0010
1000
0000
0100
0000
,
0010
0000
0001
0000
1000
0010
0010
0010
,
1000
0000
0001
0000
0100
0001
0001
0001
,
1000
0000
0100
0000
1000
0010
0010
0010
,
0000
0110
0000
1000
0010
0000
0100
0000
,
0001
0000
1000
0000
0001
0000
0100
0000
0010
0000
0000
0010
0000
0000
0010
0000
,
1000
0000
0100
0000
0010
0000
0001
0000
1000
0000
0000
1000
0000
0000
1000
0000
,
0010
0100
0010
1000
2002
0000
3003
1000
,
0100
0000
0010
0000
0001
0000
0100
0000
1010
0000
0000
0010
0100
0000
0001
0000
,
1000
0000
0100
0000
1000
0000
0010
0000
0100
0000
0000
0100
0000
0000
0100
0000
,
0001
0000
0010
0000
0001
0000
0100
0000
0010
0000
0000
0010
0000
0000
0010
0000
,
1000
0100
1000
0100
1100
0000
0000
0001
,
0101
0000
0000
1000
1010
0000
0000
0000
,
1001
0100
0000
1010
0000
0110
0000
1001
,
0000
0101
0000
1001
0000
1100
0000
1100
,
0000
1010
0000
0101
0000
1001
0000
1001
,
0000
0110
0000
1001
0000
0000
0000
1100
,
0000
0101
0000
1001
0000
0101
0000
1001
,
0000
1100
0000
1010
0000
0110
0000
1001
,
0000
0101
0000
1001
0000
1100
0000
0110
,
0000
1001
0000
0101
0000
1001
0000
1000
,
0100
0000
0010
0001
0101
0000
0000
0010
,
0000
1000
0100
1000
1100
0000
0000
0000
,
0101
0000
0000
0000
0100
0000
0001
0000
1000
0100
1000
0100
1000
0100
1000
0100
,
1000
0100
0010
0001
1000
0000
0000
0000
,
0001
0000
1000
0001
1000
0000
0010
0100
,
0000
0010
0000
1000
0001
0100
0001
0000
,
1000
0000
0100
1000
0010
0000
0100
0001
,
0000
1000
0000
0001
0100
0010
1000
0000
,
0100
0000
1000
0010
0100
0000
0001
1000
,
0000
0001
0000
1000
0100
1000
0010
0000
,
0100
0000
0001
0010
0001
0000
1000
0001
,
0000
0100
0000
0010
1000
0100
1000
0000
,
0010
0000
0100
0000
0001
1000
1000
1000
,
0010
0000
0100
0000
0001
0010
0010
0010
,
0100
0000
1000
0000
0010
0100
0100
0100
,
0000
1001
0000
0100
0010
0000
1000
0000
,
0100
0000
1000
0000
0001
0100
0100
0100
,
0010
0000
1000
0000
0100
0010
0010
0010
,
0001
0000
0100
0000
0010
1000
1000
1000
,
0000
0010
0000
1000
0001
0000
1001
0000
,
1000
0100
0010
0001
0100
0010
1000
0100
,
0010
0001
0100
0001
0010
0001
0100
0010
,
1000
0000
0100
0000
0010
0000
0001
0000
0100
0000
0010
1000
0010
1000
0010
1000
,
0010
0000
0100
0000
0001
0000
1000
0000
0001
1000
0001
0000
0100
0000
0010
0000
,
1000
0000
0010
0000
0100
0000
0001
0000
1000
0000
0000
1000
0000
0000
1000
0000
,
0010
0000
0100
0000
0001
0000
0010
0000
0001
0000
0000
0001
0000
0000
0001
0000
,
0100
0010
1000
0100
1100
0000
0000
0010
,
0100
0001
1000
0001
1001
0000
0000
0000
,
1000
0000
0100
0000
0010
0000
0100
0000
1000
0000
0000
1000
0000
0000
1000
0000
,
0010
0000
0100
0000
0001
0000
1000
0000
0001
0000
0000
0001
0000
0000
0001
0000
,
0100
0010
1000
0100
1100
0000
0000
0001
,
0011
0000
0000
0000
0000
0000
0100
0000
0110
0000
0000
0000
0010
1000
0010
0000
,
1000
0100
0000
0011
0000
0101
0000
1001
,
0000
1100
0000
0110
0000
1001
0000
0101
,
0000
1001
0000
1100
0000
0110
0000
1001
,
0000
0101
0000
1001
0000
0000
0000
1100
,
0000
0110
0000
1001
0000
0101
0000
1001
,
0000
1100
0000
1010
0000
0101
0000
1001
,
0000
0101
0000
1001
0000
1100
0000
1010
,
0000
0110
0000
1001
0000
0101
0000
0001
,
1000
0100
0010
0001
0100
0000
0010
0010
,
0000
1000
0100
1000
0100
0000
0010
0000
,
0001
0000
0000
0000
0100
0000
0010
0000
1000
0100
1000
0100
1000
0100
1000
0100
,
1000
0010
0100
0001
1000
0000
0000
0000
,
1001
0000
0010
1000
0010
0000
0000
0101
,
0000
1001
0000
0010
0001
1000
0010
0000
,
0110
0000
0010
1000
0100
0000
0000
1100
,
0000
0011
0000
0100
0001
1000
0001
0000
,
1100
0000
0001
0010
0001
0000
0000
0101
,
0000
1001
0000
1000
0100
0010
0001
0000
,
0110
0000
1000
0100
1000
0000
0001
0000
,
1000
0000
0001
0000
1000
0000
0001
0000
0100
0001
0010
0001
0100
0001
0010
0001
,
1000
0000
0001
1000
0001
0000
0100
0010
,
0000
0100
0000
0001
1000
0010
1000
0000
,
0001
0000
0010
0001
0100
0000
0010
1000
,
0000
0001
0000
1000
0010
0100
0001
0000
,
0010
0000
0001
0100
0010
0000
1000
0001
,
0000
1000
0000
0001
0010
0001
0100
0000
,
0010
0000
1000
0100
1000
0000
0001
1000
,
0000
0010
0000
0100
0001
0010
0001
0000
,
0100
0000
0010
0000
1000
0001
0001
0001
,
0100
0000
0010
0000
1000
0100
0100
0100
,
0010
0000
0001
0000
0100
0010
0010
0010
,
0000
1001
0000
0010
0100
0000
0001
0000
,
0010
0000
0001
0000
1000
0010
0010
0010
,
0100
0000
0001
0000
0010
0100
0100
0100
,
1000
0000
0010
0000
0100
0001
0001
0001
,
0000
0100
0000
0001
1000
0000
1001
0000
,
0001
1000
0000
0101
0000
0011
0000
0101
,
0000
1001
0000
1100
0000
1000
0010
0100
,
0001
1000
0001
0100
0001
0010
0001
0100
,
0010
1000
0100
1000
0010
0100
0000
1010
,
0000
0101
0000
1001
0000
1100
0000
0110
,
0000
1001
0000
0101
0000
1000
0100
1000
,
0010
1000
0001
0100
0001
0010
0001
0100
,
0010
0000
1000
0000
0100
0000
0000
1000
0010
0000
0100
0010
1000
0000
0010
0000
,
1000
0000
0001
1000
0001
0000
0100
0010
,
0000
0100
0000
0001
1000
0010
1000
0000
,
0001
0000
0010
0001
0100
0000
0010
1000
,
0000
0001
0000
1000
0010
0100
0001
0000
,
0010
0000
0001
0100
0010
0000
1000
0001
,
0000
1000
0000
0001
0010
0001
0100
0000
,
0010
0000
1000
0100
1000
0000
0001
0000
,
1000
0000
0010
0100
0010
0000
0100
0001
0100
0000
0001
0010
0001
0000
1000
0000
,
2002
0000
0000
3003
;

//---------------dance-single - ----------------
#NOTES:
     dance-single:
     :
     Medium:
     7:
     0.460,0.502,0.031,0.006,0.025:
1000
0000
0001
0100
0001
0000
0000
1000
,
0000
1000
0000
0100
0010
0100
0010
0000
,
0001
0000
1000
0100
1000
0000
0000
0010
,
0000
0010
0000
1000
0001
1000
0001
0000
,
0100
0000
0010
1000
0010
0000
0000
1000
,
0000
1000
0000
0100
1000
0100
1000
0000
,
0001
0000
0100
0001
0100
0000
0000
0010
,
0000
0010
0000
1000
0100
1000
0100
0000
,
1001
0000
1000
0000
0000
0001
0100
0001
,
0000
0000
0100
0000
0000
0010
1000
0010
,
0000
0000
0100
0000
0000
0010
1000
0010
,
0000
0100
0000
0010
1000
0000
0001
0000
,
1000
0000
0001
0000
0000
0100
0001
0010
,
0000
0000
0001
0000
0000
1000
0100
0010
,
0000
0000
0100
0000
0000
0010
0001
1000
,
0000
0001
0000
0100
0001
0000
1000
0000
,
0001
0000
0000
0000
1000
0000
0000
0000
0100
0000
0000
0100
0000
0000
0000
0000
,
0010
0000
0000
0000
0001
0000
0000
0000
1000
0000
0000
1000
0000
0000
0000
0000
,
0010
0100
0110
0000
,
0010
1000
1010
0000
,
1000
0000
0000
0000
0001
0000
0000
0000
0100
0000
0000
0100
0000
0000
0000
0000
,
0010
0000
0000
0000
0100
0000
0000
0000
0001
0000
0000
0001
0000
0000
0000
0000
,
1000
0000
0100
0000
1000
0000
0000
0001
,
0100
0000
0000
0010
1000
0000
0000
0000
,
0001
1000
0000
0001
0000
1000
0000
0010
,
0000
0100
0000
0010
0000
0100
0000
0001
,
0000
1000
0000
0001
0000
1000
0000
0010
,
0000
0100
0000
0010
0000
0000
0000
1000
,
0000
0100
0000
1000
0000
0100
0000
0010
,
0000
0001
0000
0010
0000
0001
0000
1000
,
0000
0010
0000
1000
0000
0010
0000
0100
,
0000
0001
0000
0100
0000
0001
0000
0000
,
1000
0000
0001
0100
0001
0000
0000
1000
,
0000
0001
0000
1000
0100
0000
0000
0000
,
0010
0000
0001
0100
0010
0000
0000
1000
,
0000
0100
1000
0100
0010
0000
0000
0000
,
0100
0000
0010
1000
0010
0000
0000
0100
,
0000
0001
0000
1000
0100
1000
0100
0000
,
0010
0000
0001
1000
0001
0000
0000
0100
,
0000
0010
0000
1000
0100
1000
0100
0000
,
0010
0000
0001
1000
0001
0000
0000
0100
,
0000
0001
0000
0010
0001
0010
0001
0000
,
0100
0000
0010
1000
0010
0000
0000
1000
,
0000
0001
0000
0100
0001
0100
0001
0000
,
1000
0000
0100
0000
0000
0010
0001
0010
,
0000
0000
0100
0000
0000
1000
0010
1000
,
0000
0000
0010
0000
0000
0100
0001
0100
,
0000
0010
0000
1000
0001
0000
0100
0000
,
0001
0000
1000
0000
0000
0100
1000
0100
,
0000
0000
0010
0000
0000
0001
0100
0001
,
0000
0000
1000
0000
0000
0010
0100
0010
,
0000
1000
0000
0001
0100
0000
0001
0000
,
1000
0100
0010
0000
0001
0100
0010
0000
,
1000
0100
1000
0000
0001
0100
0001
0000
,
0010
0001
0010
0000
0001
1000
0001
1000
,
0000
0010
0100
0010
0100
0000
0000
0000
,
0001
0000
0000
0000
1000
0000
0000
0000
0010
0000
0000
0010
0000
0000
0000
0000
,
1000
0000
0000
0000
0001
0000
0000
0000
0100
0000
0000
0100
0000
0000
0000
0000
,
0010
1000
0001
0000
,
1000
0100
0010
0000
,
0001
0000
0000
0000
1000
0000
0000
0000
0010
0000
0000
0010
0000
0000
0000
0000
,
0100
0000
0000
0000
0001
0000
0000
0000
1000
0000
0000
1000
0000
0000
0000
0000
,
0010
0000
1000
0000
0001
0000
0000
1000
,
0100
0000
0000
0100
1000
0000
0000
0000
,
0010
1000
0000
0001
0000
0100
0000
0010
,
0000
1000
0000
0010
0000
0100
0000
0001
,
0000
1000
0000
0100
0000
1000
0000
0010
,
0000
0100
0000
0001
0000
0000
0000
1000
,
0000
0100
0000
1000
0000
0010
0000
0100
,
0000
0001
0000
0010
0000
0001
0000
0100
,
0000
0010
0000
1000
0000
0100
0000
1000
,
0000
0010
0000
0100
0000
0001
0000
0000
,
1000
0000
0100
0010
0100
0000
0000
0010
,
0000
0001
0000
1000
0001
0000
0000
0000
,
0100
0000
0010
1000
0010
0000
0000
0100
,
0000
0010
0000
1000
0001
0000
0000
0000
,
1000
0000
0001
0100
0001
0000
0000
1000
,
0000
1000
0000
0100
0010
0100
0010
0000
,
0001
0000
1000
0100
1000
0000
0000
0010
,
0000
0010
0000
1000
0001
1000
0001
0000
,
0100
0000
0010
1000
0010
0000
0000
1000
,
0000
1000
0000
0100
1000
0100
1000
0000
,
0001
0000
0100
0001
0100
0000
0000
0010
,
0000
0010
0000
1000
0100
1000
0100
0000
,
0010
0000
0100
0001
0100
0000
0000
0010
,
0000
1000
0000
0001
0010
0001
0010
0000
,
0100
0000
1000
0001
1000
0000
0000
0010
,
0000
0100
0000
0001
0010
0001
0010
0000
,
0100
0000
1000
0001
1000
0000
0000
0010
,
0000
1000
0000
0100
1000
0100
1000
0000
,
0010
0000
0100
0001
0100
0000
0000
0001
,
0000
1000
0000
0010
1000
0010
1000
0000
,
0001
0000
0010
0000
0000
0100
1000
0100
,
0000
0000
0010
0000
0000
0001
0100
0001
,
0000
0000
0100
0000
0000
0010
1000
0010
,
0000
0100
0000
0001
1000
0000
0010
0000
,
1000
0000
0001
0000
0000
0010
0001
0010
,
0000
0000
0100
0000
0000
1000
0010
1000
,
0000
0000
0001
0000
0000
0100
0010
0100
,
0000
0001
0000
1000
0010
0000
1000
0000
,
0001
1000
0000
0010
0000
0100
0000
0010
,
0000
0001
0000
1001
0000
0000
0000
0000
,
1000
0100
1000
0000
0001
0100
0001
0000
,
1000
0100
1000
0000
1010
0000
0000
1000
,
0000
0010
0000
0100
0000
0001
0000
1000
,
0000
0001
0000
1000
0000
0000
0000
0000
,
0010
0100
0010
0000
1000
0100
1000
0000
,
0001
0100
0001
0000
1000
0001
1000
0000
,
0010
0000
0100
0001
0100
0000
0000
0010
,
0000
1000
0000
0001
0010
0001
0010
0000
,
0100
0000
1000
0001
1000
0000
0000
0010
,
0000
0100
0000
0001
0010
0001
0010
0000
,
0100
0000
1000
0001
1000
0000
0000
0010
,
0000
1000
0000
0100
1000
0100
1000
0000
,
0010
0000
0100
0001
0100
0000
0001
0000
,
1000
0010
1000
0010
1000
0010
1000
0010
,
2000
0000
0000
3000
;

//---------------dance-single - ----------------
#NOTES:
     dance-single:
     :
     Beginner:
     2:
     0.123,0.178,0.006,0.006,0.000:
1000
0000
0000
0000
,
0001
0000
0000
0000
,
0100
0000
0000
0000
,
0010
0000
0000
0000
,
1000
0000
0000
0000
,
0100
0000
0000
0000
,
0010
0000
0000
0000
,
0001
0000
0000
0000
,
0100
0000
0000
0010
,
0000
0000
0000
1000
,
0000
0000
0000
0001
,
0000
0000
0100
0000
,
0010
0000
0000
1000
,
0000
0000
0000
0001
,
0000
0000
0000
0100
,
0000
0000
0010
0000
,
1000
0000
0000
0000
,
0001
0000
0000
0000
,
0100
0000
0000
0000
,
0010
0000
0000
0000
,
1000
0000
0000
0000
,
0001
0000
0000
0000
,
0100
0000
0000
0000
,
0010
0000
0000
0000
,
1000
0000
0000
0000
,
0001
0000
0000
0000
,
0100
0000
0000
0000
,
0010
0000
0000
0000
,
1000
0000
0000
0000
,
0100
0000
0000
0000
,
1000
0000
0000
0000
,
0010
0000
0000
0000
,
0100
0000
0100
0000
,
0001
0000
0001
0000
,
1000
0000
1000
0000
,
0010
0000
0010
0000
,
0100
0000
0000
0000
,
0010
0000
0000
0000
,
1000
0000
0000
0000
,
0001
0000
0000
0000
,
0100
0000
0000
0000
,
0001
0000
0000
0000
,
1000
0000
0000
0000
,
0001
0000
0000
0000
,
1000
0000
0000
0010
,
0000
0000
0000
0100
,
0000
0000
0000
0001
,
0000
0000
1000
0000
,
0010
0000
0000
0100
,
0000
0000
0000
0001
,
0000
0000
0000
1000
,
0000
0000
0001
0000
,
1000
0000
1000
0000
,
0010
0000
0010
0000
,
0100
0000
0100
0000
,
0002
0000
0000
0000
,
1003
0000
0000
0000
,
0010
0000
0000
0000
,
0100
0000
0000
0000
,
0001
0000
0000
0000
,
1000
0000
0000
0000
,
0100
0000
0000
0000
,
1000
0000
0000
0000
,
0010
0000
0000
0000
,
0100
0000
0000
0000
,
0001
0000
0000
0000
,
0100
0000
0000
0000
,
0001
0000
0000
0000
,
1000
0000
0000
0000
,
0001
0000
0000
0000
,
0100
0000
0000
0000
,
0001
0000
0000
0000
,
1000
0000
0010
0000
,
0100
0000
0001
0000
,
1000
0000
0100
0000
,
0010
0000
0001
0000
,
0100
0000
0000
0000
,
0010
0000
0000
0000
,
1000
0000
0000
0000
,
0001
0000
0000
0000
,
0100
0000
0000
0000
,
0001
0000
0000
0000
,
1000
0000
0000
0000
,
0001
0000
0000
0000
,
1000
0000
0000
0000
,
0100
0000
0000
0000
,
1000
0000
0000
0000
,
0010
0000
0000
0000
,
0100
0000
0000
0000
,
0001
0000
0000
0000
,
0010
0000
0000
0000
,
0001
0000
0000
0000
,
0100
0000
0000
0010
,
0000
0000
0000
1000
,
0000
0000
0000
0001
,
0000
0000
0100
0000
,
0010
0000
0000
1000
,
0000
0000
0000
0001
,
0000
0000
0000
0100
,
0000
0000
0010
0000
,
1000
0000
0001
0000
,
0100
0000
0010
0000
,
1000
0000
0000
0000
,
0100
0000
0000
0000
,
0010
0000
0001
0000
,
0100
0000
0001
0000
,
1000
0000
0000
0000
,
0010
0000
0000
0000
,
0100
0000
0000
0000
,
0010
0000
0000
0000
,
1000
0000
0000
0000
,
0001
0000
0000
0000
,
0100
0000
0000
0000
,
0001
0000
0000
0000
,
1000
0000
0000
0000
,
0001
0000
0000
0000
,
1001
0000
0000
0000
;
