#TITLE:DROP OUT MEGAMIX;
#SUBTITLE:;
#ARTIST:NW260;
#TITLETRANSLIT:;
#SUBTITLETRANSLIT:;
#ARTISTTRANSLIT:;
#CREDIT:;
#BANNER:Dom.png;
#BACKGROUND:DOM-bg.png;
#LYRICSPATH:;
#CDTITLE:.png;
#MUSIC:dropOutMegamix.mp3;
#OFFSET:-5.536;
#SAMPLESTART:30.100;
#SAMPLELENGTH:15.500;
#SELECTABLE:YES;
#BPMS:0.000=266.480;
#STOPS:160.000=1.120
,161.000=0.260
;
#BGCHANGES:;

//---------------dance-single - ----------------
#NOTES:
     dance-single:
     :
     Challenge:
     11:
     1.000,1.000,1.000,0.142,0.028: // measure 1
1001
1001
1100
1001
,  // measure 2
1010
0110
0101
0000
,  // measure 3
1001
0101
1100
0011
,  // measure 4
1010
0110
1100
0000
,  // measure 5
0001
1000
0001
0000
1010
0000
0100
1000
,  // measure 6
0010
0001
0100
0000
0010
0100
1000
0000
,  // measure 7
0001
0010
0001
0000
1100
0000
0010
1000
,  // measure 8
0001
0100
0010
0000
0001
0010
1000
0000
,  // measure 9
1010
1001
0101
1010
,  // measure 10
0011
1001
0110
0000
,  // measure 11
0011
0101
0101
1010
,  // measure 12
1010
1001
0110
0000
,  // measure 13
1000
0100
1000
0010
1000
0001
1000
0010
,  // measure 14
1000
0100
1000
0000
1001
0000
0000
0000
,  // measure 15
0001
0010
0001
0100
0001
1000
0001
0100
,  // measure 16
0001
0000
0000
0000
0000
0000
0000
0000
0001
0010
0100
1000
0100
0010
0001
0010
,  // measure 17
1100
0000
0100
0010
0100
0000
1000
0010
,  // measure 18
1000
0101
0101
1100
,  // measure 19
0011
0000
0010
0100
0010
0000
0001
0100
,  // measure 20
0001
0011
0011
1100
,  // measure 21
0011
0000
0100
0001
0100
0000
0001
1000
,  // measure 22
0100
1010
1001
0011
,  // measure 23
0110
0000
0100
1000
0100
0000
1000
0001
,  // measure 24
0100
0011
1001
0101
,  // measure 25
0110
0000
1000
0001
1000
0000
0001
0010
,  // measure 26
1000
1100
1010
1100
,  // measure 27
0110
0000
0001
1000
0001
0000
1000
0010
,  // measure 28
1000
0101
0101
1010
,  // measure 29
0101
0000
1000
0010
1000
0000
0001
0010
,  // measure 30
1000
1001
1010
1010
,  // measure 31
0101
0000
0001
0010
0001
0000
1000
0010
,  // measure 32
0100
1001
1010
0101
,  // measure 33
2001
0010
0100
0010
3001
0000
0000
0000
,  // measure 34
1020
0100
1000
0001
1030
0000
0000
0000
,  // measure 35
0210
1000
0001
1000
0301
0000
0000
0000
,  // measure 36
1020
1000
0100
0100
1030
0000
0000
0000
,  // measure 37
0012
0100
1000
0100
1003
0000
0000
0000
,  // measure 38
2010
0010
0010
0010
3010
0000
0000
0000
,  // measure 39
1002
1000
1000
1000
1003
0000
0000
0000
,  // measure 40
0210
0010
0010
0010
0310
0000
0000
0000
,  // measure 41
1001
0000
1001
0000
1000
0100
0001
0100
,  // measure 42
0001
0010
1000
0100
1000
0010
0001
0010
,  // measure 43
0100
1000
0010
0001
1000
0010
0001
0010
,  // measure 44
0001
0100
1000
0010
1000
0010
0100
0001
,  // measure 45
0010
0100
0001
0010
1001
0000
1100
0000
,  // measure 46
1010
0101
0011
0110
,  // measure 47
1001
0000
1001
0101
,  // measure 48
1010
1001
1010
0110
,  // measure 49
1001
0000
0000
0000
1000
0100
0001
0100
,  // measure 50
0001
0100
1000
0010
1000
0010
0100
1000
,  // measure 51
0010
0100
0001
0100
1000
0010
0001
0010
,  // measure 52
0001
0100
1000
0100
1000
0100
0001
0010
,  // measure 53
0100
1000
0010
0100
1000
0010
0100
1000
,  // measure 54
0010
0100
0001
0010
0100
0010
1000
0010
,  // measure 55
0100
0010
0001
0010
1000
0010
0100
0010
,  // measure 56
0001
0010
0100
0010
1000
0010
0001
0010
,  // measure 57
1000
0000
0000
0000
0010
0001
0010
0001
,  // measure 58
0100
1000
0100
1000
0010
0100
0010
0100
,  // measure 59
0001
1000
0001
1000
0100
0001
0100
0001
,  // measure 60
0010
0100
0010
0100
0001
1000
0001
1000
,  // measure 61
0010
0001
0010
0001
0100
1000
0100
1000
,  // measure 62
0001
0100
0001
0100
0010
0001
0010
0001
,  // measure 63
0100
1000
0100
1000
0001
1000
0001
1000
,  // measure 64
0010
0100
0010
0100
0010
0001
0010
0001
,  // measure 65
0010
0000
0011
1010
,  // measure 66
0101
1100
1001
0110
,  // measure 67
1001
0000
0110
0000
0101
0101
1010
1010
,  // measure 68
0011
0011
1100
1100
2002
0000
0000
0000
,  // measure 69
0000
0000
3003
0000
;

//---------------dance-single - ----------------
#NOTES:
     dance-single:
     :
     Easy:
     5:
     0.384,0.439,0.228,0.641,0.000: // measure 1
2000
0000
0000
0000
,  // measure 2
3200
0000
0000
0000
,  // measure 3
0302
0000
0000
0000
,  // measure 4
0023
0000
0000
0000
,  // measure 5
2030
0000
0000
3010
,  // measure 6
0200
0000
0000
0310
,  // measure 7
0020
0000
0000
1030
,  // measure 8
2000
0000
0000
3100
,  // measure 9
0200
0000
0000
0301
,  // measure 10
0002
0000
0000
1003
,  // measure 11
2000
0000
0000
3001
,  // measure 12
0002
0000
0000
0103
,  // measure 13
2002
0000
0000
0000
,  // measure 14
0000
0000
3003
0000
,  // measure 15
2002
0000
0000
0000
,  // measure 16
3003
0000
0000
0000
2002
0000
0000
3003
,  // measure 17
2000
0000
0001
0000
,  // measure 18
0002
0000
0000
3003
,  // measure 19
0002
0000
1000
0000
,  // measure 20
2000
0000
0000
3003
,  // measure 21
0200
0000
0010
0000
,  // measure 22
0020
0000
0000
0330
,  // measure 23
2000
0000
0100
0000
,  // measure 24
0200
0000
0000
3300
,  // measure 25
0002
0000
0010
0000
,  // measure 26
0020
0000
0000
0033
,  // measure 27
2000
0000
0001
0000
,  // measure 28
0002
0000
0000
3003
,  // measure 29
0002
0000
0100
0000
,  // measure 30
0020
0000
0000
0033
,  // measure 31
2000
0000
0100
0000
,  // measure 32
0020
0000
0000
3030
,  // measure 33
1100
0000
0000
0000
,  // measure 34
0011
0000
0000
0000
,  // measure 35
0110
0000
0000
0000
,  // measure 36
1001
0000
0000
0000
,  // measure 37
1100
0000
0000
0000
,  // measure 38
0011
0000
0000
0000
,  // measure 39
0110
0000
0000
0000
,  // measure 40
1001
0000
0000
0000
,  // measure 41
2000
3001
0100
0100
,  // measure 42
0100
0000
1000
1000
,  // measure 43
0100
0000
0010
1000
,  // measure 44
0100
0000
0010
1000
,  // measure 45
0100
0000
2200
0000
,  // measure 46
0000
0000
0000
0000
,  // measure 47
3300
0000
0220
0000
,  // measure 48
0000
0000
0000
0000
,  // measure 49
0330
0000
0100
1000
,  // measure 50
0100
0000
0100
1000
,  // measure 51
0100
0000
0100
1000
,  // measure 52
0100
0000
0001
0010
,  // measure 53
0001
0000
0001
0010
,  // measure 54
0001
0000
0100
0001
,  // measure 55
0010
0000
0010
0001
,  // measure 56
0100
0000
0010
1000
,  // measure 57
0010
0000
0100
0001
,  // measure 58
0010
0000
0100
0001
,  // measure 59
0010
0000
0100
0001
,  // measure 60
0010
0000
0010
0001
,  // measure 61
0010
0000
0010
0001
,  // measure 62
0010
0000
0010
0001
,  // measure 63
0010
0000
0100
0001
,  // measure 64
0010
0000
0010
0001
,  // measure 65
1100
0000
0200
0300
,  // measure 66
2000
3000
0200
0300
,  // measure 67
0020
0030
1000
1000
,  // measure 68
1000
1001
2002
0000
,  // measure 69
0000
0000
3003
0000
;

//---------------dance-single - ----------------
#NOTES:
     dance-single:
     :
     Medium:
     7:
     0.539,0.634,0.342,0.427,0.000: // measure 1
2000
0000
3100
0000
,  // measure 2
0020
0000
0031
0000
,  // measure 3
2000
0000
3010
0000
,  // measure 4
0200
0000
0301
0000
,  // measure 5
1000
0100
2000
3000
,  // measure 6
0100
0010
0200
0300
,  // measure 7
0001
1000
0002
0003
,  // measure 8
1000
0010
2000
3000
,  // measure 9
0010
0100
0020
0030
,  // measure 10
1000
0010
0200
0300
,  // measure 11
0001
0100
0020
0030
,  // measure 12
1000
0100
0002
0003
,  // measure 13
2100
0100
0100
0100
,  // measure 14
3100
0110
0110
0000
,  // measure 15
0002
1000
1000
1000
,  // measure 16
1003
0000
0000
0000
0001
1000
0001
1000
,  // measure 17
0001
0000
0100
0000
0010
0000
0000
1001
,  // measure 18
0000
0000
0000
0000
,  // measure 19
0010
0000
1000
0000
0001
0000
0000
0110
,  // measure 20
0000
0000
0000
0000
,  // measure 21
1000
0000
1000
0000
1000
0000
0000
0101
,  // measure 22
0000
0000
0000
0000
,  // measure 23
0001
0000
1000
0000
0010
0000
0000
0110
,  // measure 24
0000
0000
0000
0000
,  // measure 25
0010
0000
0010
0000
0010
0000
0000
1010
,  // measure 26
0000
0000
0000
0000
,  // measure 27
1000
0000
0001
0000
0100
0000
0000
1010
,  // measure 28
0000
0000
0000
0000
,  // measure 29
0001
0000
1000
0000
0010
0000
0000
0101
,  // measure 30
0000
0000
0000
0000
,  // measure 31
1000
0000
0100
0000
1000
0000
0000
1001
,  // measure 32
0000
0000
0000
0000
,  // measure 33
2000
0001
3001
0000
,  // measure 34
0020
0100
0130
0000
,  // measure 35
2000
0100
3010
0000
,  // measure 36
0002
1000
0103
0000
,  // measure 37
1002
1000
1003
0000
,  // measure 38
2010
0010
3010
0000
,  // measure 39
0102
0100
0103
0000
,  // measure 40
2010
0010
3010
0000
,  // measure 41
1001
1001
1000
1000
,  // measure 42
1000
0001
0001
0001
,  // measure 43
1000
0100
0010
0001
,  // measure 44
1000
0100
0010
0001
,  // measure 45
1000
0010
2000
0001
,  // measure 46
0001
0001
0001
0001
,  // measure 47
3001
0000
1020
1000
,  // measure 48
1000
1000
1000
0000
,  // measure 49
1030
0000
1000
0001
,  // measure 50
1000
0001
1000
0001
,  // measure 51
1000
0001
1000
0001
,  // measure 52
1000
0001
0100
0010
,  // measure 53
0100
0010
0100
0010
,  // measure 54
0100
0010
1000
0100
,  // measure 55
0010
0001
0010
0100
,  // measure 56
1000
0100
0010
0001
,  // measure 57
0010
0100
1000
0100
,  // measure 58
0010
0100
1000
0100
,  // measure 59
0010
0100
1000
0100
,  // measure 60
0010
0001
0010
0100
,  // measure 61
0010
0001
0010
0100
,  // measure 62
0010
0100
0010
0100
,  // measure 63
0010
0100
1000
0100
,  // measure 64
0010
0001
0010
0100
,  // measure 65
1001
0000
2000
3001
,  // measure 66
0002
0013
2000
3100
,  // measure 67
0020
0130
1001
1100
,  // measure 68
0011
1010
2002
0000
,  // measure 69
0000
0000
3003
0000
;

//---------------dance-single - ----------------
#NOTES:
     dance-single:
     :
     Hard:
     10:
     0.785,0.878,0.327,0.214,0.014: // measure 1
1000
0100
0010
0001
,  // measure 2
1000
0100
0220
0330
,  // measure 3
1000
0001
1000
0001
,  // measure 4
0200
0310
2002
3003
,  // measure 5
1000
0000
0100
0000
0010
0100
0000
0100
,  // measure 6
0010
0000
1000
0000
0100
0010
0000
0010
,  // measure 7
0100
0000
0001
0000
1000
0010
0000
0100
,  // measure 8
0010
0000
1000
0000
0001
0010
0000
0100
,  // measure 9
0001
0000
0100
0000
1000
0010
0000
0100
,  // measure 10
0010
0000
0010
0000
1000
0100
0000
0010
,  // measure 11
1000
0000
0010
0000
0100
0010
0000
0010
,  // measure 12
0100
0010
0100
0010
,  // measure 13
1000
0001
1000
0001
1000
0001
1000
0001
,  // measure 14
1000
0001
1000
0000
1000
0000
0000
0000
,  // measure 15
0001
1000
0001
1000
0001
1000
0001
1000
,  // measure 16
0001
0000
0000
0000
0000
0000
0000
0000
0001
0010
0001
0000
0001
0010
0001
0000
,  // measure 17
0110
0000
1000
0100
0010
0000
0001
0200
,  // measure 18
0000
0000
0000
0300
,  // measure 19
0110
0000
0001
1000
0001
0000
0100
0020
,  // measure 20
0000
0000
0000
0030
,  // measure 21
1100
0000
0010
0001
0010
0000
0001
0200
,  // measure 22
0000
0000
0000
0300
,  // measure 23
1001
0000
0100
0001
0010
0000
1000
0020
,  // measure 24
0000
0000
0000
0030
,  // measure 25
1010
0000
0100
0010
1000
0000
0001
0020
,  // measure 26
0000
0000
0000
0030
,  // measure 27
1010
0000
0001
0100
0001
0000
0010
2000
,  // measure 28
0000
0000
0000
3000
,  // measure 29
0110
0000
1000
0001
1000
0000
0001
0020
,  // measure 30
0000
0000
0000
0030
,  // measure 31
0101
0000
0010
0001
1000
0000
0100
2000
,  // measure 32
0000
0000
0000
3000
,  // measure 33
1000
0010
1000
0010
1000
0000
0000
0000
,  // measure 34
0001
0100
0001
0100
0001
0000
0000
0000
,  // measure 35
1000
0100
1000
0100
1000
0000
0000
0000
,  // measure 36
0001
0010
0001
0010
0001
0000
0000
0000
,  // measure 37
0100
0010
0100
0010
0100
0000
0000
0000
,  // measure 38
0010
0100
0010
0100
0010
0000
0000
0000
,  // measure 39
1000
0001
1000
0001
1000
0000
0000
0000
,  // measure 40
0100
0010
0100
0010
0100
0000
0000
0000
,  // measure 41
1001
0000
0110
0000
1000
0100
1000
0100
,  // measure 42
1000
0000
0001
0100
0001
0100
0001
0000
,  // measure 43
1000
0100
0010
0001
1000
0100
0010
0001
,  // measure 44
1000
0100
0010
0001
1000
0100
0010
0001
,  // measure 45
1000
0100
0010
0001
1001
0000
0100
0000
,  // measure 46
0010
0100
0010
0100
,  // measure 47
1001
0000
1010
0100
,  // measure 48
0010
0001
0110
0000
,  // measure 49
0110
0000
0000
0000
1000
0100
1000
0100
,  // measure 50
1000
0100
1000
0100
0010
0001
0010
0001
,  // measure 51
0010
0001
0010
0001
0100
0010
0100
0010
,  // measure 52
0100
0010
0100
0010
1000
0100
0010
0001
,  // measure 53
1000
0010
0100
0001
1000
0010
1000
0010
,  // measure 54
1000
0010
1000
0010
0100
0001
0100
0001
,  // measure 55
0100
0001
0100
0001
1000
0001
1000
0001
,  // measure 56
1000
0001
1000
0001
1000
0001
1000
0001
,  // measure 57
1001
0000
0000
0000
0010
0001
0010
0001
,  // measure 58
0010
0001
0010
0001
1000
0100
1000
0100
,  // measure 59
1000
0100
1000
0100
0010
0100
0010
0100
,  // measure 60
0010
0100
0010
0100
0001
1000
0001
1000
,  // measure 61
0001
1000
0001
1000
0010
0100
0010
0100
,  // measure 62
0010
0100
0010
0100
1000
0001
1000
0001
,  // measure 63
1000
0001
1000
0001
0100
0010
0100
0010
,  // measure 64
1000
0100
0010
0001
1000
0100
0010
0100
,  // measure 65
1000
0000
0011
0000
,  // measure 66
1100
0000
0110
0000
,  // measure 67
1001
0000
0000
0000
1000
0100
0010
0001
,  // measure 68
1000
0010
0100
0001
2002
0000
0000
0000
,  // measure 69
0000
0000
3003
0000
;

//---------------dance-single - ----------------
#NOTES:
     dance-single:
     :
     Beginner:
     3:
     0.266,0.390,0.370,0.484,0.000: // measure 1
0200
0000
0000
0000
,  // measure 2
0000
0000
0000
0000
,  // measure 3
2300
0000
0000
0000
,  // measure 4
0000
0000
0000
0000
,  // measure 5
3200
0000
0000
0000
,  // measure 6
0000
0000
0000
0000
,  // measure 7
0320
0000
0000
0000
,  // measure 8
0000
0000
0000
0000
,  // measure 9
0032
0000
0000
0000
,  // measure 10
0000
0000
0000
0000
,  // measure 11
0203
0000
0000
0000
,  // measure 12
0000
0000
0000
0300
,  // measure 13
1100
0000
0000
0000
,  // measure 14
0000
0000
0000
0000
,  // measure 15
1100
0000
0000
0000
,  // measure 16
0000
0000
0011
0000
,  // measure 17
2200
0000
0000
0000
,  // measure 18
0000
0000
0000
3300
,  // measure 19
2200
0000
0000
0000
,  // measure 20
0000
0000
0000
3300
,  // measure 21
0022
0000
0000
0000
,  // measure 22
0000
0000
0000
0033
,  // measure 23
0202
0000
0000
0000
,  // measure 24
0000
0000
0000
0303
,  // measure 25
2020
0000
0000
0000
,  // measure 26
0000
0000
0000
3030
,  // measure 27
2200
0000
0000
0000
,  // measure 28
0000
0000
0000
3300
,  // measure 29
2020
0000
0000
0000
,  // measure 30
0000
0000
0000
3030
,  // measure 31
0220
0000
0000
0000
,  // measure 32
0000
0000
0000
0330
,  // measure 33
0101
0000
0000
0000
,  // measure 34
1010
0000
0000
0000
,  // measure 35
0011
0000
0000
0000
,  // measure 36
1100
0000
0000
0000
,  // measure 37
0101
0000
0000
0000
,  // measure 38
1010
0000
0000
0000
,  // measure 39
0011
0000
0000
0000
,  // measure 40
1100
0000
0000
0000
,  // measure 41
2200
3300
0001
0000
,  // measure 42
0001
0000
0100
0000
,  // measure 43
0001
0000
0010
0000
,  // measure 44
0001
0000
0010
0000
,  // measure 45
0001
0000
0202
0000
,  // measure 46
0000
0000
0000
0000
,  // measure 47
0303
0000
0022
0000
,  // measure 48
0000
0000
0000
0000
,  // measure 49
0033
0000
0001
0000
,  // measure 50
0001
0000
0001
0000
,  // measure 51
0001
0000
0001
0000
,  // measure 52
0001
0000
1000
0000
,  // measure 53
1000
0000
1000
0000
,  // measure 54
1000
0000
0001
0000
,  // measure 55
0010
0000
0010
0000
,  // measure 56
0001
0000
0010
0000
,  // measure 57
0010
0000
0001
0000
,  // measure 58
0010
0000
0001
0000
,  // measure 59
0010
0000
0001
0000
,  // measure 60
0010
0000
0010
0000
,  // measure 61
0010
0000
0010
0000
,  // measure 62
0010
0000
0010
0000
,  // measure 63
0010
0000
0001
0000
,  // measure 64
0010
0000
0010
0000
,  // measure 65
0101
0000
2200
0000
,  // measure 66
0000
0000
0000
0000
,  // measure 67
0000
3300
2200
0000
,  // measure 68
0000
3300
2002
0000
,  // measure 69
0000
0000
3003
0000
;
