#TITLE:DROP OUT;
#SUBTITLE:(DEATH MIX);
#ARTIST:NW260 (remixed by pn0y);
#TITLETRANSLIT:;
#SUBTITLETRANSLIT:;
#ARTISTTRANSLIT:;
#CREDIT:;
#BANNER:DROP OUT DEATH MIX.png;
#BACKGROUND:DROP OUT DEATH MIX-bg.png;
#LYRICSPATH:;
#CDTITLE:kykaCD.png;
#MUSIC:DROP OUT DEATH MIX.mp3;
#OFFSET:-0.060;
#SAMPLESTART:42.440;
#SAMPLELENGTH:12.000;
#SELECTABLE:YES;
#BPMS:0.000=300.000,380.000=150.000,384.000=300.000;
#STOPS:448.000=1.000
;
#BGCHANGES:;

//---------------dance-single - ----------------
#NOTES:
     dance-single:
     :
     Challenge:
     11:
     0.969,1.000,0.870,0.276,0.011: // measure 1
0000
0000
0000
0000
,  // measure 2
0000
0000
0000
0000
,  // measure 3
0000
0000
0000
0000
,  // measure 4
0000
0000
0000
0000
,  // measure 5
0000
0000
0000
0000
,  // measure 6
1000
0000
0010
1000
0010
0000
0100
0001
,  // measure 7
0000
0000
0000
0000
,  // measure 8
1000
0000
0100
0010
0100
0000
1000
0001
,  // measure 9
0000
0000
0000
0000
,  // measure 10
1000
0000
0001
1000
0010
0000
0100
0001
,  // measure 11
0000
0000
0000
0000
,  // measure 12
1000
0000
0010
0100
0001
0000
1000
0100
,  // measure 13
0000
0000
0000
0000
,  // measure 14
1000
0000
0001
1000
0001
0000
0000
0000
,  // measure 15
1000
0100
1000
0010
0100
0010
1000
0001
,  // measure 16
0100
0000
0001
1000
0001
0000
0000
0000
,  // measure 17
0010
0001
0010
0100
0010
0001
1000
0001
,  // measure 18
1000
0000
0010
1000
0100
0000
0000
0000
,  // measure 19
0010
0001
0010
0001
1000
0100
1000
0100
,  // measure 20
0010
0000
0001
1000
0010
0000
0000
0000
,  // measure 21
0100
0010
0100
0010
0100
0010
0100
0010
,  // measure 22
0100
0000
0000
1001
0000
0000
1100
0000
,  // measure 23
1010
0000
0000
0000
,  // measure 24
1001
0000
0000
0101
0000
0000
1001
0000
,  // measure 25
1100
0000
0000
0000
,  // measure 26
1001
0000
1100
1001
,  // measure 27
0101
0000
0000
1001
0000
0000
1001
0000
,  // measure 28
0101
0000
1100
1010
,  // measure 29
1001
0000
0000
1100
0000
0000
1010
0000
,  // measure 30
1001
0000
1100
1010
,  // measure 31
0011
0000
0000
0110
0000
0000
1100
0000
,  // measure 32
1001
0000
1100
1001
,  // measure 33
0101
0000
0000
1001
0000
0000
1100
0000
,  // measure 34
0001
0010
0001
0010
0100
1000
0100
1000
,  // measure 35
0001
0100
0010
1000
0100
1000
0010
0100
,  // measure 36
0001
1000
0001
0100
0001
0010
0001
1000
,  // measure 37
0001
0100
0010
0000
1001
0000
0000
0000
,  // measure 38
1100
1000
0010
0100
,  // measure 39
0110
0010
1000
0001
,  // measure 40
0101
0100
0001
1000
,  // measure 41
1100
0100
1000
0010
,  // measure 42
1000
0001
0100
0001
0010
0001
0100
0010
,  // measure 43
1000
0100
1000
0010
1000
0010
0100
0001
,  // measure 44
1000
0010
0100
0001
,  // measure 45
1000
0001
0100
0001
,  // measure 46
0010
0001
1000
0100
1000
0010
0100
0010
,  // measure 47
1000
0001
0100
0001
0010
0001
0100
0001
,  // measure 48
1000
0100
1000
0010
,  // measure 49
0100
0001
0010
0001
,  // measure 50
0100
0001
1000
0100
,  // measure 51
1000
0010
0100
0010
,  // measure 52
1000
0001
1000
0001
,  // measure 53
0100
0001
1000
0001
,  // measure 54
2002
0000
0000
3003
,  // measure 55
1000
0010
1000
0010
1000
0010
1000
0010
,  // measure 56
1000
0001
0100
0001
,  // measure 57
1000
0010
0100
0001
,  // measure 58
1001
0100
1000
0010
,  // measure 59
1000
0001
0100
0001
,  // measure 60
0011
0001
1000
0100
,  // measure 61
1000
0010
0100
0010
,  // measure 62
1010
0010
0100
0001
,  // measure 63
1000
0001
1000
0010
,  // measure 64
1010
0101
1010
0101
,  // measure 65
2001
3001
1002
1000
,  // measure 66
1000
1000
1000
1000
,  // measure 67
1003
0110
0010
1100
,  // measure 68
0011
1100
0011
1100
,  // measure 69
0201
0301
2001
0001
,  // measure 70
0001
0001
0001
0001
,  // measure 71
3001
0110
0010
1010
,  // measure 72
1001
0110
1001
0110
,  // measure 73
2001
3001
0120
0100
,  // measure 74
0100
0100
0100
0100
,  // measure 75
0130
1001
0001
1001
,  // measure 76
1010
1100
0011
0101
,  // measure 77
2001
3001
2100
0100
,  // measure 78
0100
0100
0100
0100
,  // measure 79
3100
1010
0010
0101
,  // measure 80
0001
0010
0001
0010
0100
1000
0100
1000
,  // measure 81
0010
0100
0010
0100
0001
1000
0001
1000
,  // measure 82
0001
0010
0001
0010
0100
0010
0100
0010
,  // measure 83
0001
1000
0001
1000
0010
1000
0010
1000
,  // measure 84
0010
0100
0010
0100
0010
1000
0010
1000
,  // measure 85
0001
1000
0001
1000
0001
0010
0001
0010
,  // measure 86
0100
1000
0100
1000
0010
0100
0010
0100
,  // measure 87
0010
1000
0010
1000
0001
1000
0001
1000
,  // measure 88
0001
0100
0001
0000
2002
0000
0000
0000
,  // measure 89
0000
0000
0000
3003
,  // measure 90
1000
0100
1000
0000
2020
0000
0000
0000
,  // measure 91
0000
0000
0000
3030
,  // measure 92
0010
0100
0010
0000
0220
0000
0000
0000
,  // measure 93
0000
0000
0000
0330
,  // measure 94
1000
0001
0010
0000
0202
0000
0000
0000
,  // measure 95
0000
0000
0000
0303
,  // measure 96
1001
0000
0000
0000
1100
0000
0000
0000
0001
1000
0001
1000
0020
0000
0230
0000
,  // measure 97
0301
0010
0001
0010
0100
1000
0100
1000
,  // measure 98
0010
0100
0010
0100
0001
1000
0001
1000
,  // measure 99
0001
0010
0001
0010
0100
0010
0100
0010
,  // measure 100
0001
1000
0001
1000
0010
1000
0010
1000
,  // measure 101
0010
0100
0010
0100
0010
1000
0010
1000
,  // measure 102
0001
1000
0001
1000
0001
0010
0001
0010
,  // measure 103
0200
0000
1000
0300
2000
0000
0100
3000
,  // measure 104
0010
0100
0010
1000
0002
0000
2003
0000
,  // measure 105
3001
1000
0010
0100
0010
1000
0100
1000
,  // measure 106
0010
0100
0001
0010
0001
0010
0100
1000
,  // measure 107
0001
0100
0010
1000
0100
1000
0010
0100
,  // measure 108
0010
1000
0001
0100
0001
0010
0001
0100
,  // measure 109
0010
1000
0100
1000
0010
0100
0001
1000
,  // measure 110
0001
1000
0100
1000
0010
0100
0010
1000
,  // measure 111
0001
0100
0001
0010
0001
1000
0100
1000
,  // measure 112
0010
0100
0010
1000
0100
1000
0001
0100
,  // measure 113
2002
3003
0000
0000
0000
0000
0000
0000
1100
0000
0000
0000
0011
0000
0000
0000
,  // measure 114
1001
0000
0000
0000
;

//---------------dance-single - ----------------
#NOTES:
     dance-single:
     :
     Hard:
     10:
     0.867,1.000,0.531,0.308,0.011:
0000
0000
0000
0000
,
0000
0000
0000
0000
,
0000
0000
0000
0000
,
0000
0000
0000
0000
,
0000
0000
0000
0000
,
1000
0000
0100
1000
0100
0000
0000
0011
,
0000
0000
0000
0000
,
1000
0000
0010
0100
0010
0000
0000
1001
,
0000
0000
0000
0000
,
0010
0000
1000
0001
1000
0000
0000
0101
,
0000
0000
0000
0000
,
1000
0000
0001
0100
0001
0000
0000
1100
,
0000
0000
0000
0000
,
1001
0000
0010
1000
0010
0000
0000
0000
,
1000
0100
1000
0100
1000
0100
1000
0100
,
1000
0000
0010
0100
0010
0000
0000
0000
,
1000
0001
1000
0001
1000
0001
1000
0001
,
1000
0000
0001
0010
0001
0000
0000
0000
,
0100
0010
0100
0010
0100
0010
0100
0010
,
0100
0000
0001
1000
0001
0000
0000
0000
,
1000
0100
1000
0100
1000
0100
1000
0100
,
1000
0000
0000
0001
0000
0000
1000
0000
,
1100
0000
0000
0000
,
1001
0000
0000
1000
0000
0000
0010
0000
,
1010
0000
0000
0000
,
1001
0000
1000
0100
,
1100
0000
0000
0110
0000
0000
1001
0000
,
0101
0000
1000
0010
,
0110
0000
0000
1001
0000
0000
1100
0000
,
1010
0000
1000
0001
,
0101
0000
0000
1001
0000
0000
1100
0000
,
1010
0000
1000
0001
,
0011
0000
0000
0101
0000
0000
1001
0000
,
1000
0100
1000
0100
1000
0100
1000
0100
,
0010
0001
0010
0001
0010
0001
0010
0001
,
0100
0010
0100
0010
0100
0010
0100
0010
,
0100
0010
0100
0000
0110
0000
0000
0000
,
1000
0010
0100
0001
,
0010
0001
0100
0001
,
1000
0100
1000
0010
,
0100
0001
1000
0001
,
1000
0010
1000
0010
0100
0010
0100
0010
,
0100
0001
0100
0001
1000
0001
1000
0001
,
1000
0001
0100
0001
,
0100
0010
1000
0001
,
1000
0100
1000
0100
0010
0001
0010
0001
,
1000
0001
1000
0001
0100
0010
0100
0010
,
1000
0010
0100
0001
,
0010
0001
0100
0001
,
1000
0100
1000
0010
,
0100
0001
0100
0010
,
1000
0100
0010
0001
,
0100
0001
1000
0001
,
0220
0000
0000
0330
,
0010
0001
0010
0001
0010
0001
0010
0001
,
0010
0001
1000
0001
,
0100
0001
0010
0001
,
0100
0010
1000
0100
,
1000
0010
0100
0001
,
0010
0001
0100
0001
,
1000
0100
1000
0010
,
0100
0010
1000
0001
,
0100
0001
0010
0001
,
1000
0010
0100
0001
,
2002
3003
2200
0000
,
0000
0000
0000
0000
,
3300
0110
0000
1001
,
0001
0010
0100
1000
,
0220
0330
2002
0000
,
0000
0000
0000
0000
,
3003
1100
0000
0011
,
0100
0001
0010
0001
,
2002
3003
0022
0000
,
0000
0000
0000
0000
,
0033
0101
0000
1010
,
1000
0010
0100
0010
,
2200
3300
0022
0000
,
0000
0000
0000
0000
,
0033
1001
0000
1001
,
1000
0001
1000
0001
1000
0001
1000
0001
,
1000
0001
1000
0001
1000
0001
1000
0001
,
0100
0010
0100
0010
0100
0010
0100
0010
,
0100
0010
0100
0010
0100
0010
0100
0010
,
1000
0100
1000
0100
1000
0100
1000
0100
,
1000
0100
1000
0100
1000
0100
1000
0100
,
0010
0001
0010
0001
0010
0001
0010
0001
,
0010
0001
0010
0001
0010
0001
0010
0001
,
1000
0100
1000
0000
2002
0000
0000
0000
,
0000
0000
0000
3003
,
0100
0010
0100
0000
2002
0000
0000
0000
,
0000
0000
0000
3003
,
0001
1000
0001
0000
2200
0000
0000
0000
,
0000
0000
0000
3300
,
0010
0100
0010
0000
0220
0000
0000
0000
,
0000
0000
0000
0330
,
1001
0000
0000
0000
1001
0000
0000
0000
1000
0100
1000
0100
1000
0000
0010
0000
,
1000
0001
1000
0001
1000
0001
1000
0001
,
1000
0001
1000
0001
1000
0001
1000
0001
,
0100
0010
0100
0010
0100
0010
0100
0010
,
0100
0010
0100
0010
0100
0010
0100
0010
,
1000
0100
1000
0100
1000
0100
1000
0100
,
1000
0100
1000
0100
1000
0100
1000
0100
,
0010
0000
1001
0000
,
1000
0001
0100
0001
0020
0000
0032
0000
,
1003
0001
1000
0001
1000
0001
1000
0001
,
1000
0001
1000
0001
1000
0001
1000
0001
,
0100
0010
0100
0010
0100
0010
0100
0010
,
0100
0010
0100
0010
0100
0010
0100
0010
,
1000
0100
1000
0100
1000
0100
1000
0100
,
1000
0100
1000
0100
1000
0100
1000
0100
,
0010
0001
0010
0001
0010
0001
0010
0001
,
0010
0100
0010
0100
0010
0100
0010
0100
,
0020
0000
0100
0130
,
1001
0000
0000
0000
;

//---------------dance-single - ----------------
#NOTES:
     dance-single:
     :
     Medium:
     8:
     0.593,0.659,0.329,0.191,0.000:
0000
0000
0000
0000
,
0000
0000
0000
0000
,
0000
0000
0000
0000
,
0000
0000
0000
0000
,
0000
0000
0000
0000
,
1000
0000
0010
0000
1000
0000
0000
1001
,
0000
0000
0000
0000
,
0001
0000
1000
0000
0001
0000
0000
1100
,
0000
0000
0000
0000
,
0010
0000
1000
0000
0001
0000
0000
1001
,
0000
0000
0000
0000
,
1000
0000
0001
0000
0100
0000
0000
1001
,
0000
0000
0000
0000
,
1000
0010
1000
0000
,
0001
1000
0100
1000
,
0010
0100
0010
0000
,
1000
0001
0100
0001
,
0010
0001
1000
0000
,
0100
1000
0010
0100
,
0010
1000
0001
0000
,
1000
0100
1000
0010
,
1000
0000
0000
1000
0000
0000
1000
0000
,
0001
0000
0000
0000
,
0100
0000
0000
0100
0000
0000
0100
0000
,
0010
0000
0000
0000
,
1000
0000
0001
1000
,
0001
0000
0000
1000
0000
0000
0010
0000
,
0100
0000
0010
1000
,
0001
0000
0000
0010
0000
0000
0001
0000
,
0100
0000
0010
1000
,
0001
0000
0000
0010
0000
0000
0100
0000
,
1000
0000
0010
0100
,
0001
0000
0000
1000
0000
0000
0001
0000
,
1000
0001
0100
0001
,
1000
0100
1000
0010
,
0100
0001
1000
0001
,
0100
1001
1010
0000
,
0100
0001
0100
0000
,
0010
1000
0010
0000
,
1000
0100
1000
0000
,
0001
0100
0001
0000
,
1000
0100
1000
0000
0010
0100
0010
0000
,
1000
0001
1000
0000
0001
0100
0001
0000
,
1000
0100
1000
0010
,
0100
0001
1000
0001
,
1000
0010
1000
0000
0010
0100
0010
0000
,
1000
0100
1000
0000
0001
0100
0001
0000
,
1000
0010
0100
0001
,
1000
0100
1000
0010
,
0100
0001
0010
0001
,
0100
0010
1000
0100
,
1000
0010
0100
0001
,
1000
0001
0100
0001
,
2002
0000
0000
3003
,
1000
0010
1000
0000
0010
1000
0010
0000
,
1000
0010
0100
0010
,
1000
0100
1000
0010
,
0100
0001
0010
0001
,
0100
0001
1000
0010
,
0100
0001
1000
0100
,
1000
0010
0100
0001
,
1000
0100
1000
0010
,
0100
0001
1000
0001
,
1000
0100
1000
0010
,
0200
0000
0020
0000
,
0000
0000
0000
0000
,
0330
1001
0000
1001
,
1000
0100
1000
0010
,
0200
0000
0002
0000
,
0000
0000
0000
0000
,
0303
1001
0000
0101
,
0001
1000
0100
1000
,
0020
0000
0200
0000
,
0000
0000
0000
0000
,
0330
1001
0000
0110
,
1000
0100
0010
0001
,
0200
0000
0020
0000
,
0000
0000
0000
0000
,
0330
1001
0000
1001
,
1000
0100
1000
0010
,
0100
0001
0010
0001
,
0100
0001
1000
0100
,
1000
0010
0100
0010
,
1000
0001
0100
0001
,
0010
0001
0100
0001
,
1000
0100
1000
0010
,
0100
0001
1000
0001
,
1000
0001
2002
0000
,
0000
0000
0000
3003
,
0100
0010
2020
0000
,
0000
0000
0000
3030
,
0001
1000
2002
0000
,
0000
0000
0000
3003
,
1000
0001
0202
0000
,
0000
0000
0000
0303
,
1001
0000
1001
0000
1000
0100
1000
0001
,
1000
0001
0100
0001
,
0010
0001
0100
0001
,
1000
0100
1000
0010
,
0100
0010
1000
0001
,
1000
0001
0100
0001
,
0010
0001
0100
0001
,
1001
0000
1001
0000
,
1000
0001
1000
0001
,
0100
0010
1000
0100
,
1000
0010
0100
0001
,
1001
0000
0110
0000
,
1000
0100
1000
0010
,
0100
0001
1000
0001
,
0100
0001
0100
0001
,
1001
0000
1100
0000
,
0010
1000
0010
0100
,
0110
0000
1001
1001
,
1001
0000
0000
0000
;

//---------------dance-single - ----------------
#NOTES:
     dance-single:
     :
     Easy:
     5:
     0.430,0.540,0.223,0.297,0.000:
0000
0000
0000
0000
,
0000
0000
0000
0000
,
0000
0000
0000
0000
,
0000
0000
0000
0000
,
0000
0000
0000
0000
,
1000
0100
1000
0000
,
0001
0000
0000
0000
,
0100
0010
1000
0000
,
0001
0000
0000
0000
,
0100
0001
1000
0000
,
0100
0000
0000
0000
,
0010
0001
1000
0000
,
0010
0000
0000
0000
,
1000
0001
1000
0000
,
0001
0000
0100
0000
,
0001
0010
0001
0000
,
1000
0000
0100
0000
,
1000
0010
0100
0000
,
0001
0000
0100
0000
,
0010
1000
0100
0000
,
0010
0000
0001
0000
,
1000
0000
0000
0001
,
0100
0000
0000
0000
,
0010
0000
0000
1000
,
0100
0000
0000
0000
,
1000
0000
0010
0100
,
0010
0000
1000
0100
,
1000
0000
0001
0100
,
0001
0000
1000
0100
,
1000
0000
0010
0100
,
0010
0000
1000
0100
,
1000
0000
0001
0100
,
0001
0000
1000
0001
,
1000
0000
0010
0000
,
0100
0000
0001
0000
,
1000
0000
0001
0000
,
1000
0001
1001
0000
,
2000
0000
3010
0000
,
0200
0000
0301
0000
,
2000
0000
3001
0000
,
0200
0000
0301
0000
,
2000
0000
3002
0000
,
0203
0000
0320
0000
,
2030
0000
3001
0000
,
0200
0000
0301
0000
,
0020
0000
0032
0000
,
2003
0000
3020
0000
,
1030
0000
0000
0001
,
0100
0000
0000
0010
,
1000
0000
0000
0100
,
1000
0000
0000
0010
,
0100
0000
0000
0001
,
1000
0000
0000
0001
,
2002
0000
0000
3003
,
1000
0100
1000
0010
,
0200
0000
0301
0000
,
1000
0000
0100
1000
,
0020
0000
0130
0000
,
0001
0000
0010
0001
,
0200
0000
0310
0000
,
1000
0000
0100
1000
,
0002
0000
1003
0000
,
0010
0000
0100
0000
,
0001
0000
1000
0100
,
2000
0000
3020
0000
,
0000
0000
0000
0000
,
0000
1030
0000
0001
,
1000
0000
0001
0100
,
0002
0000
2003
0000
,
0000
0000
0000
0000
,
0000
3010
0000
0100
,
0001
0000
1000
0100
,
2000
0000
3002
0000
,
0000
0000
0000
0000
,
0000
0103
0000
0001
,
1000
0000
0100
0010
,
0002
0000
2003
0000
,
0000
0000
0000
0000
,
0000
3010
0000
0010
,
0100
0000
0001
0000
,
1000
0000
0010
0100
,
0010
0000
1000
0000
,
0001
0000
1000
0100
,
1000
0000
0001
0000
,
0100
0000
0001
0010
,
0001
0000
1000
0000
,
0100
0000
1000
0010
,
1000
0110
0110
0000
,
0000
0000
0000
0000
,
1000
1001
1001
0000
,
0000
0000
0000
0000
,
0001
1100
1100
0000
,
0000
0000
0000
0000
,
0001
0101
0101
0000
,
0000
0000
0000
0000
,
1001
0000
1001
0000
1000
0000
0010
0100
,
0010
0000
1000
0000
,
0001
0000
0100
0000
,
0001
0000
1000
0000
,
0100
0000
1000
0000
,
0010
0000
0100
0000
,
0001
0000
1000
0000
,
1001
0000
1001
0000
,
1001
0000
0001
1000
,
0001
0000
1000
0000
,
0100
0000
1000
0000
,
1100
0000
1100
0000
,
1100
0000
0010
0001
,
0010
0000
0001
0000
,
1000
0000
0001
0000
,
1001
0000
1001
0000
,
1001
0000
0100
0010
,
0100
0000
0010
1000
,
0010
0000
0000
0000
;

//---------------dance-single - ----------------
#NOTES:
     dance-single:
     :
     Beginner:
     3:
     0.179,0.300,0.032,0.095,0.000:
0000
0000
0000
0000
,
0000
0000
0000
0000
,
0000
0000
0000
0000
,
0000
0000
0000
0000
,
0000
0000
0000
0000
,
1000
0000
0000
0000
,
0000
0000
0000
0000
,
0001
0000
0000
0000
,
0000
0000
0000
0000
,
0100
0000
0000
0000
,
0000
0000
0000
0000
,
0010
0000
0000
0000
,
0000
0000
0000
0000
,
1000
0000
0000
0000
,
0001
0000
0000
0000
,
1000
0000
0000
0000
,
0001
0000
0000
0000
,
0100
0000
0000
0000
,
0010
0000
0000
0000
,
1000
0000
0000
0000
,
0001
0000
0000
0000
,
0200
0000
0000
0000
,
0000
0000
0000
0000
,
0320
0000
0000
0000
,
0000
0000
0000
0000
,
1030
0000
0000
0000
,
0001
0000
0000
0000
,
0100
0000
0000
0000
,
0001
0000
0000
0000
,
1000
0000
0000
0000
,
0010
0000
0000
0000
,
1000
0000
0000
0000
,
0001
0000
0000
0000
,
2000
0000
0000
0000
,
0000
0000
0000
0000
,
0000
0000
0000
0000
,
0000
0000
0000
0000
,
3001
0000
0000
0000
,
1000
0000
0000
0000
,
0010
0000
0000
0000
,
0100
0000
0000
0000
,
0010
0000
0010
0000
,
0010
0000
0010
0000
,
0010
0000
0000
0000
,
1000
0000
0000
0000
,
0001
0000
0001
0000
,
0001
0000
0001
0000
,
0001
0000
0000
0000
,
1000
0000
0000
0000
,
0100
0000
0000
0000
,
1000
0000
0000
0000
,
0010
0000
0000
0000
,
0100
0000
0000
0000
,
0020
0000
0000
0000
,
2030
0000
0000
0000
,
3002
0000
0000
0000
,
0000
0000
0000
0000
,
0023
0000
0000
0000
,
0000
0000
0000
0000
,
0230
0000
0000
0000
,
0000
0000
0000
0000
,
2300
0000
0000
0000
,
0000
0000
0000
0000
,
3001
0000
0000
0000
,
0100
0000
0100
0000
,
0000
0000
0000
0000
,
0010
0000
0000
0000
,
0010
0000
0000
0000
,
1000
0000
1000
0000
,
0000
0000
0000
0000
,
0001
0000
0000
0000
,
0100
0000
0000
0000
,
0010
0000
0010
0000
,
0000
0000
0000
0000
,
1000
0000
0000
0000
,
0001
0000
0000
0000
,
0100
0000
0100
0000
,
0000
0000
0000
0000
,
0010
0000
0000
0000
,
1000
0000
0000
0000
,
0001
0000
0000
0000
,
0100
0000
0000
0000
,
0001
0000
0000
0000
,
1000
0000
0000
0000
,
0100
0000
0000
0000
,
1000
0000
0000
0000
,
0010
0000
0000
0000
,
0100
0000
0100
0000
,
0000
0000
0000
0000
,
0010
0000
0010
0000
,
0000
0000
0000
0000
,
1000
0000
1000
0000
,
0000
0000
0000
0000
,
0001
0000
0001
0000
,
0000
0000
0000
0000
,
1001
0000
0110
0000
,
1000
0000
0000
0000
,
0001
0000
0000
0000
,
0100
0000
0000
0000
,
0010
0000
0000
0000
,
1000
0000
0000
0000
,
0001
0000
0000
0000
,
1000
0000
1000
0000
,
1000
0000
0000
0000
,
0001
0000
0000
0000
,
0100
0000
0000
0000
,
0010
0000
0010
0000
,
0010
0000
0000
0000
,
1000
0000
0000
0000
,
0001
0000
0000
0000
,
1000
0000
1000
0000
,
1000
0000
0000
0000
,
1001
0000
0001
0001
,
0001
0000
0000
0000
;
