#TITLE:Circus;
#SUBTITLE:;
#ARTIST:Curbi;
#TITLETRANSLIT:;
#SUBTITLETRANSLIT:;
#ARTISTTRANSLIT:;
#CREDIT:;
#BANNER:circus-bn.png;
#BACKGROUND:circus-bg.png;
#LYRICSPATH:;
#CDTITLE:kyka2016.png;
#MUSIC:Circus.mp3;
#OFFSET:-0.066;
#SAMPLESTART:53.370;
#SAMPLELENGTH:15.000;
#SELECTABLE:YES;
#BPMS:0.000=126.000;
#STOPS:;
#BGCHANGES:;

//---------------dance-single - ----------------
#NOTES:
     dance-single:
     :
     Challenge:
     10:
     0.761,0.822,0.378,0.019,0.980: // measure 1
0000
0000
0000
0000
,  // measure 2
0000
0000
0000
0000
,  // measure 3
0000
0000
0000
0000
,  // measure 4
0000
0000
0000
0000
,  // measure 5
0000
0000
0000
0001
0000
0000
1000
0000
0000
0010
0000
0000
1000
0000
0001
1000
0000
0001
1000
0000
0000
0010
0000
0000
,  // measure 6
0100
0000
0000
0010
0000
0000
0100
0000
0000
0001
0000
0000
1000
0000
0001
0010
0000
0001
0010
0000
0000
0001
0000
0000
,  // measure 7
1000
0000
0000
0001
0000
1000
0000
0000
0001
0100
0000
0001
0000
0000
1000
0001
0000
1000
0001
0000
0000
1000
0000
0000
,  // measure 8
0001
0000
0000
1000
0000
0001
0000
0000
1000
0001
0000
1000
0000
0000
0001
0100
0000
0001
1000
0000
0000
0001
0000
0000
,  // measure 9
0100
0000
0000
0010
0000
0100
0000
0000
0001
1000
0000
0001
0000
0000
0010
0001
0000
0100
0001
0000
0000
0010
0000
0000
,  // measure 10
0100
0000
0000
1000
0000
0001
0000
0000
0100
0010
0000
0100
0000
0000
0010
1000
0000
0010
0100
0000
0000
0001
0000
0000
,  // measure 11
0000
0000
0000
0001
0000
0100
0000
0000
0001
1000
0000
0001
0000
0000
0010
0100
0000
0010
0001
0000
0000
0100
0000
0000
,  // measure 12
0000
0000
0000
0010
0000
1000
0000
0000
0001
0100
0000
0001
0000
0000
0010
0001
0000
1000
0100
0000
0000
0010
0000
0000
,  // measure 13
0001
0000
0000
1000
0000
0100
0000
0000
0010
0001
0000
0100
0000
0000
0010
1000
0000
0001
0100
0000
0000
0001
0000
0000
,  // measure 14
1000
0000
0001
0100
0000
0010
0000
0000
0100
0010
0000
1000
0000
0000
0010
1000
0000
0001
1000
0000
0000
0010
0000
0000
,  // measure 15
1000
0000
0000
0001
0000
1000
0000
0000
0100
1000
0000
0010
0000
0000
1000
0001
0000
1000
0001
0000
0000
1000
0000
0000
,  // measure 16
0001
0000
1000
0001
0000
0100
0000
0000
0010
1000
0000
0001
0000
0000
0010
0001
0000
0010
0100
0000
0000
1000
0000
0001
,  // measure 17
0100
0000
0000
0010
0000
0100
0000
0000
0010
1000
0000
0001
0000
0000
0010
0001
0000
1000
0001
0000
0000
0100
0000
0000
,  // measure 18
0001
0000
1000
0001
0000
0100
0000
0000
0001
1000
0000
0010
0000
0000
0100
0010
0000
1000
0010
0000
0000
0100
0000
0000
,  // measure 19
0001
0000
0000
0100
0000
0010
0000
0000
1000
0001
0000
0010
0000
0000
0001
1000
0000
0001
0100
0000
0000
0001
0000
0000
,  // measure 20
0010
0000
0001
1000
0000
0001
0000
0000
0100
0001
0000
0100
0000
0000
0001
0010
0000
0100
1000
0000
0000
0001
0000
1000
,  // measure 21
0100
0000
0000
0010
0000
0001
0000
0000
0100
0001
0000
1000
0000
0000
0000
0001
0000
0100
0000
0000
0001
1000
0000
0001
,  // measure 22
0000
0000
0000
0100
0000
0010
0000
0000
1000
0001
0000
0010
0000
0000
0000
0100
0000
1000
0000
0000
0001
0100
0000
0001
,  // measure 23
0000
0000
0000
1000
0000
0001
0000
0000
0010
0100
0000
0010
0000
0000
0000
0001
0000
0010
0000
0000
0001
1000
0000
0001
,  // measure 24
0000
0000
0000
0100
0000
0010
0000
0000
1000
0001
0000
1000
0000
0000
0000
0010
0000
1000
0000
0000
0010
0100
0000
0001
,  // measure 25
0000
0000
0000
1010
0000
1010
0000
0000
0000
0101
0000
0101
0000
0000
0000
0110
0000
0110
0000
0000
0000
1010
0000
1010
,  // measure 26
0000
0000
0000
0101
0000
0101
0000
0000
0000
0011
0000
0011
0000
0000
0000
1100
0000
1100
0000
0000
0000
0110
0000
0110
,  // measure 27
0000
0000
0001
1000
0000
0001
0000
0000
0010
0001
0000
0010
0000
0000
0001
1000
0000
0001
0000
0000
0100
0001
0000
0100
,  // measure 28
0000
0000
0010
1000
0000
0010
0000
0000
0100
0010
0000
0100
0000
0000
0001
0010
0000
0001
1000
0000
0000
1001
0000
0000
,  // measure 29
0110
0000
0000
0000
0000
0000
1010
0000
0010
0100
0000
0000
0001
0000
0010
0001
0000
0100
0001
0000
0100
0010
0000
0000
,  // measure 30
1000
0000
0000
1010
0000
0000
0001
0000
0000
0110
0000
0000
0010
0000
0000
1000
0000
0001
0100
0000
0000
0001
0000
0000
,  // measure 31
1001
0000
0000
0000
0000
0000
0110
0000
0010
1000
0000
0000
0001
0000
0100
0010
0000
1000
0010
0000
0100
0010
0000
0000
,  // measure 32
1000
0000
0000
0011
0000
0000
1000
0000
0000
0101
0000
0000
1000
0000
0000
0010
0000
0100
0010
0000
0000
1001
0000
0000
,  // measure 33
0000
0000
0000
1001
0000
0000
0100
0000
0010
1000
0000
0000
0001
0000
0010
0001
0000
0100
0001
0000
1000
0010
0000
0000
,  // measure 34
1000
0000
0000
0100
0000
0000
0010
0000
0000
0100
0000
0000
1000
0000
0000
0001
0000
0010
0100
0000
0000
0010
0000
0000
,  // measure 35
0011
0000
0000
0000
0000
0000
1000
0000
0010
0100
0000
0000
0010
0000
1000
0001
0000
0100
0010
0000
1000
0001
0000
0000
,  // measure 36
1000
0000
0000
0010
0000
0000
0100
0000
0000
0001
0000
0000
0010
0000
0000
0001
0000
0100
0001
0000
0000
0010
0000
0000
,  // measure 37
1100
0000
0000
0000
0000
0000
0101
0000
0100
0010
0000
0000
1000
0000
0100
1000
0000
0010
1000
0000
0010
0100
0000
0000
,  // measure 38
0001
0000
0000
0101
0000
0000
1000
0000
0000
0110
0000
0000
0100
0000
0000
0001
0000
1000
0010
0000
0000
1000
0000
0000
,  // measure 39
1001
0000
0000
0000
0000
0000
0110
0000
0100
0001
0000
0000
1000
0000
0010
0100
0000
0001
0100
0000
0010
0100
0000
0000
,  // measure 40
0001
0000
0000
1100
0000
0000
0001
0000
0000
1010
0000
0000
0001
0000
0000
0100
0000
0010
0100
0000
0000
1000
0000
0000
,  // measure 41
1001
0000
0000
0000
0000
0000
0010
0000
0100
0001
0000
0000
1000
0000
0100
1000
0000
0010
1000
0000
0001
0100
0000
0000
,  // measure 42
0001
0000
0000
0010
0000
0000
0100
0000
0000
0010
0000
0000
0001
0000
0000
1000
0000
0100
0010
0000
0000
0100
0000
0000
,  // measure 43
1100
0000
0000
0000
0000
0000
0001
0000
0100
0010
0000
0000
0100
0000
0001
1000
0000
0010
0100
0000
0001
1000
0000
0000
,  // measure 44
0000
0000
0000
0001
0000
1000
0000
0000
0010
0100
0000
0010
1000
0000
0001
0010
0000
0001
0100
0000
0000
0010
0000
0000
,  // measure 45
1000
0000
0000
0000
0000
0000
0010
0000
0100
0010
0000
1000
0010
0000
0100
0001
0000
1000
0100
0000
0000
0010
0000
0000
,  // measure 46
0001
0000
0000
0000
0000
0000
1000
0000
0001
0100
0000
0001
0010
0000
0100
1000
0000
0010
0100
0000
0000
0001
0000
0000
,  // measure 47
0010
0000
0000
0000
0000
0000
0001
0000
0100
0010
0000
1000
0001
0000
0010
0001
0000
0100
0010
0000
0000
1000
0000
0000
,  // measure 48
0100
0000
0000
0000
0000
0000
0010
0000
0001
0100
0000
0001
0010
0000
0100
1000
0000
0001
0100
0000
0000
0001
0000
0000
,  // measure 49
1000
0000
0000
0000
0000
0000
0010
0000
0100
0010
0000
1000
0001
0000
0100
0001
0000
0010
0001
0000
0000
0100
0000
0000
,  // measure 50
0001
0000
0000
0000
0000
0000
0010
0000
0100
1000
0000
0010
0100
0000
0001
1000
0000
0010
1000
0000
0000
0001
0000
0000
,  // measure 51
0100
0000
0000
0000
0000
0000
0001
0000
0010
0001
0000
0100
0010
0000
1000
0001
0000
0100
0001
0000
0000
0010
0000
0000
,  // measure 52
0100
0000
0000
0000
0000
0000
1000
0000
0010
0100
0000
0001
1000
0000
0001
0100
0000
0010
1000
0000
0000
0001
0000
0000
,  // measure 53
2002
0000
0000
0000
,  // measure 54
3003
0000
0000
0000
;

//---------------dance-single - ----------------
#NOTES:
     dance-single:
     :
     Hard:
     10:
     0.676,0.617,0.010,0.019,0.970: // measure 1
0000
0000
0000
0000
,  // measure 2
0000
0000
0000
0000
,  // measure 3
0000
0000
0000
0000
,  // measure 4
0000
0000
0000
0000
,  // measure 5
0000
0000
0000
1000
0000
0000
0001
0000
0000
0100
0000
0000
0001
0000
1000
0001
0000
1000
0001
0000
0000
0100
0000
0000
,  // measure 6
0010
0000
0000
1000
0000
0000
0010
0000
0000
1000
0000
0000
0010
0000
0100
0001
0000
0100
0001
0000
0000
0100
0000
0000
,  // measure 7
0000
0000
0000
0010
0000
1000
0000
0000
0010
1000
0000
0010
0000
0000
0100
0010
0000
0100
0010
0000
0000
1000
0000
0000
,  // measure 8
0000
0000
0000
0001
0000
1000
0000
0000
0010
1000
0000
0010
0000
0000
1000
0010
0000
1000
0010
0000
0000
1000
0000
0000
,  // measure 9
0000
0000
0000
0001
0000
0100
0000
0000
0010
0100
0000
0010
0000
0000
1000
0010
0000
1000
0001
0000
0000
0100
0000
0000
,  // measure 10
0000
0000
0000
0010
0000
1000
0000
0000
0001
0100
0000
0001
0000
0000
0010
0001
0000
0100
0001
0000
0000
1000
0000
0000
,  // measure 11
0000
0000
0000
0001
0000
0100
0000
0000
0001
0010
0000
0001
0000
0000
0100
0010
0000
1000
0001
0000
0000
0100
0000
0000
,  // measure 12
0000
0000
0000
0010
0000
1000
0000
0000
0100
1000
0000
0010
0000
0000
0100
0010
0000
1000
0001
0000
0000
0100
0000
0000
,  // measure 13
0000
0000
0000
0010
0000
1000
0000
0000
0010
1000
0000
0010
0000
0000
0100
0001
0000
0100
0001
0000
0000
1000
0000
0000
,  // measure 14
0000
0000
1000
0001
0000
1000
0000
0000
0010
0100
0000
0001
0000
0000
0010
0001
0000
0100
0001
0000
0000
1000
0000
0000
,  // measure 15
0000
0000
0000
0010
0000
1000
0000
0000
0010
1000
0000
0001
0000
0000
0100
0001
0000
0100
0010
0000
0000
1000
0000
0000
,  // measure 16
0000
0000
1000
0010
0000
1000
0000
0000
0001
0100
0000
0001
0000
0000
0100
0001
0000
0100
0010
0000
0000
1000
0000
0000
,  // measure 17
0000
0000
0000
0010
0000
1000
0000
0000
0001
0100
0000
0001
0000
0000
0100
0010
0000
0100
0010
0000
0000
0100
0000
0000
,  // measure 18
0000
0000
0100
0010
0000
1000
0000
0000
0001
0010
0000
0001
0000
0000
0100
0001
0000
1000
0001
0000
0000
0100
0000
0000
,  // measure 19
0000
0000
0000
0001
0000
1000
0000
0000
0001
0100
0000
0010
0000
0000
1000
0010
0000
1000
0001
0000
0000
0100
0000
0000
,  // measure 20
0000
0000
0001
1000
0000
0001
0000
0000
0100
0001
0000
1000
0000
0000
0010
1000
0000
0010
1000
0000
0000
0001
0000
0000
,  // measure 21
0000
0000
0000
1000
0000
0010
0000
0000
1000
0010
0000
1000
0000
0000
0000
0001
0000
0100
0000
0000
0001
0100
0000
0001
,  // measure 22
0000
0000
0000
0100
0000
0010
0000
0000
0100
0010
0000
0100
0000
0000
0000
0010
0000
0100
0000
0000
0010
0100
0000
0010
,  // measure 23
0000
0000
0000
1000
0000
0100
0000
0000
0010
0001
0000
0010
0000
0000
0000
0001
0000
0100
0000
0000
0010
1000
0000
0010
,  // measure 24
0000
0000
0000
0100
0000
0001
0000
0000
1000
0010
0000
1000
0000
0000
0000
0010
0000
1000
0000
0000
0001
0100
0000
0001
,  // measure 25
0000
0000
0000
1000
0000
1000
0000
0000
0000
0001
0000
0001
0000
0000
0000
0010
0000
0010
0000
0000
0000
0100
0000
0100
,  // measure 26
0000
0000
0000
1000
0000
1000
0000
0000
0000
0010
0000
0010
0000
0000
0000
0100
0000
0100
0000
0000
0000
0001
0000
0001
,  // measure 27
0000
0000
1000
0001
0000
1000
0000
0000
0001
1000
0000
0001
0000
0000
0100
0010
0000
0100
0000
0000
0010
0100
0000
0010
,  // measure 28
0000
0000
1000
0001
0000
0100
0000
0000
0010
1000
0000
0001
0000
0000
0100
0001
0000
1000
0001
0000
0000
1000
0000
0000
,  // measure 29
0001
0000
0000
0000
0000
0000
1000
0000
0100
1000
0000
0000
0001
0000
0100
0001
0000
0100
0001
0000
0100
0001
0000
0000
,  // measure 30
1000
0000
0000
0010
0000
0000
1000
0000
0000
0001
0000
0000
0100
0000
0000
0001
0000
0100
0001
0000
0000
1000
0000
0000
,  // measure 31
0001
0000
0000
0000
0000
0000
1000
0000
0100
1000
0000
0000
0001
0000
1000
0001
0000
1000
0001
0000
1000
0001
0000
0000
,  // measure 32
1000
0000
0000
0001
0000
0000
0100
0000
0000
0001
0000
0000
1000
0000
0000
0010
0000
1000
0010
0000
0000
1000
0000
0000
,  // measure 33
0001
0000
0000
0000
0000
0000
1000
0000
0010
1000
0000
0000
0010
0000
0100
0010
0000
0100
0010
0000
1000
0010
0000
0000
,  // measure 34
1000
0000
0000
0001
0000
0000
1000
0000
0000
0001
0000
0000
0010
0000
0000
0001
0000
0010
0001
0000
0000
0100
0000
0000
,  // measure 35
0001
0000
0000
0000
0000
0000
1000
0000
0010
1000
0000
0000
0010
0000
0100
0010
0000
0100
0001
0000
1000
0001
0000
0000
,  // measure 36
1000
0000
0000
0001
0000
0000
0100
0000
0000
0001
0000
0000
0010
0000
0000
0001
0000
0010
0001
0000
0000
1000
0000
0000
,  // measure 37
0001
0000
0000
0000
0000
0000
1000
0000
0001
1000
0000
0000
0001
0000
1000
0001
0000
1000
0001
0000
1000
0001
0000
0000
,  // measure 38
1000
0000
0000
0001
0000
0000
1000
0000
0000
0010
0000
0000
0100
0000
0000
0001
0000
0010
0001
0000
0000
1000
0000
0000
,  // measure 39
0001
0000
0000
0000
0000
0000
1000
0000
0010
1000
0000
0000
0001
0000
0100
0001
0000
0010
0001
0000
0100
0001
0000
0000
,  // measure 40
1000
0000
0000
0001
0000
0000
0100
0000
0000
0001
0000
0000
1000
0000
0000
0010
0000
1000
0010
0000
0000
1000
0000
0000
,  // measure 41
0001
0000
0000
0000
0000
0000
1000
0000
0010
1000
0000
0000
0010
0000
0100
0010
0000
1000
0010
0000
0100
0010
0000
0000
,  // measure 42
1000
0000
0000
0001
0000
0000
1000
0000
0000
0001
0000
0000
0010
0000
0000
0001
0000
0010
0001
0000
0000
0100
0000
0000
,  // measure 43
0001
0000
0000
0000
0000
0000
1000
0000
0010
1000
0000
0000
0010
0000
0100
0010
0000
0100
0001
0000
1000
0001
0000
0000
,  // measure 44
0000
0000
0000
1000
0000
0001
0000
0000
1000
0001
0000
1000
0001
0000
1000
0001
0000
1000
0001
0000
0000
1000
0000
0000
,  // measure 45
0010
0000
0000
0000
0000
0000
1000
0000
0010
1000
0000
0010
0000
0000
0100
0010
0000
1000
0001
0000
0000
0100
0000
0000
,  // measure 46
0001
0000
0000
0000
0000
0000
1000
0000
0010
1000
0000
0001
0000
0000
0100
0010
0000
1000
0010
0000
0000
0100
0000
0000
,  // measure 47
0001
0000
0000
0000
0000
0000
1000
0000
0010
1000
0000
0001
0000
0000
0100
0001
0000
1000
0001
0000
0000
0100
0000
0000
,  // measure 48
0001
0000
0000
0000
0000
0000
0010
0000
0001
0100
0000
0010
0000
0000
1000
0010
0000
1000
0001
0000
0000
0100
0000
0000
,  // measure 49
0010
0000
0000
0000
0000
0000
1000
0000
0001
1000
0000
0001
0000
0000
0100
0010
0000
1000
0001
0000
0000
0100
0000
0000
,  // measure 50
0001
0000
0000
0000
0000
0000
1000
0000
0010
1000
0000
0001
0000
0000
0100
0010
0000
1000
0001
0000
0000
0100
0000
0000
,  // measure 51
0001
0000
0000
0000
0000
0000
1000
0000
0100
1000
0000
0001
0000
0000
1000
0001
0000
0100
0001
0000
0000
0100
0000
0000
,  // measure 52
0001
0000
0000
0000
0000
0000
0010
0000
0001
0100
0000
0010
0000
0000
1000
0010
0000
0100
0001
0000
0000
0100
0000
0000
,  // measure 53
2002
0000
0000
0000
,  // measure 54
3003
0000
0000
0000
;

//---------------dance-single - ----------------
#NOTES:
     dance-single:
     :
     Medium:
     7:
     0.435,0.411,0.194,0.019,0.102: // measure 1
0000
0000
0000
0000
,  // measure 2
0000
0000
0000
0000
,  // measure 3
0000
0000
0000
0000
,  // measure 4
0000
0000
0000
0000
,  // measure 5
0000
0001
1000
0000
0001
0100
0010
0100
,  // measure 6
0001
0000
1000
0010
1000
0100
1000
0010
,  // measure 7
1000
0010
0000
0100
0000
0001
0100
0001
,  // measure 8
0000
1000
0000
0100
0000
1000
0010
1000
,  // measure 9
0000
0010
0000
0100
0000
0001
0100
0001
,  // measure 10
0000
0100
0000
0010
0000
0100
0001
1000
,  // measure 11
0000
0100
0000
1000
0000
0010
1000
0001
,  // measure 12
0000
0100
0000
0010
0000
1000
0001
1000
,  // measure 13
0000
0100
0000
0010
0000
0001
0100
0010
,  // measure 14
0000
1000
0000
0100
0000
1000
0010
1000
,  // measure 15
0000
0001
0000
0100
0000
0010
1000
0001
,  // measure 16
0000
1000
0000
0001
0000
0100
0010
1000
,  // measure 17
0000
0001
0000
0100
0000
0001
1000
0100
,  // measure 18
0000
0010
0000
0001
0000
1000
0001
0100
,  // measure 19
0000
0010
0000
1000
0000
0001
1000
0010
,  // measure 20
0000
0100
0000
0001
0000
1000
0010
1000
,  // measure 21
0000
0011
0000
1100
0000
0011
0000
1100
,  // measure 22
0000
0101
0000
1010
0000
0101
0000
1010
,  // measure 23
0000
1100
0000
0011
0000
1100
0000
0011
,  // measure 24
0000
1010
0000
0101
0000
1010
0000
0101
,  // measure 25
0000
0000
0000
0100
0000
0001
0000
0000
0000
0100
0000
0001
0000
0000
0000
0100
0000
0001
0000
0000
0000
0100
0000
0001
,  // measure 26
0000
0000
0000
1000
0000
0010
0000
0000
0000
1000
0000
0010
0000
0000
0000
1000
0000
0010
0000
0000
0000
1000
0000
0010
,  // measure 27
0000
0000
1000
0000
0000
0100
0000
0000
1000
0000
0000
0100
0000
0000
1000
0000
0000
0100
0000
0000
1000
0000
0000
0100
,  // measure 28
0000
0000
0010
0000
0000
0001
0000
0000
0010
0000
0000
0001
0000
0000
0010
0000
0000
0000
0001
0000
0000
1000
0000
0000
,  // measure 29
0001
0000
0100
0010
1000
0001
1000
0000
,  // measure 30
0001
0010
0001
0010
0100
1000
0100
1000
,  // measure 31
0010
0000
0100
0001
0100
0010
1000
0000
,  // measure 32
0100
1000
0010
1000
0001
0010
0001
0100
,  // measure 33
0000
0010
0100
0001
0100
0010
1000
0000
,  // measure 34
0100
1000
0100
1000
0001
0100
0001
0100
,  // measure 35
0010
0000
1000
0001
0100
0010
0100
0000
,  // measure 36
0001
0010
0100
1000
0001
0010
0100
1000
,  // measure 37
0000
0000
0010
0100
0010
0100
0010
0000
,  // measure 38
1000
0100
1000
0010
0100
0010
0100
0010
,  // measure 39
1000
0000
0001
0010
0001
0100
0001
0000
,  // measure 40
1000
0010
1000
0010
0100
0001
0100
0001
,  // measure 41
1000
0000
0001
0010
0001
0010
0001
0000
,  // measure 42
0000
1010
0000
1010
0000
0010
1000
0010
,  // measure 43
1000
0000
0001
0100
0001
0100
0001
0010
,  // measure 44
0000
0000
0000
0011
0000
0000
0100
0001
,  // measure 45
0100
0000
0010
1000
0010
0100
0010
1000
,  // measure 46
0100
0000
1000
0100
1000
0001
0010
0100
,  // measure 47
1000
0000
0001
1000
0001
0100
0010
0100
,  // measure 48
0001
0000
1000
0100
1000
0010
0100
0001
,  // measure 49
1000
0000
0010
1000
0100
1000
0010
0100
,  // measure 50
0001
0000
1000
0010
1000
0100
1000
0010
,  // measure 51
0100
0000
0001
0010
0100
1000
0010
0100
,  // measure 52
0001
0000
1000
0010
1000
0100
1000
0001
,  // measure 53
2002
0000
0000
0000
,  // measure 54
3003
0000
0000
0000
;

//---------------dance-single - ----------------
#NOTES:
     dance-single:
     :
     Easy:
     4:
     0.230,0.231,0.000,0.019,0.000: // measure 1
0000
0000
0000
0000
,  // measure 2
0000
0000
0000
0000
,  // measure 3
0000
0000
0000
0000
,  // measure 4
0000
0000
0000
0000
,  // measure 5
0000
1000
0000
0001
,  // measure 6
1000
0001
0000
0100
,  // measure 7
0001
0100
0000
0010
,  // measure 8
1000
0010
0000
1000
,  // measure 9
0001
0100
0000
0100
0000
0100
0000
0000
,  // measure 10
0000
0001
0000
0001
0000
0001
0000
0000
,  // measure 11
0000
1000
0000
1000
0000
1000
0000
0000
,  // measure 12
0000
0001
0000
0001
0000
0001
0000
0000
,  // measure 13
0000
0100
0000
0100
0000
0100
0000
0000
,  // measure 14
0000
0010
0000
0010
0000
0010
0000
0000
,  // measure 15
0000
1000
0000
1000
0000
1000
0000
0000
,  // measure 16
0000
0001
0000
0001
0000
0001
0000
0000
,  // measure 17
0000
0010
0000
0010
0000
0010
0000
0000
,  // measure 18
0000
0100
0000
0100
0000
0100
0000
0000
,  // measure 19
0000
1000
0000
1000
0000
1000
0000
0000
,  // measure 20
0000
0001
0000
0001
0000
0001
0000
0000
,  // measure 21
0000
1000
0000
0001
0000
1000
0000
0001
,  // measure 22
0000
0100
0000
0010
0000
0100
0000
0010
,  // measure 23
0000
1000
0000
0100
0000
1000
0000
0100
,  // measure 24
0000
0010
0000
0001
0000
0010
0000
0001
,  // measure 25
0000
0100
0000
0100
0000
0100
0000
0100
,  // measure 26
0000
0100
0000
0100
0000
0100
0000
0100
,  // measure 27
0000
0100
0000
0100
0000
0100
0000
0100
,  // measure 28
0000
0100
0000
0100
0000
0100
0000
0000
,  // measure 29
0010
1000
0010
0000
,  // measure 30
0100
0001
0100
0001
,  // measure 31
1000
0001
1000
0000
,  // measure 32
0001
0100
0001
0010
,  // measure 33
0001
0100
0001
0000
,  // measure 34
1000
0100
0010
0001
,  // measure 35
0100
0010
1000
0000
,  // measure 36
0001
0100
0001
0100
,  // measure 37
0000
0010
1000
0000
,  // measure 38
0010
1000
0001
0010
,  // measure 39
0001
0000
0100
0010
,  // measure 40
1000
0001
0100
0001
,  // measure 41
1000
0000
0001
0010
,  // measure 42
0001
0100
0001
0010
,  // measure 43
0001
0000
1000
0100
,  // measure 44
2000
0000
0000
0000
,  // measure 45
3001
1000
0001
1000
,  // measure 46
0010
0100
0010
0100
,  // measure 47
0001
0010
0001
0010
,  // measure 48
0100
1000
0100
1000
,  // measure 49
0001
0100
0001
0100
,  // measure 50
0001
1000
0001
1000
,  // measure 51
0001
0010
0100
1000
,  // measure 52
0001
0100
0010
1000
,  // measure 53
0002
0000
0000
0000
,  // measure 54
0003
0000
0000
0000
;

//---------------dance-single - ----------------
#NOTES:
     dance-single:
     :
     Beginner:
     2:
     0.148,0.177,0.000,0.000,0.000: // measure 1
0000
0000
0000
0000
,  // measure 2
0000
0000
0000
0000
,  // measure 3
0000
0000
0000
0000
,  // measure 4
0000
0000
0000
0000
,  // measure 5
0000
1000
0000
1000
,  // measure 6
0000
0001
0000
0001
,  // measure 7
0000
0100
0000
0100
,  // measure 8
0000
0010
0000
0010
,  // measure 9
0000
0100
0000
0100
,  // measure 10
0000
0001
0000
0001
,  // measure 11
0000
1000
0000
1000
,  // measure 12
0000
0010
0000
0010
,  // measure 13
0000
0100
0000
0100
,  // measure 14
0000
0001
0000
0001
,  // measure 15
0000
1000
0000
1000
,  // measure 16
0000
0001
0000
0001
,  // measure 17
0000
0100
0000
0100
,  // measure 18
0000
0001
0000
0001
,  // measure 19
0000
0010
0000
0010
,  // measure 20
0000
0001
0000
0001
,  // measure 21
0000
0100
0000
0100
,  // measure 22
0000
0001
0000
0001
,  // measure 23
0000
1000
0000
1000
,  // measure 24
0000
0100
0000
0100
,  // measure 25
0000
1000
0000
1000
,  // measure 26
0000
0001
0000
0001
,  // measure 27
0000
1000
0000
1000
,  // measure 28
0000
0010
0000
0010
,  // measure 29
0010
0000
1000
0000
,  // measure 30
0010
0000
1000
0000
,  // measure 31
0001
0000
0010
0000
,  // measure 32
0001
0000
0100
0000
,  // measure 33
0001
0000
1000
0000
,  // measure 34
0001
0000
1000
0000
,  // measure 35
0010
0000
0100
0000
,  // measure 36
0010
0000
1000
0000
,  // measure 37
0000
0001
1000
0000
,  // measure 38
0001
0000
0100
0100
,  // measure 39
0100
0000
0010
0000
,  // measure 40
1000
0000
0100
0100
,  // measure 41
0100
0000
0010
0000
,  // measure 42
0001
0000
0100
0100
,  // measure 43
0100
0000
0001
0000
,  // measure 44
1000
0000
0000
0000
,  // measure 45
0001
0000
0100
0100
,  // measure 46
0100
0000
0001
0001
,  // measure 47
0001
0000
0010
0010
,  // measure 48
0010
0000
0100
0100
,  // measure 49
0100
0000
0010
0010
,  // measure 50
0010
0000
1000
1000
,  // measure 51
1000
0000
0001
0001
,  // measure 52
0001
0000
0100
0100
,  // measure 53
0100
0000
0000
0000
;
