#TITLE:Blame;
#SUBTITLE:;
#ARTIST:Calvis Harris feat. John Newman;
#TITLETRANSLIT:;
#SUBTITLETRANSLIT:;
#ARTISTTRANSLIT:;
#CREDIT:;
#BANNER:blame-bn.png;
#BACKGROUND:blame-bg.png;
#LYRICSPATH:;
#CDTITLE:;
#MUSIC:Blame.mp3;
#OFFSET:-0.066;
#SAMPLESTART:67.550;
#SAMPLELENGTH:15.000;
#SELECTABLE:YES;
#BPMS:0.000=128.010;
#STOPS:;
#BGCHANGES:0.000=blame.avi=1.000=1=0=0,
196.000=blame-bg.png=1.000=0=0=1,
99999=-nosongbg-=1.000=0=0=0 // don't automatically add -songbackground-
;

//---------------dance-single - ----------------
#NOTES:
     dance-single:
     :
     Hard:
     8:
     0.622,0.605,0.441,0.483,0.559:
0000
0000
0000
0000
,
0000
0000
0000
0000
,
1000
0000
0000
0010
0000
0000
0100
0000
0000
1001
0000
0000
0000
0000
0000
0000
,
0001
0000
0000
0100
0000
0000
0010
0000
0000
1000
0000
0000
0110
0000
0000
0000
,
1000
0000
0000
0000
0010
0000
0100
0010
0000
0000
2200
0000
0000
0000
0000
0000
,
3300
0000
0000
0000
0000
0000
0001
0000
1000
0000
0001
0000
0000
0000
0000
0220
0000
0000
0000
0000
0000
0000
0000
0000
,
0330
0000
0000
0000
1000
0000
0010
0100
0000
0000
0010
0000
1000
0000
0001
0000
,
0200
0000
0000
0310
2000
0000
0000
0000
3000
0000
0000
0000
0000
0000
0000
0000
,
0000
0000
0000
0000
0010
0000
1000
0001
0000
0000
0022
0000
0000
0000
0000
0000
,
0033
0000
1000
0000
0100
0000
1000
0010
0000
0000
0220
0000
0000
0000
0000
0000
,
0330
0000
0000
0000
1000
0000
0010
0100
0000
0000
0001
0000
0010
0000
0001
0000
,
0200
0000
0000
0310
2000
0000
3010
0000
0100
0000
0010
0000
1000
0000
0100
0000
,
1100
0000
0101
0000
1000
0002
0000
0200
,
0000
0000
0000
0000
0303
0000
0010
0000
1000
0000
0100
1000
0000
0000
2020
0000
,
0000
0000
0000
0000
3030
0000
0010
0000
0100
0000
0001
0010
0000
0000
0022
0000
,
0000
0000
0033
0000
1000
0010
0100
0001
,
0011
0000
0101
0000
0010
1000
0000
1000
,
2020
0000
0000
0000
3030
0000
0110
0000
0010
0000
1000
0001
0000
0000
0100
0000
,
0022
0000
0000
0000
0033
0000
0001
0000
0100
0000
0010
1000
0000
0000
1000
0000
,
0220
0000
0000
0330
0001
0010
0100
1000
,
1010
0000
0110
0000
0001
0010
0000
0010
,
0022
0000
0000
0000
0033
0000
1000
0000
0010
0000
0100
0010
0000
0000
1000
0000
,
0202
0000
0000
0000
0303
0000
1000
0000
0010
0000
0100
0010
0000
0000
2200
0000
,
0000
0000
3300
0001
0010
0001
0100
0010
,
1010
0000
1100
0000
0001
0100
0000
0010
,
2200
0000
0000
0000
3300
0000
0010
0000
0100
0000
0010
1000
0000
0000
0202
0000
,
0000
0000
0000
0000
0303
0000
0001
0000
0010
0000
0001
0100
0000
0000
2020
0000
,
0000
0000
3030
0010
1000
0001
0100
0000
,
1000
0001
0000
1000
0001
0000
0100
0010
0000
0100
0010
0000
1000
0100
0000
1000
,
0001
0000
0100
0001
0000
0010
0001
0000
0100
0010
0000
1000
0010
0000
1000
0001
,
1000
0001
0000
1000
0100
0000
1000
0010
0000
0100
0010
0000
1000
0010
0000
1000
,
0100
0000
1000
0010
0000
0100
0010
0000
1000
0000
0002
0000
0000
0000
1003
0000
,
0001
0100
0000
0001
0100
0000
0010
1000
0000
0010
1000
0000
1100
0000
0000
0000
,
0010
0100
0000
0010
0100
0000
0001
0010
0000
0001
0010
0000
0101
0000
0000
0000
,
0010
1000
0000
0010
1000
0000
0001
1000
0000
0001
1000
0000
1100
0000
0000
0000
,
0100
1000
0000
0010
0100
0000
0001
0010
0000
0001
0100
0000
0202
0000
0000
0303
,
0010
0100
0000
0010
0100
0000
0010
1000
0000
0010
1000
0000
1100
0000
0000
0000
,
0001
1000
0000
0100
1000
0000
0010
1000
0000
0001
0100
0000
0011
0000
0000
0000
,
1000
0100
0000
1000
0010
0000
0100
0001
0000
0010
0001
0000
0101
0000
0000
0000
,
0010
1000
0000
0100
1000
0000
0010
0100
0000
0001
1000
0000
0220
0000
0000
0330
,
0010
1000
0000
0001
1000
0000
0100
0010
0000
0001
1000
0000
0110
0000
0000
0000
,
1000
0100
0000
0010
0001
0000
0100
0001
0000
1000
0001
0000
1001
0000
0000
0000
,
1000
0001
0000
0100
0001
0000
0010
0001
0000
0100
0010
0000
1100
0000
0000
0000
,
1000
0001
0000
0010
0100
0000
1000
0010
0000
0100
0001
0000
2002
0000
0000
3003
,
0100
0010
0000
1000
0001
0000
0010
0001
0000
0100
0001
0000
1001
0000
0000
0000
,
0001
0100
0000
0010
1000
0000
0100
1000
0000
0010
0100
0000
0101
0000
0000
0000
,
0001
0010
0000
0001
0100
0000
0010
1000
0000
0100
1000
0000
1001
0000
0000
0000
,
0010
1000
0000
1000
0010
0000
0010
1000
0000
1000
0010
0000
2000
0000
0002
0000
,
0000
0000
0000
0000
,
3003
0000
0000
0000
;

//---------------dance-single - ----------------
#NOTES:
     dance-single:
     :
     Medium:
     6:
     0.405,0.421,0.032,0.312,0.312:
0000
0000
0000
0000
,
0000
0000
0000
0000
,
1000
0000
0000
0001
0000
0000
0100
0000
0000
0000
0000
0000
0000
0000
0000
0000
,
0010
0000
0000
1000
0000
0000
0010
0000
0000
0000
0000
0000
0100
0000
0000
0000
,
0010
0000
1000
0001
0000
0100
0000
0000
,
0010
0000
0000
0000
0000
0000
1000
0000
0000
0000
0100
0000
0000
0000
0000
1000
0000
0000
0000
0000
0000
0000
0000
0000
,
0000
0000
0000
0000
0010
0000
0000
0100
0000
0000
0000
0000
0010
0000
0100
0000
,
0002
0000
0000
2000
0000
0000
0000
0000
0000
0000
0000
0000
0000
0000
3003
0000
,
0000
0000
0000
0000
1000
0000
0000
0010
0000
0000
2000
0000
0000
0000
0000
0000
,
3000
0000
0000
0000
0001
0000
0000
0100
0000
0000
0002
0000
0000
0000
0000
0000
,
0003
0000
0000
0000
1000
0000
0000
0010
0000
0000
0000
0000
0100
0000
0010
0000
,
2000
0000
3001
0000
0100
0010
0100
0010
,
1000
0000
0001
0000
0100
0010
0000
1000
,
0002
0000
0000
0000
0000
0000
0000
0000
0103
0000
0000
0010
0000
0000
0200
0000
,
0000
0000
0000
0000
0000
0000
0300
0000
0010
0000
0000
1000
0000
0000
0020
0000
,
0000
0000
0030
0000
1000
0001
1000
0001
,
1000
0000
0010
0000
1000
0010
0000
1000
,
0002
0000
0000
0000
0000
0000
0103
0000
0001
0000
0000
1000
0000
0000
0002
0000
,
0000
0000
0000
0000
0000
0000
1003
0000
0100
0000
0000
0010
0000
0000
0002
0000
,
0000
0000
0000
0003
1000
0100
1000
0100
,
0020
0000
0031
0000
0001
0200
0000
0320
,
2030
0000
0000
0000
0000
0000
3010
0000
0100
0000
0000
0010
0000
0000
2000
0000
,
0001
0000
0000
0000
3000
0000
0001
0000
0100
0000
0000
0010
0000
0000
0200
0000
,
0010
0000
0000
0310
1000
0100
0010
0001
,
0110
0000
0110
0000
0010
2000
0000
3100
,
0012
0000
0000
0000
0000
0000
0103
0000
0010
0000
0000
0100
0000
0000
0010
0000
,
2000
0000
0000
0000
0000
0000
3010
0000
0100
0000
0000
0001
0000
0000
0010
0000
,
0002
0000
0000
0103
0010
0100
0010
0000
,
1000
0001
0000
0000
1000
0000
0000
0100
0000
0000
0010
0000
0000
0001
0000
0000
,
0100
0000
0000
0010
0000
0000
0100
0000
0000
0001
0000
0000
0100
0000
0000
0010
,
0000
1000
0000
0000
0010
0000
0000
0100
0000
0000
0001
0000
0000
0010
0000
0000
,
0001
0000
0000
0100
0000
0000
0010
0000
1000
0000
0100
0000
0000
0000
0100
0000
,
1000
0010
0000
0000
0100
0000
0000
0010
0000
0000
1000
0000
0001
0000
0000
0000
,
1000
0001
0000
0000
0100
0000
0000
0010
0000
0000
1000
0000
0100
0000
0000
0000
,
1000
0001
0000
0000
0010
0000
0000
0001
0000
0000
1000
0000
0100
0000
0000
0000
,
1000
0010
0000
0000
1000
0000
0000
0010
0000
0000
2000
0000
0002
0000
0000
3003
,
0001
1000
0000
0000
0001
0000
0000
0100
0000
0000
0010
0000
1000
0000
0000
0000
,
0010
0100
0000
0000
0010
0000
0000
1000
0000
0000
0010
0000
0000
0000
1000
0000
,
0100
1000
0000
0000
0010
0000
0000
1000
0000
0000
0100
0000
1000
0000
0000
0000
,
0001
1000
0000
0000
0100
0000
0000
0010
0000
0000
0002
0000
0200
0000
0000
0303
,
0010
1000
0000
0000
0010
0000
0000
0100
0000
0000
0100
0000
0001
0000
0000
0000
,
0100
0001
0000
0000
0001
0000
0000
0100
0000
0000
0010
0000
1000
0000
0000
0000
,
1000
0010
0000
0000
0010
0000
0000
0100
0000
0000
0010
0000
1000
0000
0000
0000
,
0001
0100
0000
0000
0001
0000
0000
1000
0000
0000
0002
0000
0200
0000
0000
0303
,
0100
0010
0000
0000
0010
0000
0000
1000
0000
0000
0001
0000
0010
0000
0000
0000
,
0001
0100
0000
0000
0010
0000
0000
1000
0000
0000
0001
0000
0010
0000
0000
0000
,
0100
0010
0000
0000
0001
0000
0000
1000
0000
0000
0100
0000
1000
0000
0000
0000
,
0001
1000
0000
0000
0001
0000
0000
1000
0000
0000
1000
0000
0002
0000
2000
0000
,
0000
0000
0000
0000
,
3003
0000
0000
0000
;

//---------------dance-single - ----------------
#NOTES:
     dance-single:
     :
     Challenge:
     9:
     0.706,0.684,0.784,0.387,0.569: // measure 1
0000
0000
0000
0000
,  // measure 2
0000
0000
0000
0000
,  // measure 3
1010
0000
0000
0110
0000
0000
0101
0000
0000
1001
0000
0000
0000
0000
0000
0000
,  // measure 4
1100
0000
0000
0110
0000
0000
1100
0000
0000
0101
0000
0000
1001
0000
0000
0000
,  // measure 5
1100
0000
0000
0000
0001
0000
0100
0010
0000
0000
2020
0000
0000
0000
0000
0000
,  // measure 6
3030
0000
0000
0000
0000
0000
0101
0000
1000
0000
0100
0000
0000
0000
0000
0020
0000
0000
0000
0000
0000
0000
0000
0000
,  // measure 7
0030
0000
0000
0000
1100
0000
0001
0100
0000
0000
0010
0000
1000
0000
0100
0000
,  // measure 8
2000
0000
0000
3010
0200
0000
0000
0000
0000
0000
0000
0000
0000
0000
0000
0000
,  // measure 9
0300
0000
0000
0000
1010
0000
1000
0001
0000
0000
0220
0000
0000
0000
0000
0000
,  // measure 10
0330
0000
1000
0000
0100
0000
0010
0001
0000
0000
0202
0000
0000
0000
0000
0000
,  // measure 11
0303
0000
0000
0000
1100
0000
0010
1000
0000
0000
1100
0000
0001
0000
0100
0000
,  // measure 12
0110
0000
0000
0010
2000
0000
3001
0000
0100
0000
0010
0000
1000
0000
0100
0000
,  // measure 13
1100
0000
0000
0000
0101
0000
0000
0000
1000
0000
0120
0000
0000
0030
1010
0000
,  // measure 14
0000
0000
0000
0000
0000
0000
1100
0000
0001
0000
0100
0010
0000
0000
1010
0000
,  // measure 15
0200
0000
0000
0000
0000
0000
0310
0000
1000
0000
0001
0100
0000
0000
0012
0000
,  // measure 16
0100
0000
0000
0003
1001
0100
0010
1000
,  // measure 17
1100
0000
0011
0000
0101
0110
0000
2020
,  // measure 18
0000
0000
0000
0000
3030
0000
1100
0000
0001
0000
0100
0001
0000
0000
1001
0000
,  // measure 19
2100
0000
0000
0000
0000
0000
3001
0000
0110
0000
0010
1000
0000
0000
0110
0000
,  // measure 20
1002
0000
0000
0003
1000
0010
0001
0010
,  // measure 21
1001
0000
1100
0000
1000
0010
0000
0100
,  // measure 22
0201
0000
0000
0000
0000
0000
0301
0000
1000
0000
0010
0100
0000
0000
0110
0000
,  // measure 23
2002
0000
0000
0000
3003
0000
1000
0000
0110
0000
1000
0001
0000
0000
1010
0000
,  // measure 24
2200
0000
3300
0001
0010
0100
1000
0010
,  // measure 25
1100
0000
1001
0000
0010
0100
0000
2002
,  // measure 26
0000
0000
0000
0000
3003
0000
0010
0000
0100
0000
0010
1000
0000
0000
1010
0000
,  // measure 27
0220
0000
0000
0000
0330
0000
0001
0000
0010
0000
0001
1000
0000
0000
0101
0000
,  // measure 28
0022
0000
0033
0001
1000
0010
0110
0000
,  // measure 29
0001
1000
0000
0001
1000
0000
0010
0100
0000
0010
1000
0000
0010
1000
0000
0100
,  // measure 30
1000
0000
0001
0100
0000
0010
1000
0000
0010
0100
0000
0100
0001
0000
1000
0010
,  // measure 31
1000
0100
0000
1000
0001
0000
1000
0001
0000
0100
0010
0000
1000
0100
0000
0100
,  // measure 32
1000
0000
0000
0000
0000
0000
0010
0000
0000
0100
0000
0000
0000
0000
0000
0100
0000
0000
0001
0000
0000
0000
0000
0000
1001
0000
0000
0000
0000
0000
1010
0000
0000
0000
0000
0000
0000
0000
0000
0000
0000
0000
0100
0000
0010
0000
1000
0000
,  // measure 33
0001
0100
0010
1000
0001
0000
0100
0010
1000
0100
0010
0000
0011
0000
0000
0000
,  // measure 34
0001
0100
0001
0010
0001
0000
1000
0010
0100
0010
1000
0000
1001
0000
0000
0000
,  // measure 35
0010
1000
0001
0010
0001
0000
0010
0001
0100
0010
1000
0000
0101
0000
0000
0000
,  // measure 36
0001
0010
0000
0100
1000
0000
0001
0100
0000
0010
1000
0000
1002
0000
0200
0303
,  // measure 37
0100
0010
1000
0001
0010
0000
0001
0100
0010
1000
0001
0000
0011
0000
0000
0000
,  // measure 38
0001
0010
0100
1000
0010
0000
0100
0010
1000
0100
0010
0000
0011
0000
0000
0000
,  // measure 39
0001
0100
0010
1000
0100
0000
0010
0100
1000
0010
0100
0000
1001
0000
0000
0000
,  // measure 40
0001
0100
0000
0010
1000
0000
0100
1000
0000
0010
0100
0000
1002
0000
2003
3000
,  // measure 41
1000
0001
0100
0010
0100
0000
0001
0010
0001
0100
0001
0000
1010
0000
0000
0000
,  // measure 42
1000
0100
0001
0100
1000
0000
0001
0010
1000
0010
0001
0000
1010
0000
0000
0000
,  // measure 43
0010
0100
1000
0010
0100
0000
0001
0010
0100
1000
0010
0000
1100
0000
0000
0000
,  // measure 44
0001
0010
0000
0010
0001
0000
1000
0100
0000
0100
1000
0000
1002
0000
0020
0030
,  // measure 45
0013
0100
1000
0100
0010
0000
0001
0100
0010
0100
0001
0000
1001
0000
0000
0000
,  // measure 46
0010
0001
0100
0010
1000
0000
0100
1000
0010
0100
0001
0000
1001
0000
0000
0000
,  // measure 47
0001
0100
1000
0100
0001
0000
1000
0010
0001
0010
1000
0000
1100
0000
0000
0000
,  // measure 48
0001
1000
0000
0010
1000
0000
0010
0100
0000
0001
0010
0000
0101
0000
2002
0000
,  // measure 49
0000
0000
0000
0000
,  // measure 50
3003
0000
0000
0000
;

//---------------dance-single - ----------------
#NOTES:
     dance-single:
     :
     Easy:
     4:
     0.270,0.342,0.226,0.086,0.000:
0000
0000
0000
0000
,
0000
0000
0000
0000
,
1000
0000
0000
0100
0000
0000
0000
0000
,
1000
0000
0000
0010
0000
0000
0100
0000
,
0010
0000
0000
1000
0000
0000
0000
0000
,
0001
0000
0000
0100
0000
0000
0000
0000
,
0001
0000
0000
1000
0000
0000
0000
0000
,
0010
0000
0000
1000
0000
0000
0000
0000
,
0100
0000
0000
1000
0000
0000
0000
0000
,
0001
0000
0000
0100
0000
0000
0000
0000
,
0001
0000
0000
0010
0000
0000
0000
0000
,
0001
0000
0000
1000
0001
0000
0000
0000
,
0100
0000
0010
0000
1000
0000
0000
0001
,
0000
0000
0000
0000
0100
0000
0000
0010
,
0000
0000
0000
0000
1000
0000
0000
0001
,
0000
0000
0100
0010
,
1000
0000
0100
0000
1000
0000
0000
0010
,
0000
0000
0000
0000
0100
0000
0000
0010
,
0000
0000
0000
0000
1000
0000
0000
0001
,
0000
0000
0001
0010
,
0001
0000
1000
0000
0010
1000
0000
0010
,
0000
0000
0000
0000
0010
0000
0000
1010
,
0000
0000
0000
0000
0100
0000
0000
0110
,
0000
0000
0001
1000
,
0010
0000
1000
0000
0100
0000
0000
1100
,
0000
0000
0000
0000
1000
0000
0000
1100
,
0000
0000
0000
0001
0100
0000
0000
0101
,
0000
0000
0000
0010
1000
0000
0100
0000
,
1100
1000
0010
0100
,
0001
0010
0001
0100
,
0001
0100
0010
1000
,
0010
0000
1000
0000
0010
1000
0000
0010
,
1000
0001
0100
0110
,
0010
1000
0100
1100
,
1000
0010
0100
0101
,
0001
0000
0100
0000
0010
0000
2200
3300
,
0001
0100
0010
1100
,
0010
0001
0100
1001
,
0010
1000
0100
1100
,
0010
0000
0100
0000
0001
0000
2002
3003
,
0010
0100
1000
0110
,
0010
1000
0100
1001
,
1000
0010
0100
0101
,
0001
0000
0010
0000
0100
0000
2200
3300
,
0010
0001
0100
1010
,
0010
0100
0001
1001
,
1000
0100
0010
0101
,
0001
0000
1000
0000
0010
0000
2000
0020
,
0000
0000
0000
0000
,
3030
0000
0000
0000
;

//---------------dance-single - ----------------
#NOTES:
     dance-single:
     :
     Beginner:
     2:
     0.193,0.211,0.000,0.118,0.000:
0000
0000
0000
0000
,
0000
0000
0000
0000
,
1000
0000
1000
0000
,
0001
0000
0001
0001
,
0100
0000
0100
0000
,
0010
0000
0010
0000
,
1000
0000
1000
0000
,
0001
0000
0001
0000
,
0100
0000
0010
0000
,
1000
0000
0100
0000
,
1000
0000
0001
0000
,
0100
0000
0010
1000
,
0010
0000
1000
0000
,
2000
0000
3001
0000
,
0002
0000
0103
0000
,
0200
0000
0310
1000
,
0001
0000
1000
0000
,
0100
0000
1000
0000
,
0200
0000
0310
0000
,
0001
0000
0100
0010
,
0100
0000
0010
0000
,
2000
0000
3001
0000
,
2000
0000
3001
0000
,
2000
0000
3010
0100
,
0010
0000
0100
0000
,
0020
0000
0130
0000
,
0002
0000
1003
0000
,
0002
0000
0103
0000
,
0010
0000
0010
0000
,
0100
0000
0100
0100
,
0010
0000
0010
0000
,
0010
0000
1000
1000
,
0001
0000
1000
0001
,
1000
0000
0010
0100
,
0010
0000
1000
0100
,
1000
0000
0001
1000
,
0001
0000
0100
0001
,
0100
0000
0010
1000
,
0010
0000
1000
0100
,
1000
0000
0010
0100
,
0010
0000
1000
0001
,
1000
0000
0001
0010
,
0001
0000
0100
0010
,
0100
0000
0010
1000
,
0010
0000
1000
0100
,
1000
0000
0010
0100
,
0010
0000
1000
0100
,
1000
0000
0010
0200
,
0000
0000
0000
0000
,
0300
0000
0000
0000
;
