#TITLE:AM-3P MEGAMIX;
#SUBTITLE:-PARATONE MIX-;
#ARTIST:KTz;
#TITLETRANSLIT:;
#SUBTITLETRANSLIT:;
#ARTISTTRANSLIT:;
#CREDIT:;
#BANNER:AM-3P Megamix.png;
#BACKGROUND:AM-3P Megamix-bg.png;
#LYRICSPATH:;
#CDTITLE:Udder&MJ CD Title.png;
#MUSIC:AM-3P Megamix.mp3;
#OFFSET:-0.545;
#SAMPLESTART:65.960;
#SAMPLELENGTH:10.000;
#SELECTABLE:YES;
#BPMS:0.000=131.018;
#STOPS:;
#BGCHANGES:;

//---------------dance-single - ----------------
#NOTES:
     dance-single:
     :
     Hard:
     9:
     0.619,0.539,0.448,0.000,0.438:
0000
0000
0000
0000
,
0000
0000
0000
0000
,
0000
0000
0000
0000
,
0000
0000
0000
0000
0000
0000
0001
0100
,
0000
1010
0000
0100
0000
0011
0000
1100
,
0000
0010
0000
0101
0000
0010
0100
0010
,
0000
1010
0000
0100
0000
0011
0000
1100
,
0000
0000
0010
0000
0000
0000
0101
0000
0010
0000
0000
0000
0110
0000
0000
1000
,
0000
0000
0100
0000
0000
1000
0100
0000
1000
0000
0010
0000
0110
0000
0000
0001
,
0000
0000
0100
0000
0000
0001
0100
0000
0001
0000
0010
0000
0110
0000
0000
1000
,
0000
0000
0001
0000
0000
0100
0010
0000
0100
0000
0010
0000
1000
0100
0000
0010
,
0001
0000
0100
0001
0000
1000
0010
0000
1000
0000
0001
0000
0101
0000
0000
0100
,
0000
0000
0010
0000
0000
1000
0100
0000
0010
0000
0001
0000
0011
0000
0000
0010
,
0000
0000
0100
0000
0000
1000
0010
0000
0100
0000
0001
0000
1001
0000
0000
1000
,
0000
0000
0100
0000
0000
1000
0001
0000
0100
0000
0001
0000
0010
0001
0000
1000
,
0100
0000
1000
0010
0000
0100
0001
0000
1000
0000
0001
0000
0011
0000
0000
1000
,
0100
0000
0001
0000
0100
0000
0001
0000
0100
0000
1000
0000
1010
0000
0000
0001
,
0100
0000
1000
0000
0100
0000
1000
0000
0100
0000
0001
0000
0011
0000
0000
1000
,
0001
0000
0100
0000
0010
0000
0100
0000
0001
0000
0001
0000
1000
0100
0000
1000
,
0010
0000
1000
0001
0000
1000
0100
0000
0010
0000
0001
0000
1100
0000
0000
0001
,
0010
0000
1000
0000
0010
0000
1000
0000
0010
0000
0001
0000
0101
0000
0000
1000
,
0010
0000
0001
0000
0010
0000
0001
0000
0010
0000
1000
0000
1100
0000
0000
0001
,
1000
0000
0010
0000
0100
0000
0010
0000
1000
0000
1000
0000
0001
0010
0000
0001
,
0100
0000
0001
1000
0000
0001
0010
0000
0100
0000
1000
0000
1000
0000
0001
0000
,
0100
0000
0010
0000
1000
0100
1000
0000
0010
0000
0100
0000
0001
0000
1000
0000
,
0100
0000
0010
0000
0001
0100
0001
0000
0010
0000
0100
0000
1000
0000
0010
0000
,
0100
0000
0001
0000
1000
0001
1000
0000
0100
0000
0010
0000
0011
0000
0000
0000
,
0000
0000
0000
0000
0000
0000
0001
0100
,
1000
0000
0100
0000
0010
0000
0100
0000
0001
0000
0010
0000
0100
1000
0100
0000
,
1000
0000
0010
0000
0100
0001
0100
0000
0011
0000
0000
0000
1000
0000
0100
0000
,
0001
0000
0100
0000
0010
0000
0100
0000
1000
0000
0010
0000
0100
0001
0100
0000
,
0001
0000
0010
0000
0100
1000
0100
0000
1010
0000
0000
0000
0100
0000
0001
0000
,
0100
0000
1000
0000
0100
0000
0001
0000
0100
0000
0010
0000
1000
0010
1000
0000
,
0001
0000
0010
0000
0100
0010
0100
0000
1100
0000
0000
0000
0100
0000
1000
0000
,
0100
0000
0001
0000
0100
0000
1000
0000
0100
0000
0010
0000
0001
0010
0001
0000
,
1000
0000
0010
0000
0100
0010
0100
0000
0101
0000
0000
0000
1001
0000
0000
1000
,
0000
0000
0010
0000
0000
0001
0010
0000
1000
0000
0100
0000
1001
0000
0000
0001
,
0000
0000
0010
0000
0000
1000
0010
0000
0001
0000
0100
0000
1001
0000
0000
1000
,
0000
0000
0001
0000
0000
0100
0010
0000
0100
0000
0010
0000
1000
0100
0000
1000
,
0010
0000
1000
0100
0000
1000
0010
0000
0100
0000
0001
0000
0011
0000
0000
1000
,
0100
0000
0001
0000
0100
0000
1000
0000
0100
0000
1000
0000
1010
0000
0000
0001
,
0100
0000
1000
0000
0100
0000
0001
0000
0100
0000
0001
0000
0011
0000
0000
1000
,
0010
0000
0100
0000
0001
0000
1000
0000
0100
0000
0010
0000
0001
0100
0000
0001
,
0010
0000
0001
0100
0000
0001
0010
0000
0100
0000
1000
0000
1100
0000
0000
0101
,
0000
0000
0110
0000
0000
0001
0000
0000
0100
0000
0010
0000
1010
0000
0000
0011
,
0000
0000
0110
0000
0000
1000
0000
0000
0100
0000
0010
0000
1001
0000
0000
1010
,
0000
0000
0101
0000
0000
0100
0000
0000
0010
0000
0100
0000
1001
0000
0000
0011
,
0000
0000
1100
0000
0000
0100
0000
0000
0010
0000
0000
0000
0000
0100
1000
0100
,
1000
0000
0000
0001
0100
0001
0100
0000
0000
0000
0001
0000
0000
0010
0001
0010
,
0001
0000
0000
1000
0010
1000
0010
0000
0100
0000
0001
0000
0100
0000
1000
0000
,
0100
0000
0001
0000
0100
0000
1000
0000
0100
0000
0001
0000
0010
0100
0010
0000
,
0100
0010
0100
0000
1000
0001
1000
0001
0100
0010
0100
0010
0000
0000
0000
0000
;

//---------------dance-single - ----------------
#NOTES:
     dance-single:
     :
     Easy:
     4:
     0.270,0.268,0.104,0.000,0.000:
0000
0000
0000
0000
,
0000
0000
0000
0000
,
0000
0100
0010
0100
,
0000
1000
0001
1000
,
0000
0100
0010
0001
,
0000
1001
0000
1100
,
0000
1000
0010
1000
,
0000
1010
0000
0100
,
1000
0001
1000
0001
,
0010
0100
0010
0100
,
1000
0100
0001
0100
,
1000
0001
0000
1000
,
0100
1000
0100
0010
,
0001
0010
0001
0100
,
1000
0100
0001
1000
,
0100
0010
0000
0001
,
0010
0001
0010
0100
,
1000
0100
1000
0010
,
0001
0010
1000
0001
,
0100
0010
0000
0100
,
0001
0100
0001
1000
,
0100
1000
0100
0001
,
0100
1000
0010
0100
,
0010
0100
0000
0001
,
1000
0001
0000
0010
,
0100
0010
0000
0001
,
0010
0001
0000
1001
,
0000
0110
1001
1000
,
0001
0100
0000
0010
,
1000
0001
0000
0100
,
0010
0100
0001
1000
,
0100
0010
0000
0100
,
1000
0100
0000
1000
,
0010
1000
0000
0001
,
0100
0010
1000
0001
,
0100
0001
0000
1000
,
0100
0010
0001
1000
,
0010
1000
0001
0100
,
0010
1000
0000
1001
,
0000
1100
0000
1000
,
0100
0010
0100
1000
,
0010
0100
0010
1000
,
0001
0010
0100
1000
,
0100
0010
0000
0001
,
1000
0100
0001
0100
,
1000
0100
0010
0001
,
0100
1000
0100
0010
,
0100
0010
0000
1001
,
0100
1001
0010
1000
,
0100
1000
0000
0001
,
1000
0001
1000
0001
,
1000
0010
0010
0000
;

//---------------dance-single - ----------------
#NOTES:
     dance-single:
     :
     Medium:
     7:
     0.508,0.457,0.302,0.000,0.047:
0000
0000
0000
0000
,
0000
0000
0000
1000
,
0100
0010
0100
1000
,
0100
0001
0100
1100
,
0010
0101
0010
1001
,
1100
0110
1001
0100
,
0010
0000
0100
0000
1000
0000
0100
0001
,
0100
0001
0100
0000
1001
0000
1000
0100
,
1000
0010
1000
0100
1000
0010
0100
0001
,
0010
0001
0100
0001
0010
0001
0100
0010
,
1000
0100
1000
0010
1000
0100
1001
0000
,
0010
0000
1001
0000
0010
0000
0100
1000
,
0100
0001
0100
1000
0100
0001
0100
1000
,
0100
0001
0100
1000
0100
0001
0100
1000
,
0100
0001
0100
1000
0100
0001
0101
0000
,
0010
0000
1100
0000
0010
0000
1000
0100
,
0010
0100
1000
0001
0010
0100
0010
0001
,
1000
0100
0010
0100
1000
0010
1000
0100
,
0010
0001
0010
0001
0010
0100
1100
0000
,
1000
0000
0011
0000
0010
0000
0010
0001
,
0100
0010
1000
0100
1000
0010
0100
0010
,
0100
0001
1000
0100
0010
0001
0010
0001
,
1000
0001
0100
0010
0100
0001
0011
0000
,
0001
0000
0000
0000
1001
0000
0000
0000
1000
0000
0000
0000
1000
0000
0000
0100
,
0000
0000
1100
0000
0000
0000
0100
0000
1000
0000
0100
0000
0010
0000
0000
0001
,
0000
0000
0011
0000
0000
0000
0100
0000
1000
0000
0100
0000
0001
0000
0000
1000
,
0000
1001
0000
1000
0100
0010
1001
1000
,
0001
1000
0001
0010
0100
0010
0110
0000
,
0100
0010
0011
0000
0010
0100
1100
0000
,
0100
0010
0001
0010
0100
0010
0110
0000
,
1000
0010
1010
0000
0001
0010
0011
0000
,
0100
0010
0100
0001
0100
0010
0110
0000
,
1000
0100
0010
0000
0001
0100
0010
0000
,
1000
0100
0001
0100
1000
0010
0100
0000
,
0001
0100
0010
0000
1000
0100
0010
0001
,
0010
0000
0001
0000
0010
0000
0001
0000
0011
0000
0000
0000
1000
0000
0000
0100
,
0000
0000
0010
0000
0000
0000
0001
0000
1000
0000
0001
0000
0100
0000
0000
0010
,
0000
0000
1000
0000
0000
0000
0100
0000
0010
0000
0100
0000
1000
0000
0000
0010
,
0000
0100
0000
0001
0100
0010
1000
0001
,
1000
0000
0001
0000
1000
0000
0001
0000
1000
0000
0000
0000
0010
0000
0000
1000
,
0000
0000
0100
0000
0000
0000
0010
0000
0100
0000
0010
0000
0001
0000
0000
1000
,
0000
0000
0100
0000
0000
0000
1000
0000
0010
0000
0100
0000
0001
0000
0000
0100
,
0000
0001
0000
0010
0100
1000
0001
1000
,
0001
1000
0001
1000
0001
0000
1000
0100
,
0010
0000
0001
0100
1000
0000
0100
0001
,
1000
0000
0010
0100
0001
0000
1000
0100
,
0010
0000
0100
1000
0010
0000
0100
0001
,
0010
0000
0100
1000
0100
0001
0000
1000
,
1000
0000
0100
0100
0000
0000
0000
0010
,
0010
0000
0100
0100
0000
0000
1100
0000
,
0000
0011
0000
0010
0100
1000
0100
0001
,
0100
1000
0001
0100
0001
0100
0000
0000
;

//---------------dance-double - ----------------
#NOTES:
     dance-double:
     :
     Hard:
     9:
     0.563,0.538,0.156,0.000,0.235:
00000000
00000000
00000000
00000000
,
00000000
00000000
00000000
00000000
00000000
00000000
00001000
00010000
,
00100000
00010000
00001000
00000100
00001000
00000000
00010000
00100000
,
10000000
00000000
01000000
00100000
00000000
00100000
00000000
00001000
00010000
00000000
00000000
00000000
00000100
00000000
00000010
00000000
,
00000001
00000100
00001000
00010000
00001000
00000000
00001000
00010000
,
01000000
00000000
10000000
00100000
00000000
00100000
00000000
01000000
00001000
00000000
00000000
00000000
00010000
00000000
00001000
00000000
,
00010000
00100000
00010000
00001000
00000010
00000000
00000100
00001000
,
00000010
00000000
00010000
00001000
00000000
00001000
00000000
00100000
00010000
00000000
00000000
00000000
00010000
00000000
01000000
00000000
,
00001000
00010000
01000000
00010000
00001000
00000100
00000001
00000100
,
00001000
00000001
00000010
00001000
00000010
00000001
00001000
00010000
,
00001000
00000000
00000010
00000000
00001000
00000000
00010000
00000000
01000000
00000000
10000000
00000000
01000000
00010000
00000000
01000000
,
10000000
00000000
01000000
00010000
00000000
01000000
10000000
00000000
00000000
00000000
00000000
00000000
10000000
00000000
00100000
00000000
,
00010000
00100000
10000000
00100000
00010000
00100000
10000000
00010000
,
01000000
00001000
00010000
00100000
00010000
00001000
00000100
00001000
,
00000001
00000000
00000010
00000000
00001000
00000000
00000100
00000000
00000010
00000000
00000100
00000000
00010000
00001000
00000000
00000100
,
00001000
00000000
00010000
00100000
00000000
00010000
00001000
00000000
00000000
00000000
00000000
00000000
01000000
00000000
00100000
00000000
,
00010000
00100000
10000000
01000000
00010000
01000000
10000000
00010000
,
00100000
01000000
00010000
00001000
00000100
00000001
00000100
00001000
,
00010000
00000000
00100000
00000000
00010000
00000000
00001000
00000000
00000010
00000000
00000001
00000000
00000100
00001000
00000000
00000100
,
00000001
00000000
00000100
00001000
00000000
00000100
00000001
00000000
00000000
00000000
00000000
00000000
00001000
00000000
00000100
00000000
,
00010000
00001000
00000000
00000010
00001000
00010000
00100000
00010000
,
10000000
01000000
00000000
00010000
00100000
01000000
10000000
00100000
,
00010000
00000000
00001000
00000000
00000000
00000000
00000010
00000000
00001000
00000000
00010000
00000000
00001000
00010000
00000000
00001000
,
00010000
00000000
00001000
00010000
00000000
00001000
00010000
00000000
00000000
00000000
00000000
00000000
00001000
00000000
00000010
00000000
,
00001000
00010000
00000000
00001000
00100000
01000000
10000000
01000000
,
00010000
00001000
00000000
00000100
00000010
00000100
00001000
00010000
,
01000000
00000000
10000000
00000000
00000000
00000000
00100000
00000000
01000000
00000000
00010000
00000000
01000000
00000000
00010000
01000000
,
00010000
01000000
00010000
01000000
00010000
01000000
00010000
00000000
10000000
00000000
00100000
10000000
00100000
00000000
00000000
00000000
,
10000000
01000000
00110000
00000000
00001000
00010000
00010010
00000000
,
00010000
00001000
00101000
00000000
00010000
00000100
00011000
00000000
,
01000000
00100000
01000000
00000000
00001000
00010000
00000100
00000000
,
00000010
00000001
00000010
00000100
00010000
00001000
00010000
00000000
,
00100000
01000000
01100000
00000000
00001000
00010000
00010100
00000000
,
00010000
00001000
01001000
00000000
00100000
00010000
00100000
00000000
,
00001000
00010000
00001000
00000000
00100000
00001000
00010000
00001000
,
00000010
00001000
00010000
00000000
01100000
00000000
10010000
00010000
,
01000000
10000000
01000000
00010000
10000000
00100000
00010000
00100000
,
10000000
00010000
00100000
00001000
00010000
01000000
00010000
00001000
,
01000000
00000000
00100000
00000000
00010000
00000000
00001000
00000000
00000010
00000000
00000001
00000000
00000100
00000001
00000000
00000010
,
00000001
00000000
00000100
00000001
00000000
00000010
00000001
00000000
00000000
00000000
00000000
00000000
00001000
00000000
00000000
00000100
,
00000000
00000000
00011000
00000000
00000000
00000000
00100000
00000000
00010000
00000000
00100000
00000000
10000000
00000000
00000000
01000000
,
00000000
00000000
00110000
00000000
00000000
00000000
00010000
00000000
00001000
00000000
00000010
00000000
00000100
00000000
00000000
00001000
,
00000000
00000101
00000000
00001000
00000100
00010000
00001000
00100000
,
01000000
00000000
10000000
00000000
00000000
00000000
00000000
00000000
00000000
00000000
00000000
00000000
00100000
00000000
00000000
00100000
,
01000000
00000000
00000000
01000000
00001000
00000000
00010000
00000000
01000000
00000000
00010000
00000000
00001000
00000000
00000000
00001000
,
00000100
00000000
00000000
00000100
00000001
00000000
00000010
00000000
00001000
00000000
00010000
00000000
00100000
00000000
00000000
00100000
,
10000000
00000000
00000000
10000000
00010000
00000000
01000000
00000000
10000000
00000000
01000000
00000000
00010000
00000000
00000000
00010000
,
00100000
00000000
00000000
00100000
00001000
00000000
00010000
00000000
01000000
00000000
10000000
00000000
00000000
00000000
01000000
00000000
,
00100000
00000000
00001000
00000010
00000000
00000000
00000000
00000100
,
00010000
00000000
00001000
00100000
00000000
00000000
01000000
10000000
,
00100000
00010000
00001000
00010000
00100000
00010000
00001000
00000100
,
00000001
00000100
00001000
00001100
00011000
00110000
00000000
00000000
;
