#TITLE:brave heart;
#SUBTITLE:;
#ARTIST:Ayumi Miyazaki;
#TITLETRANSLIT:;
#SUBTITLETRANSLIT:;
#ARTISTTRANSLIT:;
#GENRE:;
#CREDIT:;
#BANNER:brave heart.png;
#BACKGROUND:brave heart-bg.png;
#LYRICSPATH:;
#CDTITLE:;
#MUSIC:brave heart.mp3;
#OFFSET:-6.340000;
#SAMPLESTART:31.690001;
#SAMPLELENGTH:15.000000;
#SELECTABLE:YES;
#DISPLAYBPM:142.000000;
#BPMS:0.000000=142.009995
;
#STOPS:
;
#BGCHANGES:;
#KEYSOUNDS:;
#ATTACKS:;

//---------------dance-single - ----------------
#NOTES:
     dance-single:
     :
     Easy:
     4:
     0.191124,0.254785,0.149526,0.094438,0.000000,170.000000,151.000000,19.000000,12.000000,0.000000,0.000000,0.191124,0.254785,0.149526,0.094438,0.000000,170.000000,151.000000,19.000000,12.000000,0.000000,0.000000:
0000
0000
0000
0000
,
0000
0000
0000
0000
,
0000
0000
0000
0000
,
0001
0100
1000
0000
,
1000
0100
0001
0000
,
0110
0000
0000
1000
,
1001
0000
0000
0000
,
0010
0100
1000
0000
,
0100
0100
0010
0000
,
0110
0000
0000
0100
,
1000
0001
0000
0000
,
0100
0100
0010
0000
,
1000
0000
0001
0000
,
0010
0010
0100
0000
,
1000
0000
0001
0000
,
0100
0001
0001
0000
,
0100
0100
0001
1000
,
0010
0000
0100
0000
,
0020
0000
0030
0000
,
1001
0100
0010
0000
,
1000
0000
0010
0000
,
0100
0001
0000
1000
,
0000
0020
0000
0030
,
1001
0000
1001
0000
,
1000
0100
0010
0001
,
0110
0000
0110
0000
,
0100
1000
0001
0010
,
2000
0000
0000
3000
,
0002
0000
0000
0003
,
0010
0000
0010
0000
,
1000
0100
0001
0010
,
2002
0000
0000
3003
,
1001
0000
0001
1000
,
0020
0100
0130
0000
,
0110
0000
0010
0100
,
0002
1000
1003
0000
,
0100
0010
0010
0001
,
0100
0010
1000
0100
,
0000
0000
0100
0000
,
1000
0100
0010
0001
,
0110
0000
0100
0010
,
2000
0001
3001
0000
,
1001
0000
0001
1000
,
0020
0100
0130
0000
,
1000
0001
0100
0000
,
0100
0010
1000
0000
,
0100
0001
0010
1001
,
0100
0000
0000
0010
,
1001
0000
0100
0010
,
0001
0100
1000
0000
,
1000
0100
0001
0000
,
0110
0000
0000
1000
,
1001
0000
0000
0000
,
0010
0100
1000
0000
,
0100
0100
0010
0000
,
0110
0000
0000
0100
,
1000
0001
0000
0000
,
0100
0100
0010
0000
,
1000
0000
0001
0000
,
0010
0010
0100
0000
,
1000
0000
0001
0000
,
0220
0000
0000
0000
,
0000
0000
0000
0000
,
0000
0000
0000
0000
,
0000
0000
0000
0330
;

//---------------dance-single - ----------------
#NOTES:
     dance-single:
     :
     Beginner:
     2:
     0.101183,0.152871,0.023609,0.118047,0.000000,90.000000,87.000000,3.000000,15.000000,0.000000,0.000000,0.101183,0.152871,0.023609,0.118047,0.000000,90.000000,87.000000,3.000000,15.000000,0.000000,0.000000:
0000
0000
0000
0000
,
0000
0000
0000
0000
,
0000
0000
0000
0000
,
2000
0000
3000
0000
,
0002
0000
0003
0000
,
1000
0000
0000
0000
,
0001
0000
0000
0000
,
0200
0000
0300
0000
,
0020
0000
0030
0000
,
0100
0000
0000
0000
,
0010
0000
0000
0000
,
1000
0000
1000
0000
,
0001
0000
0001
0000
,
0100
0000
0100
0000
,
0010
0000
0010
0000
,
1000
0000
0000
0000
,
0001
0000
0000
0000
,
0100
0000
0100
0000
,
0010
0000
0000
0000
,
0010
0000
0000
0000
,
0100
0000
0000
0000
,
0001
0000
0001
0000
,
1000
0000
0000
0000
,
2002
0000
3003
0000
,
0001
0000
1000
0000
,
0220
0000
0330
0000
,
0010
0000
0100
0000
,
0000
0000
0001
0000
,
0010
0000
0100
0000
,
1000
0000
0000
0000
,
0010
0010
0010
0010
,
0020
0000
0030
0000
,
0100
0000
0000
0000
,
1000
0000
0001
0000
,
1000
0000
0000
0000
,
0010
0000
0100
0000
,
0010
0000
0000
0000
,
0001
0000
0000
0000
,
1000
0000
0000
0000
,
0100
0100
0100
0100
,
0100
0000
0000
0000
,
0001
0000
1000
0000
,
0001
0000
0000
0000
,
0010
0000
0100
0000
,
0010
0000
0000
0100
,
0100
0000
0000
0010
,
0010
0000
0000
1000
,
1000
0000
0000
0001
,
0001
0000
0000
1000
,
2000
0000
3000
0000
,
0002
0000
0003
0000
,
1000
0000
0000
0000
,
0001
0000
0000
0000
,
0200
0000
0300
0000
,
0020
0000
0030
0000
,
0100
0000
0000
0000
,
0010
0000
0000
0000
,
1000
0000
1000
0000
,
0001
0000
0001
0000
,
0100
0000
0100
0000
,
0010
0000
0010
0000
,
0220
0000
0000
0000
,
0000
0000
0000
0000
,
0000
0000
0000
0000
,
0000
0000
0000
0330
;

//---------------dance-single - ----------------
#NOTES:
     dance-single:
     :
     Medium:
     7:
     0.268698,0.356699,0.299052,0.047219,0.019675,239.000000,201.000000,38.000000,6.000000,0.000000,0.000000,0.268698,0.356699,0.299052,0.047219,0.019675,239.000000,201.000000,38.000000,6.000000,0.000000,0.000000:
0000
0000
0000
0000
,
0000
0000
0000
0000
,
0000
0000
0000
0000
,
1000
0100
0001
0010
,
1000
0100
0010
0001
,
0110
0000
0000
0000
0000
0000
0100
0100
,
0010
0000
0000
0110
,
0100
1000
0010
0001
,
0100
1000
0001
0010
,
1001
0000
0000
0000
0000
0000
1000
1000
,
0001
0000
0000
0000
0000
0000
1000
0100
,
0001
0100
0010
0000
,
0100
0000
0001
0000
0000
0000
0010
0001
,
1000
0010
0001
0000
,
0100
0010
0000
0000
,
0101
0000
0010
0000
1000
0000
0000
0001
,
0000
0001
0100
0000
1000
0000
1100
0000
,
0000
0000
0000
0000
0010
0000
0010
1000
,
0000
0000
0010
0000
,
1010
0000
0100
0000
0010
0000
0000
1000
,
0000
1000
0010
0000
0001
0000
0011
0000
,
0000
0000
0000
0000
0001
0000
0001
0100
,
0000
0100
0000
1001
0000
0000
0000
0000
,
0001
0101
1000
1100
,
0020
0000
0031
0000
,
0200
0000
1300
0000
,
1000
1001
0010
0110
,
0001
0000
0000
0000
0000
0000
0000
0000
0010
0000
0000
0010
0000
0000
0010
0000
,
0100
1000
0100
0001
,
0100
0000
0110
0000
,
0011
0101
1100
1010
,
2002
0000
0000
3003
,
0110
0000
0000
0000
0000
0000
0100
0000
1000
0000
0000
1000
0000
0000
1000
0000
,
0001
0100
0101
0000
,
1001
0000
0000
0000
0000
0000
1000
0000
0100
0000
0000
0100
0000
0000
0100
0000
,
0010
1000
1010
0000
,
1000
0110
0110
0001
,
1000
1001
1001
0010
,
0100
0000
0000
0000
0001
0000
0001
0010
,
0000
1100
0101
1100
,
0110
0000
0000
0000
0000
0000
0100
0000
1000
0000
0000
1000
0000
0000
1000
0000
,
0001
0100
0101
0000
,
1001
0000
0000
0000
0000
0000
1000
0000
0100
0000
0000
0100
0000
0000
0100
0000
,
0010
1000
1010
0000
,
1000
0000
1000
0000
1000
0001
1000
0000
,
0001
0000
0001
0000
0001
1000
0001
0000
,
0010
0000
0100
0000
0010
0100
0010
0000
,
1000
0000
0000
0010
0000
0000
0001
0000
,
1000
0000
0000
0000
0010
0100
0010
0000
,
1000
0100
0001
0010
,
1000
0100
0010
0001
,
0110
0000
0000
0000
0000
0000
0100
0100
,
0010
0000
0000
0110
,
0100
1000
0010
0001
,
0100
1000
0001
0010
,
1001
0000
0000
0000
0000
0000
1000
1000
,
0001
0000
0000
0000
0000
0000
1000
0100
,
0001
0100
0010
0000
,
0100
0000
0001
0000
0000
0000
0010
0001
,
1000
0010
0001
0000
,
0100
0010
0000
0000
,
1001
0000
0000
0220
0000
0000
0000
0000
,
0000
0000
0000
0000
,
0000
0000
0000
0000
,
0000
0000
0000
0330
;

//---------------dance-single - ----------------
#NOTES:
     dance-single:
     :
     Hard:
     9:
     0.372129,0.433134,0.259703,0.047219,0.023609,331.000000,298.000000,33.000000,6.000000,0.000000,0.000000,0.372129,0.433134,0.259703,0.047219,0.023609,331.000000,298.000000,33.000000,6.000000,0.000000,0.000000:
// measure 0
0000
0000
0000
0000
,  // measure 1
0000
0000
0000
0000
,  // measure 2
0000
0000
0000
0000
,  // measure 3
0001
0000
1000
0001
1000
0000
0010
1000
,  // measure 4
0010
0000
0100
0010
0100
0000
0010
0100
,  // measure 5
1001
0000
0000
0000
0000
1000
0100
0010
,  // measure 6
0001
0000
0000
0110
,  // measure 7
0010
0000
0100
0010
0100
0000
1000
0100
,  // measure 8
1000
0000
0001
1000
0001
0000
1000
0001
,  // measure 9
0110
0000
0000
0000
0000
0100
1000
0001
,  // measure 10
0010
0000
0000
0000
0000
0000
0001
0100
,  // measure 11
1000
0000
1000
0001
0000
0010
1000
0100
,  // measure 12
0010
0000
1000
1000
0000
0100
0010
0001
,  // measure 13
0100
0000
0010
0010
0000
1000
0100
0010
,  // measure 14
0001
0000
1000
1000
0000
0010
0001
0000
,  // measure 15
1100
0000
1000
1000
0001
1000
0000
0110
,  // measure 16
0000
0001
0010
0001
0100
0010
1000
0100
,  // measure 17
0000
0000
0011
0000
1000
0100
0010
0002
,  // measure 18
0000
0100
1000
0013
,  // measure 19
0101
0000
0010
1000
0100
0100
0000
0110
,  // measure 20
0000
0010
0001
0010
1000
0100
0010
0001
,  // measure 21
0000
0000
0101
0000
0010
1000
0000
1100
,  // measure 22
0000
0010
0001
0200
0010
0000
0310
0001
,  // measure 23
0100
0000
0010
1000
0100
0000
1000
0100
,  // measure 24
0010
1001
0100
1001
,  // measure 25
0010
1000
0100
0000
0010
0001
0100
0000
,  // measure 26
0001
0110
1000
0110
,  // measure 27
0001
0000
1000
0000
0001
0000
0000
0000
1100
0000
0000
1100
0000
0000
1000
0000
,  // measure 28
0001
0110
1100
1100
,  // measure 29
1001
0000
0110
0000
,  // measure 30
1000
0100
1000
0010
0001
0010
0100
1000
,  // measure 31
0200
0000
0000
0010
0000
0000
0020
0000
0000
0000
0000
0000
0330
0000
0000
0000
,  // measure 32
0110
0000
0000
0000
1000
0000
0100
0000
0001
0000
0000
1000
0000
0000
0001
0000
,  // measure 33
0010
0000
1000
0001
0100
0000
0000
0000
,  // measure 34
1001
0000
0000
0000
0100
0000
1000
0000
0010
0000
0000
0100
0000
0000
0010
0000
,  // measure 35
0001
0000
0100
0010
1000
0000
0000
0000
,  // measure 36
1000
0000
1000
0100
0001
0000
0001
0000
,  // measure 37
0001
0010
0100
0000
0100
0000
0100
1000
,  // measure 38
0010
0000
0000
0000
1000
0100
0010
0001
,  // measure 39
0000
1000
0100
1000
0010
0001
0100
0000
,  // measure 40
0110
0000
0000
0000
0001
0000
0010
0000
1000
0000
0000
0001
0000
0000
1000
0000
,  // measure 41
0100
0000
0001
1000
0010
0000
0000
0000
,  // measure 42
1001
0000
0000
0000
0010
0000
0001
0000
0100
0000
0000
0010
0000
0000
0100
0000
,  // measure 43
1000
0000
0010
0100
0001
0000
0000
0000
,  // measure 44
1000
0000
1000
0100
0001
0100
1000
0000
,  // measure 45
0001
0000
0001
0010
1000
0010
0001
0000
,  // measure 46
0100
0000
0100
0001
0010
0100
1000
0000
,  // measure 47
0110
0000
0000
1001
0000
0000
1100
0000
,  // measure 48
0011
0000
0000
1000
0100
0010
0001
0000
,  // measure 49
0001
0000
1000
0001
1000
0000
0010
1000
,  // measure 50
0010
0000
0100
0010
0100
0000
0010
0100
,  // measure 51
1001
0000
0000
0000
0000
1000
0100
0010
,  // measure 52
0001
0000
0000
0110
,  // measure 53
0010
0000
0100
0010
0100
0000
1000
0100
,  // measure 54
1000
0000
0001
1000
0001
0000
1000
0001
,  // measure 55
0110
0000
0000
0000
0000
0100
1000
0001
,  // measure 56
0010
0000
0000
0000
0000
0000
0001
0100
,  // measure 57
1000
0000
1000
0001
0000
0010
1000
0100
,  // measure 58
0010
0000
1000
1000
0000
0100
0010
0001
,  // measure 59
0100
0000
0010
0010
0000
1000
0100
0010
,  // measure 60
0001
0000
1000
1000
0000
0010
0001
0000
,  // measure 61
1001
0000
2000
0002
0000
0000
0000
0000
,  // measure 62
0000
0000
0000
0000
,  // measure 63
0000
0000
0000
0000
,  // measure 64
0000
0000
0000
3003
;

//---------------dance-single - ----------------
#NOTES:
     dance-single:
     :
     Challenge:
     8:
     0.256331,0.356699,0.283313,0.047219,0.019675,228.000000,192.000000,36.000000,6.000000,88.000000,0.000000,0.256331,0.356699,0.283313,0.047219,0.019675,228.000000,192.000000,36.000000,6.000000,88.000000,0.000000:
0000
0000
0000
0000
,
0000
0000
0000
0000
,
0000
0000
0000
0000
,
1000
0100
0001
0010
,
MMMM
0100
0010
0001
,
0110
0000
0000
0000
0000
0000
0100
0100
,
0010
0000
0000
0110
,
0100
1000
0010
0001
,
MMMM
1000
0001
0010
,
1001
0000
0000
0000
0000
0000
1000
1000
,
0001
0000
0000
0000
0000
0000
1000
0100
,
0001
0100
0010
MMMM
,
0100
0000
0001
0000
0000
0000
0010
0001
,
1000
0010
0001
MMMM
,
0100
0010
0000
0000
,
0101
0000
0010
0000
1000
0000
0000
0001
,
0000
0001
0100
0000
1000
0000
1100
0000
,
0000
0000
0000
0000
0010
0000
0010
1000
,
MMMM
0000
0010
0000
,
1010
0000
0100
0000
0010
0000
0000
1000
,
0000
1000
0010
0000
0001
0000
0011
0000
,
0000
0000
0000
0000
0001
0000
0001
0100
,
MMMM
0100
0000
1001
0000
0000
0000
0000
,
0001
0101
1000
1100
,
0020
0000
0031
0000
,
0200
0000
1300
0000
,
1000
1001
0010
0110
,
0001
0000
0000
0000
0000
0000
0000
0000
0010
0000
0000
0010
0000
0000
0010
0000
,
0100
1000
0100
0001
,
0100
MMMM
0110
MMMM
,
0011
0101
1100
1010
,
2002
0000
0000
3003
,
0110
0000
0000
0000
MMMM
0000
0100
0000
1000
0000
0000
1000
0000
0000
1000
0000
,
0001
0100
0101
0000
,
1001
0000
0000
0000
MMMM
0000
1000
0000
0100
0000
0000
0100
0000
0000
0100
0000
,
0010
1000
1010
0000
,
1000
0110
MMMM
0001
,
1000
1001
MMMM
0010
,
0100
0000
0000
0000
0001
0000
0001
0010
,
MMMM
1100
0101
1100
,
0110
0000
0000
0000
MMMM
0000
0100
0000
1000
0000
0000
1000
0000
0000
1000
0000
,
0001
0100
0101
0000
,
1001
0000
0000
0000
MMMM
0000
1000
0000
0100
0000
0000
0100
0000
0000
0100
0000
,
0010
1000
1010
0000
,
1000
0000
1000
0000
1000
0001
MMMM
0000
,
0001
0000
0001
0000
0001
1000
MMMM
0000
,
0010
0000
0100
0000
0010
0100
MMMM
0000
,
1000
0000
0000
0010
0000
0000
0001
0000
,
1000
0000
0000
0000
0010
0100
0010
0000
,
1000
0100
0001
0010
,
MMMM
0100
0010
0001
,
0110
0000
0000
0000
0000
0000
0100
0100
,
0010
0000
0000
0110
,
0100
1000
0010
0001
,
MMMM
1000
0001
0010
,
1001
0000
0000
0000
0000
0000
1000
1000
,
0001
0000
0000
0000
0000
0000
1000
0100
,
0001
0100
0010
MMMM
,
0100
0000
0001
0000
0000
0000
0010
0001
,
1000
0010
0001
MMMM
,
0100
0010
0000
0000
,
1001
0000
0000
0220
0000
0000
0000
0000
,
0000
0000
0000
0000
,
0000
0000
0000
0000
,
0000
0000
0000
0330
;
