#VERSION:0.83;
#TITLE:brave heart;
#SUBTITLE:-tri.Version-;
#ARTIST:Ayumi Miyazaki;
#TITLETRANSLIT:;
#SUBTITLETRANSLIT:;
#ARTISTTRANSLIT:;
#GENRE:;
#ORIGIN:;
#CREDIT:;
#BANNER:brave heart -tri.Version-.png;
#BACKGROUND:brave heart -tri.Version--bg.png;
#PREVIEWVID:;
#JACKET:brave heart -tri.Version--jacket.png;
#CDIMAGE:;
#DISCIMAGE:;
#LYRICSPATH:;
#CDTITLE:cdtitle.png;
#MUSIC:brave heart -tri.Version-.mp3;
#OFFSET:-7.400000;
#SAMPLESTART:61.199997;
#SAMPLELENGTH:15.000000;
#SELECTABLE:YES;
#DISPLAYBPM:71.000000:142.000000;
#BPMS:0.000=141.980,
244.000=70.990,
260.000=141.980,
292.000=85.250,
295.000=141.980,
444.000=70.990,
459.875=141.980;
#STOPS:;
#DELAYS:;
#WARPS:;
#TIMESIGNATURES:0.000=4=4;
#TICKCOUNTS:0.000=4;
#COMBOS:0.000=1;
#SPEEDS:0.000=1.000=0.000=0;
#SCROLLS:0.000=1.000;
#FAKES:;
#LABELS:0.000=Song Start;
#BGCHANGES:12.000=brave heart -tri.Version-.avi=1.000=1=0=0=StretchNoLoop==CrossFade==,
99999=-nosongbg-=1.000=0=0=0 // don't automatically add -songbackground-
;
#KEYSOUNDS:;
#ATTACKS:
;

//---------------dance-single - ----------------
#NOTEDATA:;
#CHARTNAME:;
#STEPSTYPE:dance-single;
#DESCRIPTION:;
#CHARTSTYLE:;
#DIFFICULTY:Easy;
#METER:8;
#RADARVALUES:0.260136,0.351442,0.215102,0.144638,0.000000,491.000000,433.000000,58.000000,39.000000,0.000000,0.000000,0.000000,0.000000,0.000000,0.260136,0.351442,0.215102,0.144638,0.000000,491.000000,433.000000,58.000000,39.000000,0.000000,0.000000,0.000000,0.000000,0.000000;
#CREDIT:kater15;
#DISPLAYBPM:71.000000:142.000000;
#NOTES:
// measure 0
0000
0000
0000
0000
,  // measure 1
0000
0000
0000
0000
,  // measure 2
0000
0000
0000
0000
,  // measure 3
0001
0001
1000
0001
,  // measure 4
1000
1000
0001
1000
,  // measure 5
0002
0000
0000
0003
,  // measure 6
2000
0000
0000
3000
,  // measure 7
0010
0010
0100
0010
,  // measure 8
0100
0100
0010
0100
,  // measure 9
0020
0000
0000
0030
,  // measure 10
0200
0000
0000
0300
,  // measure 11
0010
0100
1001
0000
,  // measure 12
1000
0100
0001
0000
,  // measure 13
0001
1000
0110
0000
,  // measure 14
0100
1000
0010
0000
,  // measure 15
1001
0100
0100
0001
,  // measure 16
1000
0010
0010
1000
,  // measure 17
0100
0010
0002
0003
,  // measure 18
2000
3000
0020
0030
,  // measure 19
0110
1000
0100
1000
,  // measure 20
0010
0000
0001
0000
0010
0000
1000
0001
,  // measure 21
0100
0020
0030
0200
,  // measure 22
0300
0000
2000
0000
3000
0000
0001
0010
,  // measure 23
0001
0100
0010
0000
,  // measure 24
1000
0010
0100
0010
,  // measure 25
0010
1001
0100
0000
,  // measure 26
0001
0000
0000
0000
1000
0000
0010
0010
,  // measure 27
0010
0000
1001
0000
0000
0000
0100
0100
,  // measure 28
0100
1001
0010
0100
,  // measure 29
1001
0000
0110
0000
,  // measure 30
1100
0101
0011
1010
,  // measure 31
2002
0000
0000
3003
,  // measure 32
0110
0000
1000
0100
,  // measure 33
0020
0100
0130
0000
,  // measure 34
1001
0000
0001
1000
,  // measure 35
0020
0100
0130
0000
,  // measure 36
1000
1001
0010
0110
,  // measure 37
1000
0100
0001
0000
0010
0000
1000
0000
,  // measure 38
0002
0000
1000
1003
,  // measure 39
0001
0010
0100
1000
,  // measure 40
0110
0000
1000
0100
,  // measure 41
0020
0100
0130
0000
,  // measure 42
1001
0000
0001
1000
,  // measure 43
0020
0100
0130
0000
,  // measure 44
0001
0000
0001
0000
0001
1000
0001
0000
,  // measure 45
1000
0000
1000
0000
1000
0001
1000
0000
,  // measure 46
0010
0000
0100
0000
0010
0100
0010
0000
,  // measure 47
1001
0000
0000
0001
0000
0000
1000
0000
,  // measure 48
0010
0000
0000
0000
0001
0001
0001
0000
,  // measure 49
1000
1000
0001
1000
,  // measure 50
0001
0001
1000
0001
,  // measure 51
2000
0000
0000
3000
,  // measure 52
0002
0000
0000
0003
,  // measure 53
0100
0100
0010
0100
,  // measure 54
0010
0010
0100
0010
,  // measure 55
0200
0000
0000
0300
,  // measure 56
0020
0000
0000
0030
,  // measure 57
0100
0010
1001
0000
,  // measure 58
0001
0010
1000
0000
,  // measure 59
1000
0001
0110
0000
,  // measure 60
0010
0001
0100
0000
,  // measure 61
1001
0001
1000
0001
,  // measure 62
0100
0010
0100
0010
,  // measure 63
0110
1000
0100
0010
,  // measure 64
0001
0000
0010
0000
0100
0000
1000
0100
,  // measure 65
1000
0010
0100
0000
,  // measure 66
0001
0100
0010
0100
,  // measure 67
0100
1001
0010
0000
,  // measure 68
1000
0000
0000
0000
0001
0000
0100
0100
,  // measure 69
0100
0000
1001
0000
0000
0000
0010
0010
,  // measure 70
0010
1001
0100
0010
,  // measure 71
1001
0000
0110
0000
,  // measure 72
0011
1010
1100
0101
,  // measure 73
2002
0000
0000
3003
,  // measure 74
0110
0000
0001
0010
,  // measure 75
0200
0010
0310
0000
,  // measure 76
1001
0000
1000
0001
,  // measure 77
0200
0010
0310
0000
,  // measure 78
0001
1001
0100
0110
,  // measure 79
0001
0010
1000
0000
0100
0000
0001
0000
,  // measure 80
2000
0000
0001
3001
,  // measure 81
1000
0100
0010
0001
,  // measure 82
0110
0000
0001
0010
,  // measure 83
0200
0010
0310
0000
,  // measure 84
1001
0000
1000
0001
,  // measure 85
0200
0010
0310
0000
,  // measure 86
1000
0000
1000
0000
1000
0001
1000
0000
,  // measure 87
0001
0000
0001
0000
0001
1000
0001
0000
,  // measure 88
0100
0000
0010
0000
0100
0010
0100
0000
,  // measure 89
1001
0000
0000
1000
0000
0000
0001
0000
,  // measure 90
0100
0000
0000
0000
1000
1000
1000
0000
,  // measure 91
1001
0000
0110
0000
,  // measure 92
0000
0010
0100
0010
,  // measure 93
0110
0000
1001
0000
,  // measure 94
0000
1000
0001
1000
,  // measure 95
1100
0000
0011
0000
,  // measure 96
0000
0001
0100
0010
,  // measure 97
0101
0000
1010
0000
,  // measure 98
0002
0000
0000
0003
,  // measure 99
0100
0100
0001
0010
,  // measure 100
0100
0100
0100
0000
0010
0010
0010
0000
,  // measure 101
1000
0100
0010
0001
,  // measure 102
0100
0010
0010
0000
,  // measure 103
0001
1000
0010
0100
,  // measure 104
0001
0001
0001
0000
1000
1000
1000
0000
,  // measure 105
0010
0100
0001
0010
,  // measure 106
0100
1000
0010
0100
,  // measure 107
0001
0000
1000
0000
,  // measure 108
0010
0000
0100
0000
,  // measure 109
0001
0000
0010
0000
,  // measure 110
0100
0000
1000
0000
,  // measure 111
1001
0000
1000
0100
0001
0000
0001
0000
,  // measure 112
0110
0000
0100
1000
0010
0000
0010
0000
,  // measure 113
2000
3001
0002
1003
,  // measure 114
0001
0000
1000
0100
2000
0000
0000
3000
,  // measure 115
0110
0000
1000
0100
,  // measure 116
0020
0100
0130
0000
,  // measure 117
1001
0000
0001
1000
,  // measure 118
0020
0100
0130
0000
,  // measure 119
0001
0000
0001
0000
0001
1000
0001
0000
,  // measure 120
1000
0000
1000
0000
1000
0001
1000
0000
,  // measure 121
0010
1000
0100
0010
,  // measure 122
0001
0001
0002
0000
0000
0000
0003
0000
,  // measure 123
1000
1000
0001
1000
,  // measure 124
0001
0001
1000
0001
,  // measure 125
2000
0000
0000
3000
,  // measure 126
0002
0000
0000
0003
,  // measure 127
0100
0100
0010
0100
,  // measure 128
0010
0010
0100
0010
,  // measure 129
0200
0000
0000
0300
,  // measure 130
0020
0000
0000
0030
,  // measure 131
0100
0010
1001
0000
,  // measure 132
0001
0010
1000
0000
,  // measure 133
1000
0001
0110
0000
,  // measure 134
0010
0001
0100
0000
,  // measure 135
1001
0000
0000
0110
0000
0000
0000
0000
;

//---------------dance-single - ----------------
#NOTEDATA:;
#CHARTNAME:;
#STEPSTYPE:dance-single;
#DESCRIPTION:;
#CHARTSTYLE:;
#DIFFICULTY:Medium;
#METER:10;
#RADARVALUES:0.359740,0.431086,0.307819,0.114969,0.048213,679.000000,596.000000,83.000000,31.000000,0.000000,0.000000,0.000000,0.000000,0.000000,0.359740,0.431086,0.307819,0.114969,0.048213,679.000000,596.000000,83.000000,31.000000,0.000000,0.000000,0.000000,0.000000,0.000000;
#CREDIT:kater15;
#DISPLAYBPM:71.000000:142.000000;
#NOTES:
0000
0000
0000
0000
,
0000
0000
0000
0000
,
0000
0000
0000
0000
,
1000
0000
0100
1000
0010
0000
0001
0000
,
0001
0000
0010
1000
0100
0000
1000
0000
,
0022
0000
0033
0000
0000
1000
0001
0100
,
2000
0000
3000
0000
,
0100
0000
1000
0100
0001
0000
0010
0000
,
0010
0000
0001
0100
1000
0000
0100
0000
,
2200
0000
3300
0000
0000
0100
0010
1000
,
0200
0000
0000
0000
0300
0000
1000
0100
,
1000
0000
0000
0000
0110
0000
0000
0000
0001
0000
0000
0001
0000
0000
0001
0000
,
0100
0000
0000
0000
1001
0000
0000
0000
0100
0000
0000
0100
0000
0000
0100
0000
,
0001
0000
0000
0000
1010
0000
0000
0000
0010
0000
0000
1000
0000
0000
0001
0000
,
0100
0000
0000
0000
0101
0000
0000
0000
0010
0000
0000
0100
0000
0000
0010
0000
,
1000
0000
0110
0000
0100
0010
0001
0010
,
0100
0000
0001
0000
1000
0000
0100
0001
,
0010
1000
0010
0000
0001
0000
0010
0000
,
0100
0000
0000
0000
0000
0000
0000
0000
0001
0000
0000
1000
0000
0000
0001
0000
,
0100
0000
1010
0000
0100
0001
1000
0010
,
0010
0000
0001
0000
0010
0000
1000
0001
,
0100
0100
0010
0000
0001
0000
0100
0000
,
0010
0000
0000
0000
0100
0000
0010
0100
,
1000
0001
0010
0000
1010
0000
0100
1000
,
0010
0000
0001
0000
0010
0000
1000
0001
,
0100
0010
0001
0000
0100
0000
1010
0000
,
0001
0000
0011
0000
1000
0000
0010
0001
,
0100
0000
0011
0000
0101
0000
0100
1000
,
0010
0000
1100
0000
1010
0000
1000
0001
,
0100
0000
1001
0000
,
1001
0110
1001
0110
,
2000
0000
0000
0001
0000
0000
3010
0000
,
0100
0000
0000
0001
0010
0000
0100
0000
,
1001
0000
0010
0100
0010
0000
0000
0000
,
0100
0000
0000
0010
0001
0000
1000
0000
,
0110
0000
0001
1000
0001
0000
0000
0000
,
0010
0000
0110
0000
0110
0000
1000
1000
,
0100
0000
0001
0000
0010
0000
1000
0001
,
0001
0000
1100
0000
1000
0100
1000
0020
,
0000
0000
0030
0100
,
0010
0000
0000
1000
0100
0000
0010
0000
,
1001
0000
0100
0010
0100
0000
0000
0000
,
0010
0000
0000
0100
1000
0000
0001
0000
,
0110
0000
1000
0001
1000
0000
0000
0000
,
1000
0000
0100
0000
0001
0010
1000
0000
,
0100
0000
1000
0000
0010
0001
0100
0000
,
1010
0101
0011
1100
,
2000
0000
0000
0100
0000
0000
0001
0000
,
0010
0000
0001
3001
,
1000
0000
0100
1000
0010
0000
0001
0000
,
0001
0000
0010
1000
0100
0000
1000
0000
,
0022
0000
0033
0000
0000
1000
0001
0100
,
2000
0000
3000
0000
,
0100
0000
1000
0100
0001
0000
0010
0000
,
0010
0000
0001
0100
1000
0000
0100
0000
,
2200
0000
3300
0000
0000
0100
0010
1000
,
0200
0000
0000
0000
0300
0000
1000
0100
,
1000
0000
0000
0000
0110
0000
0000
0000
0001
0000
0000
0001
0000
0000
0001
0000
,
0100
0000
0000
0000
1001
0000
0000
0000
0100
0000
0000
0100
0000
0000
0100
0000
,
0001
0000
0000
0000
1010
0000
0000
0000
0010
0000
0000
1000
0000
0000
0001
0000
,
0100
0000
0000
0000
0101
0000
0000
0000
0010
0000
0000
0100
0000
0000
0010
0000
,
1000
0000
0000
0000
0100
0000
0100
0000
0001
0000
0000
0000
0001
0000
0100
1000
,
0100
0000
0000
0000
0010
0000
0000
0000
0101
0000
0000
0000
1000
0000
0010
0001
,
0010
0000
0000
0000
1000
0000
0001
0000
0100
0000
0000
0000
0010
0000
0001
1000
,
0001
0000
0000
0000
0010
0000
0000
0000
1010
0000
0000
0000
1000
0000
0100
0010
,
0100
0000
0010
0000
1010
0000
0100
1000
,
0010
0000
0001
0000
0010
0000
1000
0001
,
0100
0010
0001
0000
0100
0000
1010
0000
,
0001
0000
0011
0000
1000
0000
0010
0001
,
0100
0000
0011
0000
0101
0000
0100
1000
,
0010
0000
1100
0000
1010
0000
1000
0001
,
0100
0000
1001
0000
,
1001
0110
1001
0110
,
2000
0001
0001
3000
,
0100
0000
0000
0001
0010
0000
0100
0000
,
1001
0000
0010
0100
0010
0000
0000
0000
,
0100
0000
0000
0010
0001
0000
1000
0000
,
0110
0000
0001
1000
0001
0000
0000
0000
,
0010
0000
0110
0000
0110
0000
1000
1000
,
0100
0000
0001
0000
0010
0000
1000
0001
,
0001
0000
1100
0000
1000
0100
1000
0020
,
0000
0000
0030
0100
,
0010
0000
0000
1000
0100
0000
0010
0000
,
1001
0000
0100
0010
0100
0000
0000
0000
,
0010
0000
0000
0100
1000
0000
0001
0000
,
0110
0000
1000
0001
1000
0000
0000
0000
,
1000
0000
0100
0000
0001
0010
1000
0000
,
0100
0000
1000
0000
0010
0001
0100
0000
,
1010
0101
0011
1100
,
2000
0000
0000
0100
0000
0000
0001
0000
,
0010
0000
0001
3001
,
1000
0001
2100
0000
,
0001
0010
0001
3100
,
0100
0010
0012
0000
,
1000
0100
1000
0013
,
0100
0100
2001
0000
,
0100
0001
0100
3010
,
0001
0000
0001
0000
0210
0000
0000
0002
,
0000
0000
0000
0303
0000
0000
0001
0100
0001
0100
0000
0000
,
1000
0010
0100
0010
,
0100
1000
0100
1000
0010
0001
0010
0001
,
1000
0001
0010
0100
,
1000
0100
0100
1000
0010
0000
0000
0000
,
0001
1100
0010
0010
,
0001
0010
0001
0010
0100
1000
0100
1000
,
0010
0100
0001
0001
,
1000
0100
0010
0100
,
0001
0000
0010
0100
1000
0000
0010
0000
,
0010
0000
1000
0001
0100
0000
1000
0000
,
0001
0000
1000
1000
0010
0000
0010
0000
,
1001
0000
0010
0001
1000
0000
0100
0000
,
0101
0000
0000
0000
0010
0100
0010
0000
0001
0000
1000
0000
0001
0000
0000
0000
,
1100
0000
0000
0000
0100
0001
0100
0000
0010
0000
1000
0000
0010
0000
0000
0000
,
0100
0100
0100
0000
0010
0010
0010
0000
,
0001
0000
0000
0000
0000
0000
0100
0000
0000
0010
0000
0000
0000
0000
0001
0000
0001
0000
0001
0000
0001
0000
0001
0000
,
0010
0000
0000
1000
0100
0000
0010
0000
,
1001
0000
0100
0010
0100
0000
0000
0000
,
0010
0000
0000
0100
1000
0000
0001
0000
,
0110
0000
1000
0001
1000
0000
0000
0000
,
1000
0000
0100
0000
0001
0010
1000
0000
,
0100
0000
1000
0000
0010
0001
0100
0000
,
1010
0101
0011
1100
,
1000
0000
0100
0000
0001
0000
0000
0000
0010
0000
0000
0001
0000
0000
0010
0000
,
1000
0000
0100
1000
0010
0000
0001
0000
,
0001
0000
0010
1000
0100
0000
1000
0000
,
0022
0000
0033
0000
0000
1000
0001
0100
,
2000
0000
3000
0000
,
0100
0000
1000
0100
0001
0000
0010
0000
,
0010
0000
0001
0100
1000
0000
0100
0000
,
2200
0000
3300
0000
0000
0100
0010
1000
,
0200
0000
0000
0000
0300
0000
1000
0100
,
1000
0000
0000
0000
0110
0000
0000
0000
0001
0000
0000
0001
0000
0000
0001
0000
,
0100
0000
0000
0000
1001
0000
0000
0000
0100
0000
0000
0100
0000
0000
0100
0000
,
0001
0000
0000
0000
1010
0000
0000
0000
0010
0000
0000
1000
0000
0000
0001
0000
,
0100
0000
0000
0000
0101
0000
0000
0000
0010
0000
0000
0100
0000
0000
0010
0000
,
1000
0000
0010
0202
0000
0000
0000
0000
,
0000
0000
0000
0303
;

//---------------dance-single - ----------------
#NOTEDATA:;
#CHARTNAME:;
#STEPSTYPE:dance-single;
#DESCRIPTION:;
#CHARTSTYLE:;
#DIFFICULTY:Hard;
#METER:13;
#RADARVALUES:0.540405,0.791846,0.374575,0.137221,0.098280,1020.000000,919.000000,101.000000,37.000000,0.000000,0.000000,0.000000,0.000000,0.000000,0.540405,0.791846,0.374575,0.137221,0.098280,1020.000000,919.000000,101.000000,37.000000,0.000000,0.000000,0.000000,0.000000,0.000000;
#CREDIT:kater15;
#DISPLAYBPM:71.000000:142.000000;
#NOTES:
0000
0000
0000
0000
,
0000
0000
0000
0000
,
0000
0000
0000
0000
,
1000
0001
0100
0010
1000
0001
0100
0010
,
0001
1000
0010
0100
0001
1000
0010
0100
,
2000
0000
0001
0000
3001
0100
0010
0001
,
2000
0010
3010
0101
,
0010
0100
0001
1000
0010
0100
0001
1000
,
0100
0010
1000
0001
0100
0010
1000
0001
,
0020
0000
0100
0000
0130
1000
0001
0100
,
0020
0000
1000
0000
1030
0000
0010
0100
,
1001
0000
0100
1001
0000
0100
0010
1000
,
0110
0000
0001
0110
0000
0010
0001
1000
,
0110
0000
1000
0110
0000
1000
0001
0010
,
1001
0000
0100
1001
0000
1000
0001
0100
,
0011
0000
0100
1000
0100
0020
0000
1030
,
0000
1000
0010
0100
0001
0001
1000
0200
,
0000
0000
0310
0000
0001
0010
0001
0100
,
1000
0000
0000
0000
1010
0000
0000
0000
0101
0000
0000
0011
0000
0000
1000
0000
,
0110
0000
1000
0001
0100
0020
0000
1030
,
0000
1000
0001
0010
0100
0100
0010
0001
,
2000
0000
3100
0010
0100
0001
0010
2000
,
0000
0100
0100
0100
3001
0000
0001
0010
,
1000
0010
0100
1000
0002
0000
0103
0100
,
1000
0100
0010
0010
0100
0001
0010
0100
,
0010
0100
1000
0001
0020
0000
1030
0100
,
0001
1000
0010
0100
1000
0001
0100
1000
,
0010
0100
0011
0000
0100
0001
0010
0100
,
0001
1000
1010
0000
0100
0001
0100
0010
,
1001
0000
1000
0001
1100
0000
0010
0010
,
1000
1000
0100
0100
0010
0010
0001
0001
,
2000
0000
0000
0001
0000
0000
0010
0000
0000
0001
0000
0000
3010
0000
0000
0000
,
0110
0000
0000
0100
0100
0010
1000
0100
,
1000
0001
0010
0010
0001
0010
0100
1000
,
1100
0000
0000
0001
0001
0010
1000
0100
,
0001
0010
0100
0001
0010
0010
0100
0001
,
1010
0000
1000
0100
0001
0000
1000
0100
,
1000
0100
0001
0010
0010
0100
1000
0010
,
0200
0000
0301
0000
1000
0100
0010
0001
,
0000
1000
0010
0010
0100
0100
0001
1000
,
0110
0000
0000
0010
0010
0100
0001
0010
,
0001
1000
0100
0100
1000
0100
0010
0001
,
0011
0000
0000
1000
1000
0100
0001
0010
,
1000
0100
0010
1000
0100
0100
0010
1000
,
0101
0000
1000
0100
1000
0010
0001
0010
,
0110
0000
0100
0010
1000
0100
0010
0001
,
0011
0000
0100
1000
0010
0100
0001
0100
,
1001
0000
1000
0001
0000
0001
1000
0100
,
0010
0000
0000
1000
0100
0010
0101
0000
,
1000
0001
0100
0010
1000
0001
0100
0010
,
0001
1000
0010
0100
0001
1000
0010
0100
,
2000
0000
0001
0000
3001
0100
0010
0001
,
2000
0010
3010
0101
,
0010
0100
0001
1000
0010
0100
0001
1000
,
0100
0010
1000
0001
0100
0010
1000
0001
,
0020
0000
0100
0000
0130
1000
0001
0100
,
0020
0000
1000
0000
1030
0000
0010
0100
,
1001
0000
0100
1001
0000
0100
0010
1000
,
0110
0000
0001
0110
0000
0010
0001
1000
,
0110
0000
1000
0110
0000
1000
0001
0010
,
1001
0000
0100
1001
0000
1000
0001
0100
,
1001
0000
0100
0010
0001
0100
0000
1010
0000
0100
1000
0010
1000
0100
0010
0001
,
1100
0000
1000
0010
0010
1000
0200
0001
0301
0000
0010
0000
1000
0000
0100
0001
,
1010
0000
0100
0010
1000
0100
0000
1100
0000
0010
0001
0100
0010
1000
0100
0010
,
1001
0000
0100
0000
0010
0010
0000
1001
0000
0100
1000
0010
0010
0001
0100
0010
,
1000
0010
0100
1000
0002
0000
0103
0100
,
1000
0100
0010
0010
0100
0001
0010
0100
,
0010
0100
1000
0001
0020
0000
1030
0100
,
0001
1000
0010
0100
1000
0001
0100
1000
,
0010
0100
0011
0000
0100
0001
0010
0100
,
0001
1000
1010
0000
0100
0001
0100
0010
,
1001
0000
1000
0001
1100
0000
0010
0010
,
1000
1000
0100
0100
0010
0010
0001
0001
,
0200
0010
0010
0000
0001
0000
0301
0000
,
0110
0000
0000
0010
0010
0100
0001
0010
,
0001
1000
0100
0100
1000
0100
0010
0001
,
0011
0000
0000
1000
1000
0100
0001
0010
,
1000
0100
0010
1000
0100
0100
0010
1000
,
0101
0000
0001
0010
1000
0000
0001
0010
,
0001
0010
1000
0100
0100
0010
0001
0100
,
0020
0000
1030
0000
0001
0010
0100
1000
,
0000
0001
0100
0100
0010
0010
1000
0001
,
0110
0000
0000
0100
0100
0010
1000
0100
,
1000
0001
0010
0010
0001
0010
0100
1000
,
1100
0000
0000
0001
0001
0010
1000
0100
,
0001
0010
0100
0001
0010
0010
0100
0001
,
1010
0000
0001
0010
0001
0100
1000
0100
,
0110
0000
0010
0100
0001
0010
0100
1000
,
1100
0000
0010
0001
0100
0010
1000
0010
,
1001
0000
0001
1000
0000
1000
0001
0010
,
0100
0000
0000
0001
0010
0100
1010
0000
,
1100
0010
0001
1000
0022
0000
0033
0000
,
0100
0000
0100
0000
0010
0000
0001
0000
0100
0000
0000
0010
0000
0000
1000
0000
,
0101
0010
1000
0100
2020
0000
3030
0000
,
0100
0000
0010
0000
0010
0000
0100
0000
1000
0000
0000
0010
0000
0000
0100
0000
,
1001
0010
0100
1000
0220
0000
0330
0000
,
0010
0000
0010
0000
0001
0000
1000
0000
0100
0000
0000
0001
0000
0000
1000
0000
,
0110
1000
0001
0100
1002
0000
0000
0200
,
0000
0000
0000
0303
0000
0000
1000
0100
0010
0001
0000
0000
,
0010
0001
0010
0100
0001
0001
1000
0010
,
0100
1000
0100
0001
0100
1000
0100
0001
,
0010
1000
0010
0001
0010
1000
0010
0001
,
0100
0010
1001
1001
0020
0000
0130
0000
,
0001
1000
0001
0000
1000
0000
0100
0000
0010
0000
0010
0000
0100
0000
1000
0000
,
0001
0010
0001
0100
0001
0010
0001
0100
,
1000
0010
1000
0100
1000
0010
1000
0100
,
0010
0010
1000
0100
0010
0001
0100
1000
,
0001
0000
0000
0110
0000
0000
1000
0000
0001
0000
0010
0000
0100
0000
0010
0000
,
0010
1000
0100
0001
1000
0001
0001
0010
,
0001
0100
0010
0010
1000
0100
0010
0001
,
0100
0010
1000
0100
0001
1000
0100
0000
,
1001
0000
0000
0000
0000
0000
0100
0000
1000
0000
0000
0100
0000
0000
0010
0000
0001
0000
0000
0000
0000
0000
0010
0000
0001
0000
0000
0000
0000
0000
0000
0000
,
0101
0000
0000
0000
0000
0000
1000
0000
0100
0000
0000
0001
0000
0000
1000
0000
0010
0000
0000
0000
1000
0000
0100
0000
0010
0000
0000
0000
0000
0000
0000
0000
,
1100
0000
1010
0000
1001
0000
0110
0000
0101
0000
1000
0010
0000
1001
0000
0110
,
0000
0000
0000
0000
0000
0000
0000
0000
0000
1000
0000
0000
0100
0000
0000
0010
0000
0000
0001
0000
0000
0010
0000
0000
0000
0000
0000
0000
1100
0000
0000
0000
1000
0000
0000
0000
0011
0000
0000
0000
1010
0000
0000
0000
0100
0000
0000
0000
,
0110
0000
0000
0010
0010
0100
0001
0010
,
0001
1000
0100
0100
1000
0100
0010
0001
,
0011
0000
0000
1000
1000
0100
0001
0010
,
1000
0100
0010
1000
0100
0100
0010
1000
,
0101
0000
1000
0100
1000
0010
0001
0010
,
0110
0000
0100
0010
1000
0100
0010
0001
,
0011
0000
0100
1000
0010
0100
0001
1100
,
0000
0000
0010
0000
0001
0000
1000
0000
0110
0000
0000
0110
0000
0000
0100
0000
,
1000
0001
0100
0010
1000
0001
0100
0010
,
0001
1000
0010
0100
0001
1000
0010
0100
,
2000
0000
0001
0000
3001
0100
0010
0001
,
2000
0010
3010
0101
,
0010
0100
0001
1000
0010
0100
0001
1000
,
0100
0010
1000
0001
0100
0010
1000
0001
,
0020
0000
0100
0000
0130
1000
0001
0100
,
0020
0000
1000
0000
1030
0000
0010
0100
,
1001
0000
0100
1001
0000
0100
0010
1000
,
0110
0000
0001
0110
0000
0010
0001
1000
,
0110
0000
1000
0110
0000
1000
0001
0010
,
1001
0000
0100
1001
0000
1000
0001
0100
,
0011
0000
1100
0202
0000
0000
0000
0000
,
0000
0000
0000
0000
,
0000
0000
0000
0303
;

//---------------dance-single - ----------------
#NOTEDATA:;
#CHARTNAME:;
#STEPSTYPE:dance-single;
#DESCRIPTION:;
#CHARTSTYLE:;
#DIFFICULTY:Beginner;
#METER:5;
#RADARVALUES:0.140399,0.202864,0.077882,0.103843,0.000000,265.000000,244.000000,21.000000,28.000000,0.000000,0.000000,0.000000,0.000000,0.000000,0.140399,0.202864,0.077882,0.103843,0.000000,265.000000,244.000000,21.000000,28.000000,0.000000,0.000000,0.000000,0.000000,0.000000;
#CREDIT:kater15;
#DISPLAYBPM:71.000000:142.000000;
#NOTES:
0000
0000
0000
0000
,
0000
0000
0000
0000
,
0000
0000
0000
0000
,
1000
0000
1000
0000
,
0001
0000
1000
0000
,
0002
0000
0003
0000
,
2000
0000
3000
0000
,
0010
0000
0010
0000
,
0100
0000
0010
0000
,
0200
0000
0300
0000
,
0020
0000
0030
0000
,
0001
0001
0001
0000
,
1000
1000
1000
0000
,
0010
0010
0010
0000
,
0100
0100
0100
0000
,
1000
0000
0001
0000
,
0100
0000
0000
0000
,
1000
0000
0001
0000
,
0010
0000
0000
0000
,
0100
0000
0001
0000
,
0010
0000
0000
0000
,
1000
0000
0001
0000
,
0010
0000
0000
0000
,
0100
0000
0100
0000
,
0001
0000
1000
0000
,
0010
0000
0010
0000
,
1000
0000
0001
0000
,
1001
0000
0100
0000
,
0110
0000
0000
0000
,
1001
0000
0000
0000
,
0001
0001
0001
0001
,
0002
0000
0003
0000
,
0200
0000
0300
0000
,
0001
0000
1000
0000
,
0020
0000
0030
0000
,
1000
0000
0001
0000
,
0000
0100
0100
0000
,
0000
0010
0010
0000
,
1001
0000
0000
0000
,
1000
1000
1000
1000
,
2000
0000
3000
0000
,
0010
0000
0100
0000
,
0002
0000
0003
0000
,
0100
0000
0010
0000
,
1000
1000
1000
0000
,
0001
0001
0001
0000
,
0010
0010
0010
0000
,
0110
0000
0000
0000
,
1001
0000
0000
0000
,
1000
0000
1000
0000
,
0001
0000
1000
0000
,
0002
0000
0003
0000
,
2000
0000
3000
0000
,
0010
0000
0010
0000
,
0100
0000
0010
0000
,
0200
0000
0300
0000
,
0020
0000
0030
0000
,
0001
0001
0001
0000
,
1000
1000
1000
0000
,
0010
0010
0010
0000
,
0100
0100
0100
0000
,
1001
0000
0100
0100
,
0100
0000
0010
0000
,
0110
0000
1000
1000
,
1000
0000
0001
0000
,
0200
0000
0300
0000
,
0010
0000
0100
0000
,
0020
0000
0030
0000
,
0100
0000
0010
0000
,
1001
0000
0100
0000
,
0110
0000
0000
0000
,
1001
0000
0000
0000
,
1000
1000
1000
1000
,
2000
0000
3000
0000
,
0200
0000
0300
0000
,
0001
0000
1000
0000
,
0020
0000
0030
0000
,
1000
0000
0001
0000
,
0000
0100
0100
0000
,
0000
0010
0010
0000
,
1001
0000
0000
0000
,
1000
1000
1000
1000
,
2000
0000
3000
0000
,
0010
0000
0100
0000
,
0002
0000
0003
0000
,
0100
0000
0010
0000
,
1000
1000
1000
0000
,
0001
0001
0001
0000
,
0010
0010
0010
0000
,
0110
0000
0000
0000
,
1001
0000
0000
0000
,
0100
0000
1001
0000
,
0000
0000
0000
0000
,
0010
0000
1001
0000
,
0000
0000
0000
0000
,
1000
0000
0110
0000
,
0000
0000
0000
0000
,
0001
0000
0110
0000
,
0000
0000
0000
0000
,
1000
0000
0100
0000
,
0010
0000
0001
0000
,
0100
0000
0100
0000
,
0010
0000
1000
0000
,
0000
0000
0010
0000
,
0001
0000
1000
0000
,
0010
0000
0001
0000
,
0010
0000
0100
0000
,
0010
0000
1000
0000
,
0100
0000
0001
0000
,
1000
0000
0100
0000
,
0100
0000
1000
0000
,
0110
0000
0000
0000
,
1001
0000
0000
0000
,
0010
0000
0100
0000
,
0010
0000
1000
1000
,
2000
0000
3000
0000
,
0010
0000
0100
0000
,
0002
0000
0003
0000
,
0100
0000
0010
0000
,
1000
1000
1000
0000
,
0001
0001
0001
0000
,
0010
0010
0010
0000
,
0000
0000
0000
0000
,
1000
0000
1000
0000
,
0001
0000
1000
0000
,
0002
0000
0003
0000
,
2000
0000
3000
0000
,
0010
0000
0010
0000
,
0100
0000
0010
0000
,
0200
0000
0300
0000
,
0020
0000
0030
0000
,
0001
0001
0001
0000
,
1000
1000
1000
0000
,
0010
0010
0010
0000
,
0100
0100
0100
0000
,
2002
0000
0000
0000
,
0000
0000
0000
3003
;

//---------------dance-single - ----------------
#NOTEDATA:;
#CHARTNAME:;
#STEPSTYPE:dance-single;
#DESCRIPTION:;
#CHARTSTYLE:;
#DIFFICULTY:Challenge;
#METER:15;
#RADARVALUES:0.683983,1.021736,0.378284,0.144638,0.496961,1291.000000,1189.000000,102.000000,39.000000,0.000000,0.000000,0.000000,0.000000,0.000000,0.683983,1.021736,0.378284,0.144638,0.496961,1291.000000,1189.000000,102.000000,39.000000,0.000000,0.000000,0.000000,0.000000,0.000000;
#CREDIT:kater15;
#DISPLAYBPM:71.000000:142.000000;
#NOTES:
0000
0000
0000
0000
,
0000
0000
0000
0000
,
0000
0000
0000
0000
,
1000
0000
0100
0000
0001
0000
1000
0100
1000
0000
0100
0000
0001
0000
1000
0100
,
1000
0000
0010
0000
0100
0000
0001
0010
0001
0000
0100
0000
0010
0000
1000
0010
,
2000
0000
0000
0000
0100
0000
0000
0000
3100
0000
0010
0100
0010
0000
0001
0000
,
2000
0010
3010
1010
,
0100
0000
0001
0000
0010
0000
0100
0001
0100
0000
0001
0000
0010
0000
0100
0001
,
0100
0000
0010
0000
1000
0000
0001
0100
0001
0000
0010
0000
1000
0000
0010
0100
,
0020
0000
0000
0000
0001
0000
0000
0000
0031
0000
1000
0100
1000
0000
0001
0000
,
0020
0000
0100
0000
0130
0000
0100
0001
,
0011
0000
1000
0100
0001
0000
1000
0000
0001
0000
0010
1000
0000
0010
1000
0000
,
0101
0000
0100
0001
0010
0000
0100
0000
1000
0000
0001
0100
0000
0010
1000
0000
,
0110
0000
1000
0100
0001
0000
0010
0000
0100
0000
1000
0100
0000
0010
0001
0000
,
0110
0000
1000
0001
0100
0000
0001
0000
0010
0000
1000
0100
0000
0001
0100
0000
,
0011
0000
0000
0000
0100
0100
0001
0000
0100
0000
0010
0000
0001
0000
0010
0000
,
0100
0000
1000
0001
0100
0000
0010
0000
1000
0000
0100
0000
0010
0001
0100
0000
,
1000
0000
0010
0000
0010
0000
0100
0000
0001
1000
0001
1000
0010
0000
0100
0000
,
1000
0000
0001
0100
1000
0000
0000
1000
0100
0000
0000
0100
0001
0000
0000
0001
,
0100
0000
0000
0000
1000
1000
0010
0000
0100
0000
0010
0000
0001
0000
0100
0000
,
0010
0000
1000
0100
0001
0000
0010
0000
0100
0000
0100
0000
1000
0000
0001
0100
,
0001
0100
0001
0000
0010
0000
0100
0000
1000
0000
1000
0000
0010
0001
0010
0001
,
0100
0000
1000
0000
0100
0000
0100
0000
0001
0000
0010
0000
0001
0100
0001
0010
,
0100
0000
0010
0000
0100
0000
1000
0100
0010
0000
1001
0000
1001
0000
0100
0000
,
1000
0000
0100
0000
0010
1000
0001
0000
0100
0000
0001
0000
0010
0000
0100
0000
,
0010
0000
0100
0000
1000
0000
0001
0100
0010
0000
1000
0000
0110
0000
0110
0000
,
0001
0000
1000
0000
0010
0000
0100
0000
0100
0000
0001
0000
1000
0010
1000
0010
,
0100
0000
0100
0001
1000
0000
0010
0000
1000
0000
0100
0001
0000
1000
0100
0000
,
0001
0000
1000
0000
0010
0000
0000
0000
0110
0000
0001
1000
0001
0000
0100
0000
,
1001
0000
0010
0100
0010
0000
1000
0000
1100
0000
0000
0000
0010
0000
0010
0000
,
0100
0000
1000
0001
1000
0000
0010
0100
0010
0000
1000
0100
1000
0000
0001
0010
,
0001
0000
1000
0001
0000
1000
0001
0000
1000
0001
0000
1000
0001
0000
0010
0100
,
0020
0000
0000
0000
0030
0000
1000
0001
0010
0000
0100
0000
1000
0000
0100
0000
,
0010
0000
1001
0000
1001
0000
0010
0000
0100
0000
0010
0000
0001
0000
1000
0010
,
0200
0000
0000
0000
0300
0000
0001
0000
1000
0000
0010
0100
0010
0000
0100
0000
,
0001
0000
0110
0000
0110
0000
0001
0000
0010
0000
0100
0000
1000
0000
0001
0100
,
0010
0000
0000
0000
1000
0000
0100
1000
0010
0000
0001
0000
1000
0000
0010
0000
,
0010
0100
0001
0001
1000
0001
0010
0010
,
0200
0000
0001
0000
0301
0000
0000
0000
1000
0000
0100
0001
0010
0000
0001
0000
,
0000
0000
1000
0000
0010
0000
0010
0000
0100
0000
0100
0000
0001
0000
1000
0001
,
0200
0000
0000
0000
0300
0000
0010
1000
0001
0000
0100
0000
0010
0000
0010
0000
,
0001
0000
1100
0000
1100
0000
0010
0000
1000
0000
0100
0000
0010
0000
0001
1000
,
0020
0000
0000
0000
0030
0000
0001
0100
1000
0000
0100
0000
0001
0000
0100
0000
,
0010
0101
0101
0010
1000
0001
0010
1000
,
1001
0000
0000
0010
1000
0000
0100
0000
0010
0000
0100
1000
0001
0000
1000
0000
,
0110
0000
0000
0001
0100
0000
0001
0000
0010
0000
0100
0010
1000
0000
0001
0000
,
0011
0000
0000
1000
0100
0000
0010
0000
0100
0000
0010
0000
1001
0000
0100
0000
,
1001
0000
0000
0000
1000
0000
0001
0000
0000
0000
0001
0100
0001
0000
0100
0000
,
0010
0000
0000
0000
0000
0000
1000
0001
0100
0000
0010
0000
0110
0000
0000
0001
,
1000
0000
0100
0000
0001
0000
1000
0100
1000
0000
0100
0000
0001
0000
1000
0100
,
1000
0000
0010
0000
0100
0000
0001
0010
0001
0000
0100
0000
0010
0000
1000
0010
,
2000
0000
0000
0000
0100
0000
0000
0000
3100
0000
0010
0100
0010
0000
0001
0000
,
2000
0010
3010
1010
,
0100
0000
0001
0000
0010
0000
0100
0001
0100
0000
0001
0000
0010
0000
0100
0001
,
0100
0000
0010
0000
1000
0000
0001
0100
0001
0000
0010
0000
1000
0000
0010
0100
,
0020
0000
0000
0000
0001
0000
0000
0000
0031
0000
1000
0100
1000
0000
0001
0000
,
0020
0000
0100
0000
0130
0000
0100
0001
,
0011
0000
1000
0100
0001
0000
1000
0000
0001
0000
0010
1000
0000
0010
1000
0000
,
0101
0000
0100
0001
0010
0000
0100
0000
1000
0000
0001
0100
0000
0010
1000
0000
,
0110
0000
1000
0100
0001
0000
0010
0000
0100
0000
1000
0100
0000
0010
0001
0000
,
0110
0000
1000
0001
0100
0000
0001
0000
0010
0000
1000
0100
0000
0001
0100
0000
,
1001
0000
0000
0000
0001
0000
0010
0000
0001
0000
0100
0000
0010
0000
1002
0000
0000
0000
0013
0000
0100
0000
0001
0000
0010
0000
0100
0000
0010
0000
0001
1000
,
0100
0000
0000
0000
1000
0000
0010
0000
0010
0000
1000
0000
0200
0000
0001
0000
0301
0000
0000
0000
0010
0000
0100
0000
1000
0000
0010
0000
0100
0000
0001
1000
,
0010
0000
0000
0000
0100
0000
0010
0000
1000
0000
0100
0000
0010
0000
2100
0000
0000
0000
3010
0000
0001
0000
0100
0000
0010
0000
1000
0000
0100
0000
0010
1000
,
0001
0000
0000
0000
0100
0000
1000
0000
0010
0000
0010
0000
0100
0000
1002
0000
0000
0000
0103
0000
0010
0000
0100
0000
0001
0000
1000
0000
0001
0000
0010
1000
,
0100
0000
0010
0000
0100
0000
1000
0100
0010
0000
1001
0000
1001
0000
0100
0000
,
1000
0000
0100
0000
0010
1000
0001
0000
0100
0000
0001
0000
0010
0000
0100
0000
,
0010
0000
0100
0000
1000
0000
0001
0100
0010
0000
1000
0000
0110
0000
0110
0000
,
0001
0000
1000
0000
0010
0000
0100
0000
0100
0000
0001
0000
1000
0010
1000
0010
,
0100
0000
0100
0001
1000
0000
0010
0000
1000
0000
0100
0001
0000
1000
0100
0000
,
0001
0000
1000
0000
0010
0000
0000
0000
0110
0000
0001
1000
0001
0000
0100
0000
,
1001
0000
0010
0100
0010
0000
1000
0000
1100
0000
0000
0000
0010
0000
0010
0000
,
0100
0000
1000
0001
1000
0000
0010
0100
0010
0000
1000
0100
1000
0000
0001
0010
,
0002
0000
0100
0000
0010
0000
0000
0000
1000
0000
0000
0000
1003
0000
0100
0010
,
0200
0000
0000
0000
0300
0000
0001
1000
0100
0000
0010
0000
0001
0000
0010
0000
,
0100
0000
1001
0000
1001
0000
0100
0000
0010
0000
0100
0000
1000
0000
0001
0100
,
0020
0000
0000
0000
0030
0000
1000
0000
0001
0000
0100
0010
0100
0000
0010
0000
,
1000
0000
0110
0000
0110
0000
1000
0000
0100
0000
0010
0000
0001
0000
1000
0010
,
0100
0000
0000
0000
0001
0000
0010
0001
0100
0000
1000
0000
0001
0000
0100
0000
,
0100
0010
1000
1000
0001
1000
0100
0100
,
0020
0000
1000
0000
1030
0000
0000
0000
0001
0000
0010
1000
0100
0000
1000
0000
,
0000
0000
0001
0000
0100
0000
0100
0000
0010
0000
0010
0000
1000
0000
0001
1000
,
0020
0000
0000
0000
0030
0000
0100
0001
1000
0000
0010
0000
0100
0000
0100
0000
,
1000
0000
0011
0000
0011
0000
0100
0000
0001
0000
0010
0000
0100
0000
1000
0001
,
0200
0000
0000
0000
0300
0000
1000
0010
0001
0000
0010
0000
1000
0000
0010
0000
,
0100
1010
1010
0100
0001
1000
0100
0001
,
1001
0000
0000
0100
0001
0000
0010
0000
0100
0000
0010
0001
1000
0000
0001
0000
,
0110
0000
0000
1000
0010
0000
1000
0000
0100
0000
0010
0100
0001
0000
1000
0000
,
1100
0000
0000
0001
0010
0000
0100
0000
0010
0000
0100
0000
1001
0000
0010
0000
,
1001
0000
0000
0000
0001
0000
1000
0000
0000
0000
1000
0010
1000
0000
0010
0000
,
0100
0000
0000
0000
0000
0000
0001
1000
0010
0000
0100
0000
0110
0000
0000
1000
,
0001
0000
1000
0100
0001
0000
0010
0000
2002
0000
0000
0000
3003
0000
0000
0000
,
0100
0000
0001
1000
0010
0000
0001
0000
0100
0000
0001
1000
0000
0001
1000
0000
,
0110
0000
0010
0001
0100
0000
0010
0000
2200
0000
0000
0000
3300
0000
0000
0000
,
0001
0000
0010
1000
0010
0000
0100
0000
0001
0000
0100
0010
0000
0010
0100
0000
,
1001
0000
0010
1000
0010
0000
1000
0000
0202
0000
0000
0000
0303
0000
0000
0000
,
0010
0000
0010
1000
0001
0000
0010
0000
0100
0000
1000
0001
0000
0100
1000
0000
,
0110
0000
1000
0010
0100
0000
0100
0000
1002
0000
0000
0000
0000
0000
0020
0000
,
0000
0000
0000
0033
0000
0000
0001
1001
0010
0110
0000
0000
,
0010
0000
0001
1000
0001
0000
1000
0001
1000
0000
0100
0000
0010
0000
0100
0000
,
1000
0000
0010
0100
0010
0100
0010
0000
0100
0000
1000
0001
1000
0001
1000
0000
,
0001
0000
0100
0010
0100
0010
0100
0000
0010
0000
0001
1000
0001
1000
0001
0000
,
1000
0000
0010
0000
0110
0000
0110
0000
1000
0000
1000
0000
0100
0000
0010
1000
,
0001
1000
0010
0000
1000
0000
0100
0000
0100
0000
0010
0000
0100
0000
0010
0000
,
1000
0100
1000
0100
1000
0000
0100
0000
0001
0010
0001
0010
0001
0000
0010
0000
,
0100
0001
0100
0001
0100
0000
0001
0000
1000
0010
1000
0010
1000
0000
0010
0000
,
0100
0000
0010
0000
1100
0000
1100
0000
0010
0000
0001
1000
0010
0000
1000
0000
,
0001
0100
0000
0010
0100
0000
1000
0000
0001
0000
0010
0000
0100
0000
0010
1000
,
0010
0000
1000
0001
0100
0000
0001
0000
0100
0000
0010
1000
0001
0000
0010
0000
,
0001
0100
0010
0100
1010
1010
0100
0001
,
1000
0001
1000
0001
1000
0001
1000
0001
0100
0010
0100
0010
0100
0010
0100
0010
,
1000
0000
0000
0000
0001
0000
0010
0000
0100
0000
0000
0100
0000
0000
0010
0000
0001
0000
0000
0000
1000
0000
0010
0000
0101
0000
0000
0000
1000
0000
0010
0001
,
0100
0000
0000
0000
0000
0000
1000
0000
0100
0000
0000
0001
0000
0000
1000
0000
0010
0000
0000
0000
1000
0000
0100
0000
0010
0000
0000
0000
0010
0000
0000
0000
,
1100
0100
0010
1001
1001
1000
0100
0010
0101
0101
0000
0010
1000
0001
0110
0110
,
0000
0000
0000
0000
0000
0000
0100
0000
0000
1000
0000
0000
0100
0000
0000
0010
0000
0000
0001
0000
0000
0010
0000
0000
0000
0000
0000
0000
1100
0000
0000
0000
1001
0000
0000
0000
0011
0000
0000
0000
1010
0000
0000
0000
0101
0000
0000
0000
,
0210
0000
0000
0000
0300
0000
0010
1000
0001
0000
0100
0000
0010
0000
0010
0000
,
0001
0000
1100
0000
1100
0000
0010
0000
1000
0000
0100
0000
0010
0000
0001
1000
,
0020
0000
0000
0000
0030
0000
0001
0100
1000
0000
0100
0000
0001
0000
0100
0000
,
0010
0101
0101
0010
1000
0001
0010
1000
,
1001
0000
0000
0010
1000
0000
0100
0000
0010
0000
0100
1000
0001
0000
1000
0000
,
0110
0000
0000
0001
0100
0000
0001
0000
0010
0000
0100
0010
1000
0000
0001
0000
,
0011
0000
0000
1000
0100
0000
0010
0000
0100
0000
0010
0000
0010
0000
0100
0000
,
1000
0000
0010
0100
0001
0000
1000
0000
0110
0000
0000
0100
0001
0000
0100
0000
,
1000
0000
0100
0000
0001
0000
1000
0100
1000
0000
0100
0000
0001
0000
1000
0100
,
1000
0000
0010
0000
0100
0000
0001
0010
0001
0000
0100
0000
0010
0000
1000
0010
,
2000
0000
0000
0000
0100
0000
0000
0000
3100
0000
0010
0100
0010
0000
0001
0000
,
2000
0010
3010
1010
,
0100
0000
0001
0000
0010
0000
0100
0001
0100
0000
0001
0000
0010
0000
0100
0001
,
0100
0000
0010
0000
1000
0000
0001
0100
0001
0000
0010
0000
1000
0000
0010
0100
,
0020
0000
0000
0000
0001
0000
0000
0000
0031
0000
1000
0100
1000
0000
0001
0000
,
0020
0000
0100
0000
0130
0000
0100
0001
,
0011
0000
1000
0100
0001
0000
1000
0000
0001
0000
0010
1000
0000
0010
1000
0000
,
0101
0000
0100
0001
0010
0000
0100
0000
1000
0000
0001
0100
0000
0010
1000
0000
,
0110
0000
1000
0100
0001
0000
0010
0000
0100
0000
1000
0100
0000
0010
0001
0000
,
0110
0000
1000
0001
0100
0000
0001
0000
0010
0000
1000
0100
0000
0001
0100
0000
,
0011
0000
0110
2002
0000
0000
0000
0000
,
0000
0000
0000
0000
,
0000
0000
0000
3003
;
