#TITLE:Zombie Hopper;
#SUBTITLE:;
#ARTIST:Bust A Groove 2 OST;
#TITLETRANSLIT:;
#SUBTITLETRANSLIT:;
#ARTISTTRANSLIT:;
#GENRE:;
#CREDIT:;
#BANNER:Zombie Hopper.png;
#BACKGROUND:Zombie Hopper-bg.png;
#LYRICSPATH:;
#CDTITLE:cdtitle.png;
#MUSIC:Zombie Hopper.ogg;
#OFFSET:0.000000;
#SAMPLESTART:16.035000;
#SAMPLELENGTH:15.000000;
#SELECTABLE:YES;
#DISPLAYBPM:130.000000;
#BPMS:0.000000=27.745001
,4.000000=130.000000
,144.000000=126.999992
,148.000000=129.973999
,212.000000=130.520004
,244.000000=130.000000
;
#STOPS:
;
#BGCHANGES:;
#KEYSOUNDS:;
#ATTACKS:;

//---------------dance-single - ----------------
#NOTES:
     dance-single:
     :
     Easy:
     5:
     0.194477,0.284128,0.123758,0.061879,0.000000,198.000000,180.000000,18.000000,9.000000,0.000000,0.000000,0.194477,0.284128,0.123758,0.061879,0.000000,198.000000,180.000000,18.000000,9.000000,0.000000,0.000000:
// measure 0
0000
0000
0000
0000
,  // measure 1
0000
0000
0000
0000
,  // measure 2
0000
0000
0000
0000
,  // measure 3
0000
0000
0000
0000
,  // measure 4
0000
0000
0000
0000
,  // measure 5
1000
1000
1000
0000
,  // measure 6
0001
0010
1000
0000
,  // measure 7
0100
0100
0100
0000
,  // measure 8
0010
0001
0100
0000
,  // measure 9
0001
0001
0001
0000
,  // measure 10
1000
0100
0001
0000
,  // measure 11
0010
0010
0010
0000
,  // measure 12
0100
1000
0010
0000
,  // measure 13
0100
0010
0100
0000
,  // measure 14
0001
1000
0100
0000
,  // measure 15
0010
0001
0010
0000
,  // measure 16
0100
1000
0001
0010
,  // measure 17
1000
0100
1000
0000
,  // measure 18
0010
0100
0001
0000
,  // measure 19
0010
1000
0010
0000
,  // measure 20
0200
0000
0000
0000
,  // measure 21
0300
0000
0001
0000
,  // measure 22
1000
0000
0010
0000
,  // measure 23
0010
0000
0001
0000
,  // measure 24
0100
0000
0010
0010
,  // measure 25
1001
0000
0100
0000
,  // measure 26
0001
0000
0010
0000
,  // measure 27
0100
0000
0100
0000
,  // measure 28
0001
0000
1000
1000
,  // measure 29
0110
0000
0010
0000
,  // measure 30
0010
0000
1000
0000
,  // measure 31
0100
0000
0010
0000
,  // measure 32
0010
0000
0100
0100
,  // measure 33
1001
0000
0010
0000
,  // measure 34
0001
0000
0100
0000
,  // measure 35
0100
0000
0001
0000
,  // measure 36
1000
0000
0000
0000
,  // measure 37
0020
0000
0000
0030
,  // measure 38
0002
0000
0000
0003
,  // measure 39
0200
0000
0000
0300
,  // measure 40
0002
0000
0000
0003
,  // measure 41
2000
0000
0000
3000
,  // measure 42
0200
0000
0000
0300
,  // measure 43
2000
0000
0000
3000
,  // measure 44
0020
0000
0000
0030
,  // measure 45
0100
0001
0110
0000
,  // measure 46
1000
0010
1001
0000
,  // measure 47
0100
0010
0110
0000
,  // measure 48
0001
1000
1001
0000
,  // measure 49
1000
0100
0110
0100
,  // measure 50
0010
0001
1001
0100
,  // measure 51
0010
0010
0110
1000
,  // measure 52
0100
0010
1001
0100
,  // measure 53
0010
0000
0100
0100
0000
0000
0100
0000
,  // measure 54
0010
0000
0001
0001
0000
0000
0100
0000
,  // measure 55
1000
0000
0010
0010
0000
0000
1000
0000
,  // measure 56
0001
0000
0100
0100
0000
0000
0001
0000
,  // measure 57
1000
0000
0001
0001
0000
0000
0001
0000
,  // measure 58
1000
0000
0010
0010
0000
0000
0001
0000
,  // measure 59
0100
0000
1000
1000
0000
0000
0100
0000
,  // measure 60
0010
0000
0001
0001
0000
0000
0000
0000
,  // measure 61
0100
0010
1100
0001
,  // measure 62
0010
0001
0101
0010
,  // measure 63
1000
0100
1010
1000
,  // measure 64
0001
0100
0011
0100
,  // measure 65
0010
0100
1001
0001
,  // measure 66
1000
0010
0110
0001
,  // measure 67
0100
0010
0011
0100
,  // measure 68
1000
0000
0100
0000
0010
0000
0100
0100
;

//---------------dance-single - ----------------
#NOTES:
     dance-single:
     :
     Beginner:
     1:
     0.091345,0.117742,0.006875,0.027502,0.000000,93.000000,92.000000,1.000000,4.000000,0.000000,0.000000,0.091345,0.117742,0.006875,0.027502,0.000000,93.000000,92.000000,1.000000,4.000000,0.000000,0.000000:
0000
0000
0000
0000
,
0000
0000
0000
0000
,
0000
0000
0000
0000
,
0000
0000
0000
0000
,
0000
0000
0000
0000
,
1000
0000
1000
0000
,
0001
0000
0000
0000
,
0100
0000
0100
0000
,
0010
0000
0000
0000
,
0001
0000
0001
0000
,
1000
0000
0000
0000
,
0010
0000
0010
0000
,
0100
0000
0000
0000
,
0100
0000
0010
0000
,
0001
0000
0000
0000
,
0010
0000
0001
0000
,
0100
0000
0000
0000
,
1000
0000
0100
0000
,
0010
0000
0000
0000
,
0010
0000
1000
0000
,
0110
0000
0000
0000
,
0100
0000
0000
0000
,
0100
0000
0000
0000
,
1000
0000
0000
0000
,
1000
0000
0000
0000
,
0010
0000
0000
0000
,
0010
0000
0000
0000
,
0001
0000
0000
0000
,
0001
0000
1000
0000
,
0001
0000
0010
0000
,
0010
0000
1000
0000
,
0100
0000
0010
0000
,
0010
0000
0100
0000
,
0001
0000
0100
0000
,
0010
0000
0010
0000
,
0100
0000
0001
0000
,
0100
0000
0000
0000
,
0020
0000
0000
0000
,
0000
0000
0030
0000
,
0200
0000
0000
0000
,
0000
0000
0300
0000
,
0020
0000
0000
0000
,
0000
0000
0030
0000
,
0200
0000
0000
0000
,
0000
0000
0300
0000
,
0001
0000
0000
0000
,
1000
0000
0000
0000
,
0001
0000
0000
0000
,
1000
0000
0000
0000
,
0100
0000
0000
0000
,
0010
0000
0000
0000
,
0100
0000
0000
0000
,
0010
0000
0000
0000
,
0010
0010
0000
0000
,
0001
0001
0000
0000
,
0100
0100
0000
0000
,
1000
1000
0000
0000
,
0010
0010
0000
0000
,
1000
1000
0000
0000
,
0100
0100
0000
0000
,
0001
0001
0000
0000
,
0100
0000
1000
0000
,
0100
0000
0001
0000
,
0010
0000
1000
0000
,
0010
0000
0001
0000
,
0100
0000
0100
0000
,
1000
0000
0001
0000
,
0010
0000
0010
0000
,
1000
0000
0001
0000
;

//---------------dance-single - ----------------
#NOTES:
     dance-single:
     :
     Medium:
     9:
     0.288769,0.330881,0.123758,0.171886,0.055004,294.000000,276.000000,18.000000,25.000000,0.000000,0.000000,0.288769,0.330881,0.123758,0.171886,0.055004,294.000000,276.000000,18.000000,25.000000,0.000000,0.000000:
0000
0000
0000
0000
,
0000
0000
0000
0000
,
0000
0000
0000
0000
,
0000
0000
0000
0000
,
0000
0000
0000
0000
,
0100
0000
0000
0000
0100
0000
0000
0011
0000
0000
0000
0000
0010
0000
0000
0000
,
0100
0000
0000
0000
0100
0000
0000
1010
0000
0000
0000
0000
0001
0000
0000
0000
,
1000
0000
0000
0000
1000
0000
0000
0101
0000
0000
0000
0000
0010
0000
0000
0000
,
0001
0000
0000
0000
0001
0000
0000
1100
0000
0000
0000
0000
0010
0000
0000
0000
,
0001
0000
0000
0000
0001
0000
0000
0110
0000
0000
0000
0000
0010
0000
0000
0000
,
0001
0000
0000
0000
0100
0000
0000
0011
0000
0000
0000
0000
1000
0000
0000
0000
,
0100
0000
0000
0000
0001
0000
0000
0011
0000
0000
0000
0000
0010
0000
0000
0000
,
0001
0000
0000
0000
0100
0000
0000
1001
0000
0000
0000
0000
0001
0000
0000
0000
,
0100
0010
1000
0000
1001
0000
0100
0000
,
0020
1030
0020
0031
,
0100
0001
0010
0000
1001
0000
0100
0000
,
0200
0301
2000
3100
,
0010
1000
0001
0000
0101
0000
0010
0000
,
2000
3001
0002
0103
,
0010
0100
0001
0000
1100
0000
0100
0000
,
0010
0001
0100
0000
0100
1000
0010
0000
,
0210
0301
0020
0130
,
2000
0100
0010
3100
,
0002
1000
0100
1003
,
0020
0001
1000
0031
,
1002
0013
2000
3001
,
0200
0001
1000
0301
,
0020
0100
0001
0130
,
2000
0010
0100
3010
,
0100
0000
1001
0000
0010
0100
0010
0000
,
0001
0010
0100
0000
0010
0100
1000
0000
,
0100
0000
0010
0000
0001
0010
0001
0000
,
0100
0000
0010
0000
1000
1000
0100
0000
,
1000
0000
0110
0000
0001
1000
0001
0000
,
0100
0001
1000
0000
0001
1000
0010
0000
,
1000
0000
0001
0000
0100
0001
0100
0000
,
0020
0000
0000
0030
,
0100
0000
0000
0100
0000
0000
0100
0000
0000
0000
0000
0000
0000
0000
0000
0000
,
0001
0000
0000
0001
0000
0000
0001
0000
0000
0000
0000
0000
0000
0000
0000
0000
,
0100
0000
0000
0100
0000
0000
0100
0000
0000
0000
0000
0000
0000
0000
0000
0000
,
1000
0000
0000
1000
0000
0000
1000
0000
0000
0000
0000
0000
0000
0000
0000
0000
,
0010
0000
0000
0010
0000
0000
0010
0000
0000
0000
0000
0000
0000
0000
0000
0000
,
0001
0000
0000
0001
0000
0000
0001
0000
0000
0000
0000
0000
0000
0000
0000
0000
,
0010
0000
0000
0010
0000
0000
0010
0000
0000
0000
0000
0000
0000
0000
0000
0000
,
1000
0000
0000
1000
0000
0000
1000
0000
0000
0000
0000
0000
0000
0000
0000
0000
,
0010
0000
0001
0000
0010
1000
0010
0000
,
0100
0010
1000
0101
,
0010
0000
1000
0000
0100
0010
0100
0000
,
0001
0100
1000
0000
0010
0001
0010
0000
,
1000
0000
0010
0000
1000
0100
1000
0000
,
0001
1000
0100
0011
,
1000
0000
0100
0000
0001
1000
0001
0000
,
0010
0001
0100
0000
1000
0010
1000
0000
,
0100
0010
0100
0010
0000
0000
0000
0000
,
0001
1000
0001
1000
0000
0000
0000
0000
,
0100
0001
0100
0001
0000
0000
0000
0000
,
0010
1000
0010
1000
0000
0000
0000
0000
,
0100
0010
0100
0001
0000
0000
0000
0000
,
0001
1000
0001
0100
0000
0000
0000
0000
,
0010
1000
0010
0001
0000
0000
0000
0000
,
0100
0001
0100
0010
0000
0000
0000
0000
,
2000
0000
3001
0000
0010
0010
0100
0000
,
0001
1000
0020
0000
0100
0000
0130
0000
,
0002
0000
1003
0000
0100
1000
1000
0000
,
0010
0010
0200
0000
1000
0000
0301
0000
,
0200
0000
0310
0000
1000
1000
0001
0000
,
0010
0100
2000
0000
0001
0000
3001
0000
,
0020
0000
0130
0000
0001
0100
0100
0000
,
1000
1000
0002
0000
0100
0000
0013
0000
;

//---------------dance-single - ----------------
#NOTES:
     dance-single:
     :
     Hard:
     13:
     0.527445,0.616169,0.013751,0.006875,0.422840,537.000000,535.000000,2.000000,1.000000,0.000000,0.000000,0.527445,0.616169,0.013751,0.006875,0.422840,537.000000,535.000000,2.000000,1.000000,0.000000,0.000000:
0000
0000
0000
0000
,
0000
0000
0000
0000
,
0000
0000
0000
0000
,
0000
0000
0000
0000
,
0000
0000
0000
0000
,
1000
0000
1000
0000
0010
0000
0001
1000
0000
0001
1000
0000
0010
0000
0100
0000
,
0010
0000
0010
0000
0001
0000
0100
0010
0000
0100
0010
0000
1000
0000
0100
0000
,
0010
0000
0100
0000
0100
0000
0001
0010
0000
0001
0010
0000
1000
0000
0001
0000
,
0010
0000
0010
0000
1000
0000
0100
1000
0000
0100
0010
0000
0001
0000
0100
0000
,
0001
0000
0001
0000
0100
0000
1000
0001
0000
1000
0001
0000
0100
0000
0010
0000
,
0100
0000
0100
0000
1000
0000
0010
0100
0000
0010
0100
0000
0001
0000
0010
0000
,
0100
0000
0010
0000
0010
0000
1000
0100
0000
1000
0100
0000
0001
0000
1000
0000
,
0100
0000
0100
0000
0001
0000
0010
0000
1000
0010
0000
0100
0000
1000
0010
1000
,
0001
0000
0001
0000
0100
0000
1000
0010
0000
1000
0001
0000
0100
0000
0010
0000
,
0100
0000
0100
0000
1000
0000
0010
0100
0000
1000
0100
0000
0001
0000
0010
0000
,
0100
0000
0010
0000
0010
0000
1000
0001
0000
1000
0100
0000
0001
0000
1000
0000
,
0100
0000
0100
0000
0001
0000
1000
0001
0000
0010
0100
0000
1000
0000
0010
0000
,
1000
0000
1000
0000
0010
0000
0001
0100
0000
0001
1000
0000
0010
0000
0100
0000
,
0010
0000
0010
0000
0001
0000
0100
1000
0000
0100
0010
0000
1000
0000
0100
0000
,
0010
0000
0100
0000
0100
0000
0001
0100
0000
0001
0010
0000
1000
0000
0001
0000
,
0010
0100
0010
0100
0010
0100
0010
0100
0010
1000
0010
1000
0010
1000
0010
1000
,
0001
0000
0000
0010
0100
0000
0000
0010
0001
0000
0000
0100
0010
0000
0000
0001
,
1000
0000
0000
0100
0010
0000
0000
1000
0100
0000
0000
1000
0010
0000
0000
0001
,
1000
0000
0000
0010
0100
0000
0000
0001
0010
0000
0000
0001
1000
0000
0000
0100
,
0010
0000
0000
0001
0010
0000
0000
0100
1000
0000
0000
0010
0100
0000
0001
0000
,
0010
0000
0000
1000
0001
0000
0000
1000
0010
0000
0000
0001
1000
0000
0000
0010
,
0100
0000
0000
0001
1000
0000
0000
0100
0001
0000
0000
0100
1000
0000
0000
0010
,
0100
0000
0000
1000
0001
0000
0000
0010
1000
0000
0000
0010
0100
0000
0000
0001
,
1000
0000
0000
0010
1000
0000
0000
0001
0100
0000
0000
1000
0001
0000
0010
0000
,
1000
0100
1000
0010
0100
0001
1000
0000
,
0010
0010
0001
1000
0100
0010
0100
0000
,
1000
0001
0010
0100
0010
0001
0001
0000
,
0100
0100
0010
1000
0010
0010
0100
0001
,
1000
0100
0010
1000
0100
0010
0100
0000
,
0001
0001
0010
1000
0100
1000
0010
0000
,
0100
0100
0001
0100
0001
0010
1000
0000
,
0200
0010
0010
1300
,
0010
0000
1000
0001
0000
1000
0010
0000
0100
0000
0000
0000
0000
0000
0000
0000
,
0010
0000
0001
1000
0000
0001
0010
0000
0100
0000
0000
0000
0000
0000
0000
0000
,
1000
0000
0100
0010
0000
0100
1000
0000
0001
0000
0000
0000
0000
0000
0000
0000
,
1000
0000
0010
0100
0000
0010
1000
0000
0001
0000
0000
0000
0000
0000
0000
0000
,
0100
0000
0001
1000
0000
0001
0100
0000
0010
0000
0000
0000
0000
0000
0000
0000
,
0100
0000
1000
0001
0000
1000
0100
0000
0010
0000
0000
0000
0000
0000
0000
0000
,
0001
0000
0010
0100
0000
0010
0001
0000
1000
0000
0000
0000
0000
0000
0000
0000
,
0001
0000
0100
0010
0000
0100
0001
0000
1000
0000
0000
0000
0000
0000
0000
0000
,
0010
0000
0001
0010
0000
0100
0010
0000
0001
0000
0010
0000
0010
0000
0100
0000
,
1000
0000
0010
1000
0000
0001
0100
0000
0010
0000
0001
0000
0001
0000
1000
0000
,
0100
0000
0010
1000
0000
0001
1000
0000
0100
0000
1000
0000
1000
0000
0010
0000
,
0100
0000
0010
1000
0000
1000
0001
0000
0100
0000
0010
1000
0001
1000
0001
1000
,
0001
0000
0100
0010
0000
1000
0100
0000
0010
0000
0001
0000
0100
0000
0010
0000
,
1000
0000
0100
1000
0000
0001
0010
0000
0010
0000
0100
0000
1000
0000
0010
0000
,
0010
0000
0100
0001
0000
0010
0001
0000
0100
0000
0100
0000
0001
0000
0001
0000
,
0010
0000
1000
0100
0000
0010
0001
0000
0100
0000
1000
0010
0100
0010
0100
0010
,
0001
0100
0010
0100
0001
0010
1000
0100
,
1000
0010
0010
0001
0100
0001
0010
0010
,
1000
0100
0010
1000
0100
1000
1000
0010
,
0100
0001
0010
0100
0001
0000
0110
0000
,
0010
0001
1000
0001
0010
1000
0100
0001
,
0100
1000
1000
0010
0001
0010
1000
1000
,
0100
0001
1000
0100
0001
0100
0100
1000
,
0001
0010
1000
0001
0010
0000
1001
0000
,
0100
0000
0010
0000
0001
0000
0100
0001
0100
0000
0010
0000
1000
0000
0100
0000
,
0001
0000
0010
0000
0100
0000
1000
0010
1000
0000
0100
0000
0010
0000
0010
0000
,
0001
0000
0100
0000
0100
0000
0010
0001
0010
0000
0100
0000
1000
0000
0010
0000
,
0100
0000
0001
0000
0100
0000
0010
0100
0010
0000
1000
0000
1000
0000
0001
0000
,
0010
0000
0100
0000
1000
0000
0010
1000
0010
0000
0100
0000
0001
0000
0010
0000
,
1000
0000
0100
0000
0010
0000
0001
0100
0001
0000
0010
0000
0100
0000
0100
0000
,
1000
0000
0010
0000
0010
0000
0100
1000
0100
0000
0010
0000
0001
0000
0100
0000
,
0010
1000
0010
1000
0010
1000
0010
1000
0001
1000
0001
1000
0001
1000
0001
1000
;
