#TITLE:YOU YOU YOU;
#SUBTITLE:;
#ARTIST:JAMES KAKANDE;
#TITLETRANSLIT:;
#SUBTITLETRANSLIT:;
#ARTISTTRANSLIT:;
#GENRE:;
#CREDIT:;
#BANNER:You You You.png;
#BACKGROUND:You You You-bg.png;
#LYRICSPATH:;
#CDTITLE:cdtitle.png;
#MUSIC:You You You.ogg;
#OFFSET:0.000000;
#SAMPLESTART:45.527000;
#SAMPLELENGTH:15.082000;
#SELECTABLE:YES;
#DISPLAYBPM:127.000000;
#BPMS:0.000000=20.705000
,4.000000=127.300003
;
#STOPS:
;
#BGCHANGES:;
#KEYSOUNDS:;
#ATTACKS:;

//---------------dance-single - ----------------
#NOTES:
     dance-single:
     :
     Easy:
     2:
     0.140198,0.215977,0.028654,0.064471,0.000000,137.000000,133.000000,4.000000,9.000000,0.000000,0.000000,0.140198,0.215977,0.028654,0.064471,0.000000,137.000000,133.000000,4.000000,9.000000,0.000000,0.000000:
0000
0000
0000
0000
,
0000
0000
0000
0000
,
0000
0000
0000
0000
,
0000
1000
0100
0001
,
0000
1000
0000
0001
,
0000
0100
0000
0000
,
0200
0310
0000
0001
,
1001
1000
0000
0100
,
0000
1000
0010
0010
,
0110
0000
1000
0100
,
0010
0000
0010
0000
,
0010
0000
1000
0100
,
1000
0000
0000
0001
,
0100
0000
0000
0000
,
2000
3001
0000
0010
,
0110
0100
0000
0100
,
0000
0001
0010
0001
,
0100
0010
0000
0010
,
1000
0100
1000
0100
,
0001
0000
0000
0001
0000
0000
0001
0000
,
0000
0000
0100
0100
,
1000
0002
0000
0003
,
0000
0000
0000
1000
,
0001
0010
0100
0000
,
1000
0000
0100
0000
,
1000
0000
0001
0000
,
0010
0000
0000
0000
,
1000
0000
0000
1000
0000
0000
1000
0000
,
0000
0000
0010
0010
,
1000
0002
0000
0003
,
0000
0000
0000
1000
,
0001
0100
0010
0000
,
0000
0000
1000
0000
,
0100
0000
0010
0000
,
0200
0000
0000
0300
,
0100
0000
0000
0000
,
0000
0000
1000
1000
,
1000
0000
0000
0000
,
0000
0000
0001
0001
,
0001
0000
0000
0000
,
0000
0000
0010
0010
,
0010
0000
0000
0000
,
0000
0000
0000
0000
,
1001
0000
1000
0000
,
0001
0000
1000
1000
,
1000
0000
0001
0000
,
1000
0000
0001
0001
,
0001
0000
0100
0000
,
0010
0000
0100
0100
,
0100
0000
0010
0000
,
0200
0000
0000
0300
,
0001
0000
0000
0001
0000
0000
0001
0000
,
0000
0000
0100
0100
,
1000
0002
0000
0003
,
0000
0000
0000
1000
,
0001
0010
0100
0000
,
1000
0000
0100
0000
,
1000
0000
0001
0000
,
0010
0000
0000
0000
,
1000
0000
0000
1000
0000
0000
1000
0000
,
0000
0000
0010
0010
,
1000
0002
0000
0003
,
0000
0000
0000
1000
,
0001
0100
0010
0000
,
0000
0000
1000
0000
,
0100
0000
0010
0000
,
0200
0000
0000
0300
,
0100
0000
0000
0000
;

//---------------dance-single - ----------------
#NOTES:
     dance-single:
     :
     Beginner:
     1:
     0.069588,0.095990,0.007163,0.042981,0.000000,68.000000,67.000000,1.000000,6.000000,0.000000,0.000000,0.069588,0.095990,0.007163,0.042981,0.000000,68.000000,67.000000,1.000000,6.000000,0.000000,0.000000:
0000
0000
0000
0000
,
0000
0000
0000
0000
,
0000
0000
0000
0000
,
0000
0000
1000
0000
,
1000
0000
0000
0000
,
0100
0000
0100
0000
,
0000
0000
0010
0000
,
0010
0000
0000
0000
,
0001
0000
0001
0000
,
0000
0000
0000
0000
,
2000
0000
3000
0000
,
0000
0000
0001
0000
,
0001
0000
0000
0000
,
0010
0000
0010
0000
,
0000
0000
0100
0000
,
0100
0000
0000
0000
,
1000
0000
1000
0000
,
0000
0000
0000
0000
,
0002
0000
0003
0000
,
2000
0000
0000
0000
,
3000
0000
1000
0000
,
0000
0000
0000
0000
,
0001
0000
1000
0000
,
0001
0000
0000
0000
,
1000
0000
0001
0000
,
1000
0000
0000
0000
,
0000
0000
0000
0000
,
0002
0000
0000
0000
,
0003
0000
0001
0000
,
0000
0000
0000
0000
,
1000
0000
0001
0000
,
1000
0000
0000
0000
,
0001
0000
1000
0000
,
0001
0000
0000
0000
,
0100
0000
0000
0000
,
0001
0000
0000
0000
,
0000
0000
0100
0000
,
1000
0000
0000
0000
,
0000
0000
0100
0000
,
0001
0000
0000
0000
,
0000
0000
0100
0000
,
1000
0000
0000
0000
,
0000
0000
0000
0000
,
0001
0000
0000
0000
,
0000
0000
0010
0000
,
1000
0000
0000
0000
,
0000
0000
0010
0000
,
0001
0000
0000
0000
,
0000
0000
0010
0000
,
1000
0000
0000
0000
,
0000
0000
0000
0000
,
2000
0000
0000
0000
,
3000
0000
1000
0000
,
0000
0000
0000
0000
,
0001
0000
1000
0000
,
0001
0000
0000
0000
,
1000
0000
0001
0000
,
1000
0000
0000
0000
,
0000
0000
0000
0000
,
0002
0000
0000
0000
,
0003
0000
0001
0000
,
0000
0000
0000
0000
,
1000
0000
0001
0000
,
1000
0000
0000
0000
,
0001
0000
1000
0000
,
0001
0000
0000
0000
,
0100
0000
0000
0000
,
1001
0000
0000
0000
;

//---------------dance-single - ----------------
#NOTES:
     dance-single:
     :
     Medium:
     5:
     0.259930,0.311967,0.193412,0.093125,0.000000,254.000000,227.000000,27.000000,13.000000,0.000000,0.000000,0.259930,0.311967,0.193412,0.093125,0.000000,254.000000,227.000000,27.000000,13.000000,0.000000,0.000000:
0000
0000
0000
0000
,
0000
0000
0000
0000
,
0000
0000
0000
0000
,
1000
0100
1001
0100
,
0010
0001
0000
1000
,
0000
0100
0010
0010
,
2000
0000
3001
0000
0100
0000
0010
0001
,
1000
0100
0000
0100
,
0001
0000
1000
0000
0010
0000
0100
0010
,
0100
0000
1000
0001
,
0200
0010
0320
0130
,
0110
0000
1000
0001
,
1000
0000
0100
0000
0110
0000
1000
1000
,
0100
0010
0000
0010
,
2000
0000
3001
0000
0100
0000
0001
1000
,
0100
0010
0000
0001
,
0000
0010
1001
0100
,
1001
1000
0001
0010
,
2000
0100
0100
3100
,
0001
0000
0000
1000
0000
0000
0001
0000
,
0010
0000
0010
0000
0110
0000
1000
0100
,
0001
2000
0010
3010
,
0100
0000
0000
0010
0000
0000
0100
0000
,
1001
0000
0100
0010
0001
0000
0100
0000
,
1000
0000
0000
0000
0001
0000
1000
0001
,
1000
0010
0001
0100
,
0010
0000
0100
0100
,
1000
0000
0000
0001
0000
0000
1000
0000
,
0100
0000
0100
0000
0110
0000
0001
0010
,
1000
0002
0100
0103
,
0010
0000
0000
0100
0000
0000
0010
0000
,
1001
0000
0010
0100
1000
0000
0010
0000
,
0001
0000
0000
0000
1000
0000
0001
1000
,
0001
0100
1000
0010
,
0100
0000
0010
0010
,
2001
0000
0000
0000
,
0000
0000
0010
0010
,
3002
0000
0000
0000
,
0000
0000
0100
0100
,
0023
0000
0000
0000
,
0000
0000
1000
1000
,
0230
0000
0000
0000
,
0000
0000
0000
0300
,
0110
1000
0010
0010
,
0001
0100
0110
0110
,
1001
1000
0100
0010
,
0100
0010
1001
1001
,
0110
1000
0100
0001
,
0010
0100
0110
1001
,
0110
0010
0010
0001
,
1000
1000
1001
0110
,
0001
0000
0000
1000
0000
0000
0001
0000
,
0010
0000
0010
0000
0110
0000
1000
0100
,
0001
2000
0010
3010
,
0100
0000
0000
0010
0000
0000
0100
0000
,
1001
0000
0100
0010
0001
0000
0100
0000
,
1000
0000
0000
0000
0001
0000
1000
0001
,
1000
0010
0001
0100
,
0010
0000
0100
0100
,
1000
0000
0000
0001
0000
0000
1000
0000
,
0100
0000
0100
0000
0110
0000
0001
0010
,
1000
0002
0100
0103
,
0010
0000
0000
0100
0000
0000
0010
0000
,
1001
0000
0010
0100
1000
0000
0010
0000
,
0001
0000
0000
0000
1000
0000
0001
1000
,
0001
0100
1000
0010
,
0100
0000
0010
0010
,
1001
0000
0000
0000
;

//---------------dance-single - ----------------
#NOTES:
     dance-single:
     :
     Hard:
     7:
     0.349985,0.359962,0.114615,0.085961,0.168341,342.000000,326.000000,16.000000,12.000000,0.000000,0.000000,0.349985,0.359962,0.114615,0.085961,0.168341,342.000000,326.000000,16.000000,12.000000,0.000000,0.000000:
// measure 0
0000
0000
0000
0000
,  // measure 1
0000
0000
0000
0000
,  // measure 2
0000
0000
0000
0000
,  // measure 3
1000
0000
0000
1000
0000
0000
1000
0000
0000
0000
0001
0000
0000
1000
0000
0000
,  // measure 4
0001
0000
0000
0010
0000
0000
0100
0000
0000
0000
1000
0000
0000
0100
0000
0000
,  // measure 5
0010
0000
0000
0010
0000
0000
0100
0000
0000
0000
1000
0000
0000
1000
0000
0000
,  // measure 6
0010
0000
0000
0100
0000
0000
1000
0000
0000
0000
0101
0000
0000
0101
0000
0000
,  // measure 7
0010
0000
0000
1000
0000
0000
0100
0000
0000
0000
1000
0000
0000
1000
0000
0000
,  // measure 8
0001
0000
0000
1000
0000
0000
0100
0000
0000
0000
0010
0000
0000
0110
0000
0000
,  // measure 9
0001
0000
0000
0100
0000
0000
1000
0000
0000
0000
0010
0000
0000
0010
0000
0000
,  // measure 10
1000
0000
0000
0001
0000
0000
0010
0000
0000
0000
1000
0000
0100
0000
1000
0000
,  // measure 11
0001
0000
0000
1000
0000
0000
0100
0000
0000
0000
0010
0000
0000
0100
0000
0000
,  // measure 12
0010
0000
0000
0010
0000
0000
0010
0000
0000
0000
1000
0000
0000
1000
0000
0000
,  // measure 13
0100
0000
0000
0010
0000
0000
0010
0000
0000
0000
1000
0000
0000
0100
0000
0000
,  // measure 14
0001
0000
0000
1000
0000
0000
1000
0000
0000
0000
0010
0000
0000
0001
0000
0000
,  // measure 15
0101
0000
0000
1000
0000
0000
0001
0000
0000
0000
0001
0000
0000
0010
0000
0000
,  // measure 16
0001
0000
0000
0100
0000
0000
0010
0000
0000
0000
0100
0000
0000
0100
0000
0000
,  // measure 17
0010
0000
0000
0001
0000
0000
1000
0000
0000
0000
0100
0000
0000
0100
0000
0000
,  // measure 18
0001
1000
0001
1000
0100
0010
0100
0010
,  // measure 19
2000
0000
0000
3002
0000
0000
0013
0000
,  // measure 20
0000
0000
1000
0100
1000
0010
0001
0100
,  // measure 21
0010
0010
0001
0100
,  // measure 22
0010
0010
0001
0010
0000
1000
0100
0100
,  // measure 23
0010
0001
0010
0100
1000
0000
0001
0000
,  // measure 24
0001
0000
1100
0000
0010
0001
0100
0000
,  // measure 25
0010
0000
0110
0000
1000
0100
0001
0000
,  // measure 26
1000
0000
0000
0100
0000
0000
0010
0000
0000
0001
0000
0000
0100
0000
0000
0000
,  // measure 27
0002
0000
0000
2003
0000
0000
3100
0000
,  // measure 28
0000
0000
0001
0010
0001
0100
1000
0010
,  // measure 29
0100
0100
1000
0010
,  // measure 30
0100
0100
1000
0100
0000
0001
0010
0010
,  // measure 31
0100
1000
0100
0010
0001
0000
1000
0000
,  // measure 32
1000
0000
0011
0000
0100
1000
0010
0000
,  // measure 33
0100
0000
0110
0000
0001
0010
1000
0000
,  // measure 34
0010
0100
0010
0100
0001
1000
0001
1000
,  // measure 35
0020
0100
0000
0100
,  // measure 36
0000
0000
0000
0130
0000
0000
1000
0000
1000
0000
1000
0000
,  // measure 37
2000
0001
0000
0001
,  // measure 38
0000
0000
0000
3001
0000
0000
0100
0000
0100
0000
0100
0000
,  // measure 39
0200
0010
0000
0010
,  // measure 40
0000
0000
0000
0310
0000
0000
0001
0000
0001
0000
0001
0000
,  // measure 41
0002
1000
0000
1000
,  // measure 42
0000
0000
0000
1003
0000
0000
0100
0000
0100
0000
0100
0000
,  // measure 43
0100
0000
0110
0000
1000
0100
0001
0000
,  // measure 44
1000
0000
0000
0010
0000
0000
1000
0000
0001
0000
0100
0000
,  // measure 45
0010
0000
1001
0000
0100
0010
1000
0000
,  // measure 46
0001
0000
0000
0100
0000
0000
1000
0000
0010
0000
0100
0000
,  // measure 47
0001
0000
0011
0000
1000
0100
0100
0000
,  // measure 48
1000
0000
0000
0001
0000
0000
1000
0000
0100
0000
0010
0000
,  // measure 49
0001
0000
1100
0000
0010
1000
0001
0000
,  // measure 50
1000
0010
1000
0010
0001
0100
0001
0100
,  // measure 51
2000
0000
0000
3002
0000
0000
0013
0000
,  // measure 52
0000
0000
1000
0100
1000
0010
0001
0100
,  // measure 53
0010
0010
0001
0100
,  // measure 54
0010
0010
0001
0010
0000
1000
0100
0100
,  // measure 55
0010
0001
0010
0100
1000
0000
0001
0000
,  // measure 56
0001
0000
1100
0000
0010
0001
0100
0000
,  // measure 57
0010
0000
0110
0000
1000
0100
0001
0000
,  // measure 58
1000
0000
0000
0100
0000
0000
0010
0000
0000
0001
0000
0000
0100
0000
0000
0000
,  // measure 59
0002
0000
0000
2003
0000
0000
3100
0000
,  // measure 60
0000
0000
0001
0010
0001
0100
1000
0010
,  // measure 61
0100
0100
1000
0010
,  // measure 62
0100
0100
1000
0100
0000
0001
0010
0010
,  // measure 63
0100
1000
0100
0010
0001
0000
1000
0000
,  // measure 64
1000
0000
0011
0000
0100
1000
0010
0000
,  // measure 65
0100
0000
0110
0000
0001
0010
1000
0000
,  // measure 66
0010
0100
0010
0100
0001
1000
0001
1000
,  // measure 67
0010
0000
0000
0000
;
