#TITLE:YOUR LOVE;
#SUBTITLE:;
#ARTIST:THE OUTFIELD;
#TITLETRANSLIT:;
#SUBTITLETRANSLIT:;
#ARTISTTRANSLIT:;
#GENRE:;
#CREDIT:;
#BANNER:Your Love.png;
#BACKGROUND:Your Love-bg.png;
#LYRICSPATH:;
#CDTITLE:cdtitle.png;
#MUSIC:Your Love.ogg;
#OFFSET:-0.284000;
#SAMPLESTART:29.903999;
#SAMPLELENGTH:18.000000;
#SELECTABLE:YES;
#DISPLAYBPM:130.000000;
#BPMS:0.000000=129.639999
;
#STOPS:
;
#BGCHANGES:;
#KEYSOUNDS:;
#ATTACKS:;

//---------------dance-single - ----------------
#NOTES:
     dance-single:
     :
     Easy:
     6:
     0.233940,0.261398,0.092258,0.069194,0.000000,213.000000,201.000000,12.000000,9.000000,0.000000,0.000000,0.233940,0.261398,0.092258,0.069194,0.000000,213.000000,201.000000,12.000000,9.000000,0.000000,0.000000:
0000
0000
0000
0000
,
0000
0000
0000
0000
,
0000
0000
0000
0000
,
0000
0000
0000
0000
,
1000
0000
0000
1000
0000
0000
1000
0000
,
0000
0001
0000
0000
0100
0000
0001
0000
,
0010
0000
0000
0010
0000
0000
0010
0000
,
0000
0010
0000
0000
0100
0000
1000
0000
,
0001
0000
0000
1000
0000
0000
0100
0000
,
0000
0010
0000
0000
0100
0000
0100
0000
,
1000
0000
0000
0001
0000
0000
0001
0000
,
0000
1000
0000
0000
0010
0000
0100
0000
,
0100
0000
0000
0100
0000
0000
0001
0000
,
0000
1000
0000
0000
0010
0000
1001
0000
,
0001
0000
0000
1000
0000
0000
0001
0000
,
0000
0100
0000
0000
0000
0100
0100
0000
,
1000
0000
0000
1000
0000
0000
0100
0000
,
0000
0001
0000
0000
0100
0000
1000
0000
,
0010
0000
0000
0010
0000
0000
0100
0000
,
1000
1000
0100
0110
,
0001
0000
0000
1000
0000
0000
0001
0000
,
1000
0100
0110
0001
,
1001
0000
0000
0100
0000
0000
0010
0000
,
1000
1000
0001
0010
,
0100
0100
0000
0000
1000
0000
0000
0000
,
0200
0000
0010
0000
0310
0000
0000
1000
,
0001
0000
0000
0001
0000
0000
0100
0000
,
0000
0010
0000
0000
0100
0000
0010
0000
,
0110
0000
1000
0000
,
0020
0000
0001
0000
0031
0000
0000
1000
,
0001
0000
0000
0001
0000
0000
0100
0000
,
0000
0010
0000
0000
0000
0010
0010
0000
,
0010
0000
1000
0100
,
0002
0100
0010
0013
,
0000
0000
1000
0001
,
0020
0100
1000
0130
,
1000
0001
0010
0010
,
0001
0000
0100
0000
0010
0000
0000
0010
,
0000
1000
0000
0100
,
0001
0100
0010
0010
,
1000
0000
0000
0001
0000
0000
0100
0000
,
0000
1000
0000
0000
0001
0000
1000
0000
,
0100
0000
0000
0010
0000
0000
0100
0000
,
0000
1000
0000
0000
0001
0000
0110
0000
,
0010
0000
0000
1000
0000
0000
0100
0000
,
0000
1000
0000
0000
0001
0000
0100
0000
,
1000
0000
0000
0010
0000
0000
0100
0000
,
0000
0001
0000
0000
0010
0000
1001
0000
,
0100
0000
1000
0000
,
0020
0000
0001
0000
0130
0000
0000
0010
,
0100
0000
0000
0100
0000
0000
0001
0000
,
0000
0010
0000
0000
0100
0000
0010
0000
,
0110
0000
0010
0000
,
0020
0000
1000
0000
0031
0000
0000
0100
,
0010
0000
0000
0010
0000
0000
1000
0000
,
0100
0010
0100
0010
,
0001
0000
1000
0000
,
0200
0000
1000
0000
0301
0000
0000
1000
,
0100
0000
0000
0100
0000
0000
0010
0000
,
0000
1000
0110
0010
,
1001
0000
0100
0000
,
0210
0000
0001
0000
1300
0000
0000
0010
,
1000
0000
0000
1000
0000
0000
0100
0000
,
0000
0001
0000
0000
0010
0000
0000
0001
,
0001
0000
0100
0000
,
2001
0000
0010
0000
3001
0000
0000
0010
,
0001
0000
0000
0001
0000
0000
0100
0000
,
0000
0010
0000
0000
0100
0000
0100
0000
,
1000
0000
0000
0000
;

//---------------dance-single - ----------------
#NOTES:
     dance-single:
     :
     Beginner:
     2:
     0.088963,0.152226,0.007688,0.007688,0.000000,81.000000,80.000000,1.000000,1.000000,0.000000,0.000000,0.088963,0.152226,0.007688,0.007688,0.000000,81.000000,80.000000,1.000000,1.000000,0.000000,0.000000:
0000
0000
0000
0000
,
0000
0000
0000
0000
,
0000
0000
0000
0000
,
0000
0000
0000
0000
,
0000
0000
0000
0000
,
0000
0000
0000
0000
,
0000
0000
0000
0000
,
0000
0000
0000
0000
,
0000
0000
0100
0000
,
0010
0000
0100
0000
,
0010
0000
0000
0000
,
0000
0000
0000
0000
,
0000
0000
1000
0000
,
0001
0000
1000
0000
,
0001
0000
0000
0000
,
0000
0000
0000
0000
,
0000
0000
0100
0000
,
0001
0000
0010
0000
,
0010
0000
0000
0000
,
1000
0000
0001
0000
,
0100
0000
0000
0000
,
1000
0000
1000
0000
,
0001
0000
0000
0000
,
0010
0000
0010
0000
,
0110
0000
0100
0000
,
0010
0000
0100
0000
,
0010
0000
0000
0000
,
0000
0000
1000
0000
,
0000
0000
1000
0000
,
0001
0000
1000
0000
,
0002
0000
0000
0000
,
0003
0000
0000
0000
,
0100
0000
0001
0000
,
0100
0000
1000
0000
,
0000
0000
1000
0000
,
0001
0000
0010
0000
,
0000
0000
1000
0000
,
1000
0000
0001
0000
,
0010
0000
0000
0000
,
0100
0000
0001
0000
,
0100
0000
0000
0000
,
0100
0000
1000
0000
,
0001
0000
0000
0000
,
0010
0000
1000
0000
,
0001
0000
0000
0000
,
1000
0000
0010
0000
,
0100
0000
0000
0000
,
0001
0000
0010
0000
,
0100
0000
1000
0000
,
0001
0000
1000
0000
,
0001
0000
0000
0000
,
0000
0000
0000
0000
,
0000
0000
0100
0000
,
0010
0000
0100
0000
,
0010
0000
0000
0000
,
0100
0100
0100
0100
,
0000
0000
1000
0000
,
0001
0000
1000
0000
,
0001
0000
0000
0000
,
0000
0000
0000
0000
,
0000
0000
0100
0000
,
0010
0000
0100
0000
,
0010
0000
0000
0000
,
0000
0000
0000
0000
,
0000
0000
1000
0000
,
0001
0000
1000
0000
,
0001
0000
0000
0000
;

//---------------dance-single - ----------------
#NOTES:
     dance-single:
     :
     Medium:
     7:
     0.319608,0.365957,0.169140,0.099946,0.007688,291.000000,269.000000,22.000000,13.000000,0.000000,0.000000,0.319608,0.365957,0.169140,0.099946,0.007688,291.000000,269.000000,22.000000,13.000000,0.000000,0.000000:
0000
0000
0000
0000
,
0000
0000
0000
0000
,
0000
0000
0000
0000
,
0000
0000
0000
0000
,
0000
0000
1000
0100
,
0010
0000
0010
0000
0001
0000
1000
0100
,
0010
0000
0000
0010
0000
0000
1000
0000
,
0100
0002
1000
1003
,
0010
0001
0100
0000
0100
0000
0001
0001
,
2000
0000
0100
0000
3010
0000
0000
1000
,
0010
0000
1000
0010
0000
0000
1000
0000
,
0001
0001
0100
1100
,
1001
0000
0000
0000
0010
0000
0001
0100
,
2000
0000
0001
0000
3010
0000
0000
0100
,
0010
0000
0100
0010
0000
0000
1000
0000
,
0002
0000
0000
0000
0000
1000
1003
0000
,
1001
0000
0000
1000
1000
0000
0001
0010
,
0100
0000
0000
1000
0000
0000
0100
0000
0001
0000
0000
0000
0010
0000
0000
0000
,
1010
0000
1000
0100
,
0001
0001
1000
0000
0010
0000
0110
0000
,
1000
0000
0000
0100
0001
0000
0010
0001
,
1000
0100
0001
0100
,
0110
0000
0001
1000
0000
1000
0000
1000
,
0100
0010
0001
0000
1000
0000
1100
0000
,
0001
0000
0000
0000
1000
0000
1000
0100
,
0001
0000
1000
0000
0001
0000
0010
0001
,
0100
0000
0010
0100
0000
0000
0010
0000
,
0001
0100
0100
0010
,
0110
0000
0000
0000
1000
0000
1000
0100
,
0001
0000
1000
0000
0001
0000
0010
0001
,
0100
0000
0010
0100
0000
0000
0010
0000
,
0001
0000
1000
0000
0000
1000
1000
1000
,
1000
0000
0000
0000
1001
0000
0100
0010
,
0002
1000
0100
0103
,
0010
0000
0011
0000
1000
0000
0010
0001
,
2000
0100
0001
3100
,
0010
0000
0110
0000
1000
0000
0001
0001
,
0200
0010
1000
1300
,
0011
0000
0000
0000
0000
0001
0010
0100
,
1000
0000
0001
0010
0100
0000
0110
0000
,
0000
0000
1000
0001
,
0100
0000
0000
0010
0000
0000
0100
0000
0001
0000
0000
0000
1000
0000
0010
0000
,
1000
0000
0000
1000
,
1000
0100
2000
0000
0010
0000
3010
0000
,
0001
0000
0000
0000
1000
0000
0001
0001
,
0100
0010
2000
0001
,
3010
0000
0000
0000
0000
0000
1000
0001
,
0100
0000
0010
0010
0002
0000
0100
0000
,
0013
0000
0000
0000
0100
0000
0001
0001
,
2000
0000
0100
0000
3010
0000
0000
1000
,
0010
0000
1000
0010
0000
0000
1000
0000
,
0001
0001
0100
1100
,
1001
0000
0000
0000
0010
0000
0001
0100
,
2000
0000
0001
0000
3010
0000
0000
0100
,
0010
0000
0100
0010
0000
0000
1000
0000
,
1001
0110
1001
0110
,
1001
0000
0000
0000
1000
0000
1000
0100
,
0001
0000
1000
0000
0001
0000
0010
0001
,
0100
0000
0010
0100
0000
0000
0010
0000
,
0001
0100
0100
0010
,
0110
0000
0000
0000
1000
0000
1000
0100
,
0001
0000
1000
0000
0001
0000
0010
0001
,
0100
0000
0010
0100
0000
0000
0010
0000
,
0001
0000
1000
0000
0100
0000
0010
1000
,
0100
0000
0000
0000
0010
0000
0010
0001
,
0200
0000
0001
0000
1300
0000
0000
1000
,
0001
0000
1000
0001
0000
0000
0100
0000
,
0001
0010
0100
1000
,
1100
0000
0000
0000
;

//---------------dance-single - ----------------
#NOTES:
     dance-single:
     :
     Hard:
     10:
     0.477765,0.444376,0.099946,0.023065,0.026909,435.000000,422.000000,13.000000,3.000000,0.000000,0.000000,0.477765,0.444376,0.099946,0.023065,0.026909,435.000000,422.000000,13.000000,3.000000,0.000000,0.000000:
// measure 0
0000
0000
0000
0000
,  // measure 1
0000
0000
0000
0000
,  // measure 2
0000
0000
0000
0000
,  // measure 3
0000
0000
0000
0000
,  // measure 4
1000
0000
1000
0100
0010
0001
1000
0000
,  // measure 5
0010
0001
0100
0010
1000
0000
1100
0000
,  // measure 6
0001
0000
1000
0001
0100
0001
1000
0000
,  // measure 7
0010
0001
0010
0100
0010
0000
1001
0000
,  // measure 8
0100
0000
0100
0001
1000
0010
0100
0000
,  // measure 9
1000
0010
0001
1000
0100
0000
0101
0000
,  // measure 10
0010
0000
0100
0010
0001
0010
0100
0000
,  // measure 11
1000
0010
1000
0001
1000
0000
0110
0000
,  // measure 12
0100
0000
0100
1000
0010
0001
1000
0000
,  // measure 13
0010
0100
1000
0010
1000
0000
0101
0000
,  // measure 14
0010
0000
1000
0100
0010
0100
1000
0000
,  // measure 15
0001
2000
0000
0000
0000
0001
3001
0000
,  // measure 16
0100
0000
1000
0100
0001
0010
0100
1000
,  // measure 17
0001
0000
0000
0001
0000
0000
1000
0000
0010
0000
0100
0000
0001
0000
1000
0000
,  // measure 18
0010
0000
0100
0010
0000
1000
0100
1000
,  // measure 19
0001
0001
1000
0001
0010
0100
0010
0000
,  // measure 20
1100
0000
0001
1000
0010
0001
0100
0010
,  // measure 21
0001
1000
1000
0001
0020
0000
0100
0100
,  // measure 22
0130
0000
1000
0001
0000
0010
1000
0010
,  // measure 23
0010
0001
0100
1000
0001
0001
1000
0000
,  // measure 24
0010
0001
0010
0000
0001
0000
0000
0000
1000
0000
0100
0000
0001
0000
0100
0000
,  // measure 25
0010
1000
0100
0100
0001
0000
1000
0100
,  // measure 26
0010
0001
0001
1000
0000
0010
0001
0010
,  // measure 27
0001
0100
0000
0200
0010
0000
0310
0000
,  // measure 28
0110
0000
1000
0000
0001
0010
1000
0010
,  // measure 29
0100
0001
0010
0010
1000
0000
0001
0010
,  // measure 30
0100
1000
1000
0001
0000
0100
1000
0100
,  // measure 31
1000
0010
0000
0010
0100
1000
0100
1000
,  // measure 32
0001
0000
0100
0001
0000
1000
0001
1000
,  // measure 33
0010
0001
0100
0010
0100
0100
0001
0000
,  // measure 34
1000
1000
0001
0100
0010
0100
0100
0001
,  // measure 35
0010
1000
0001
0001
1000
0100
0001
0000
,  // measure 36
1000
0010
1000
0000
0001
0000
0000
0000
0100
0000
0010
0000
0100
0000
0001
0000
,  // measure 37
0010
0100
1000
0001
0010
1000
0001
0010
,  // measure 38
0001
0000
1000
0100
0010
0000
1000
0100
,  // measure 39
0010
0001
1000
0001
0010
0001
0100
0000
,  // measure 40
1000
0100
0010
0001
0000
1000
0001
0010
,  // measure 41
0100
0010
0000
1000
0001
0010
0100
0010
,  // measure 42
0100
0001
0010
0001
0000
0100
0100
1000
,  // measure 43
0001
0000
1000
0000
0010
0000
0001
0000
0100
0000
0000
0001
0000
0000
0100
0000
,  // measure 44
0010
1000
0100
0100
0000
1000
1000
1000
,  // measure 45
0001
0010
0000
0100
0001
0100
0010
0001
,  // measure 46
1000
0000
0100
0010
0001
1000
1000
0000
,  // measure 47
0010
0000
0001
0000
0010
0000
0001
0000
0100
0000
0000
0001
0000
0000
0100
0000
,  // measure 48
0010
0000
0010
1000
0001
0100
0010
0000
,  // measure 49
0001
0100
1000
0001
0010
0000
1010
0000
,  // measure 50
0100
0000
0010
0100
1000
0100
0010
0000
,  // measure 51
0001
0100
0001
1000
0001
0000
0110
0000
,  // measure 52
0010
0000
0010
0001
0100
1000
0001
0000
,  // measure 53
0100
0010
0001
0100
0001
0000
1010
0000
,  // measure 54
0100
0000
0001
0010
0100
0010
0001
0000
,  // measure 55
1000
0010
1000
0010
0001
0100
0001
0100
,  // measure 56
0010
0000
1000
0000
0001
0010
1000
0010
,  // measure 57
0100
0001
0010
0010
1000
0000
0001
0010
,  // measure 58
0100
1000
1000
0001
0000
0100
1000
0100
,  // measure 59
1000
0010
0001
0001
0100
0100
1000
1000
,  // measure 60
0110
0000
0000
0000
0001
0000
0000
0000
0100
0010
0100
0000
0001
0000
0100
0000
,  // measure 61
0010
1000
0100
0100
0001
0000
1000
0100
,  // measure 62
0010
0001
0001
1000
0000
0010
0001
0010
,  // measure 63
0001
0100
0000
0100
0010
0001
0010
0001
,  // measure 64
1000
0000
0000
0000
1100
0000
0000
0000
0001
0100
0001
0000
0010
0000
0100
0000
,  // measure 65
1000
0100
0010
0100
0100
0000
0001
0010
,  // measure 66
0100
1000
0001
0010
0000
1000
1000
1000
,  // measure 67
0100
0010
0000
0000
0001
0000
0000
0001
,  // measure 68
1001
0000
0000
0000
;
