#TITLE:Wavin' Flag;
#SUBTITLE:;
#ARTIST:K`naan feat. Skank;
#TITLETRANSLIT:;
#SUBTITLETRANSLIT:;
#ARTISTTRANSLIT:;
#GENRE:;
#CREDIT:;
#BANNER:Wavin' Flag.png;
#BACKGROUND:Wavin' Flag-bg.png;
#LYRICSPATH:;
#CDTITLE:cdtitle.png;
#MUSIC:Wavin' Flag.ogg;
#OFFSET:-0.063000;
#SAMPLESTART:64.800003;
#SAMPLELENGTH:12.624000;
#SELECTABLE:YES;
#DISPLAYBPM:152.000000;
#BPMS:0.000000=152.000000
;
#STOPS:
;
#BGCHANGES:;
#KEYSOUNDS:;
#ATTACKS:;

//---------------dance-single - ----------------
#NOTES:
     dance-single:
     :
     Easy:
     6:
     0.229362,0.295319,0.149739,0.033275,0.000000,193.000000,175.000000,18.000000,4.000000,0.000000,0.000000,0.229362,0.295319,0.149739,0.033275,0.000000,193.000000,175.000000,18.000000,4.000000,0.000000,0.000000:
0000
0000
0000
0000
,
0000
0000
0000
0000
,
0000
0000
0000
0000
,
0000
0000
0000
0000
,
0000
0000
0000
0000
,
0000
0000
0000
0000
,
0001
0001
0001
0010
,
0000
1000
0100
0010
,
0001
0001
0001
0100
,
0000
1001
0110
0000
,
1000
1000
1000
0010
,
0000
0001
0100
0010
,
1000
1000
1000
0100
,
0000
0000
0000
0000
,
0001
0000
1000
0000
,
0001
0000
1000
0000
,
0010
0000
0001
0000
,
0100
0010
0001
0100
,
1000
0000
0001
0000
,
1000
0000
0001
0000
,
0100
0000
1000
0000
,
0010
0100
1000
0010
,
0002
0000
0100
0003
,
2000
0000
0000
3000
,
0100
0100
0001
1000
,
0110
0001
0100
0000
,
0010
0000
1001
0000
,
0100
0000
1001
0000
,
1000
1000
1000
0000
,
0001
0001
0001
0000
,
1000
0000
0110
0000
,
0001
0000
0110
0000
,
1000
0100
0010
0010
,
0001
0100
0010
0000
,
0001
0000
0110
0000
,
1000
0000
0110
0000
,
0001
0010
0100
1000
,
0010
0010
0010
0000
,
0100
0100
0100
0000
,
0001
1000
0001
0000
,
1000
0001
1000
0000
,
0001
0001
0001
0010
,
0000
1000
0100
0010
,
0001
0001
0001
0100
,
0000
1001
0110
0000
,
1000
1000
1000
0010
,
0000
0001
0100
0010
,
1000
1000
1000
0100
,
0000
0000
0000
0000
,
1000
0000
0110
0000
,
0001
0000
0110
0000
,
1000
0100
0010
0010
,
0001
0100
0010
0000
,
0001
0000
0110
0000
,
1000
0000
0110
0000
,
0001
0010
0100
1000
,
0010
0010
0010
0000
,
0100
0100
0100
0000
,
0001
1000
0001
0000
,
1000
0001
1000
0000
,
0001
0001
0001
0010
,
0000
1000
0100
0010
,
0001
0001
0001
0100
,
0000
1001
0110
0000
,
1000
1000
1000
0010
,
0000
0001
0100
0010
,
1000
1000
1000
0100
,
0000
0000
0000
0000
,
2002
0000
0000
0000
,
0000
0000
0000
0000
,
0000
0000
0000
0000
,
3003
0000
0000
0000
;

//---------------dance-single - ----------------
#NOTES:
     dance-single:
     :
     Beginner:
     3:
     0.083188,0.147659,0.016638,0.199652,0.000000,70.000000,68.000000,2.000000,24.000000,0.000000,0.000000,0.083188,0.147659,0.016638,0.199652,0.000000,70.000000,68.000000,2.000000,24.000000,0.000000,0.000000:
0000
0000
0000
0000
,
0000
0000
0000
0000
,
0000
0000
0000
0000
,
0000
0000
0000
0000
,
0000
0000
0000
0000
,
0000
0000
0000
0000
,
0002
0000
0000
0003
,
0000
0000
0000
0000
,
2000
0000
0000
3000
,
0000
0010
0010
0000
,
0002
0000
0000
0003
,
0000
0000
0000
0000
,
2000
0000
0000
3000
,
0000
0000
0000
0000
,
0100
0000
0000
0000
,
0010
0000
0000
0000
,
0100
0000
0000
0000
,
0010
0000
0100
0000
,
1000
0000
0000
0000
,
0001
0000
0000
0000
,
1000
0000
0000
0000
,
0001
0000
1000
0000
,
0010
0000
0010
0000
,
0100
0000
0000
0000
,
0001
0000
0010
0000
,
0100
0000
1000
0000
,
0010
0000
0000
0000
,
1001
0000
0000
0000
,
0200
0000
0300
0000
,
0200
0000
0300
0000
,
1000
0000
0000
0000
,
0001
0000
0000
0000
,
1000
0000
0100
0000
,
0010
0000
0001
0000
,
0100
0000
0000
0000
,
0010
0000
0000
0000
,
0100
0000
1000
0000
,
0200
0000
0300
0000
,
0200
0000
0300
0000
,
0020
0000
0030
0000
,
0020
0000
0030
0000
,
0002
0000
0000
0003
,
0000
0000
0000
0000
,
2000
0000
0000
3000
,
0000
0010
0010
0000
,
0002
0000
0000
0003
,
0000
0000
0000
0000
,
2000
0000
0000
3000
,
0000
0000
0000
0000
,
1000
0000
0000
0000
,
0001
0000
0000
0000
,
1000
0000
0100
0000
,
0010
0000
0001
0000
,
0100
0000
0000
0000
,
0010
0000
0000
0000
,
0100
0000
1000
0000
,
0200
0000
0300
0000
,
0200
0000
0300
0000
,
0020
0000
0030
0000
,
0020
0000
0030
0000
,
0002
0000
0000
0003
,
0000
0000
0000
0000
,
2000
0000
0000
3000
,
0000
0010
0010
0000
,
0002
0000
0000
0003
,
0000
0000
0000
0000
,
2000
0000
0000
3000
,
0000
0000
0000
0000
,
0220
0000
0000
0000
,
0000
0000
0000
0000
,
0000
0000
0000
0000
,
0330
0000
0000
0000
;

//---------------dance-single - ----------------
#NOTES:
     dance-single:
     :
     Medium:
     8:
     0.317305,0.354383,0.124783,0.183015,0.000000,267.000000,252.000000,15.000000,22.000000,0.000000,0.000000,0.317305,0.354383,0.124783,0.183015,0.000000,267.000000,252.000000,15.000000,22.000000,0.000000,0.000000:
0000
0000
0000
0000
,
0000
0000
0000
0000
,
0000
0000
0000
0000
,
0000
0000
0000
0000
,
0000
0000
0000
0000
,
0000
0000
0000
0000
,
2000
0000
0100
0000
3010
0000
0001
0001
,
0000
0000
0000
0000
0100
0000
0001
0001
,
0002
0000
0010
0000
0103
0000
1000
1000
,
0000
0210
0301
0000
,
0002
0000
0010
0000
0103
0000
1000
1000
,
0000
0000
0000
0000
0010
0000
1000
1000
,
2000
0000
0100
0000
3010
0000
0001
0001
,
0000
0000
0100
0000
,
1000
0000
1000
0000
1000
0001
1000
0000
,
0001
0000
0001
0000
0001
1000
0001
0000
,
1000
0000
1000
0000
1000
0001
1000
0000
,
0001
0000
0001
0000
0001
1000
0001
0000
,
0100
0000
0100
0000
0100
0010
0100
0000
,
0010
0000
0010
0000
0010
0100
0010
0000
,
0100
0000
0100
0000
0100
0010
0100
0000
,
0010
0000
0010
0000
0010
0100
0010
0000
,
2000
0000
0000
0000
3001
0000
0010
0001
,
0100
0000
1001
0000
,
0200
0310
0200
0301
,
1000
0100
0001
0000
1000
0010
0001
0000
,
2000
3001
2000
3010
,
0100
0000
0001
1000
0001
0000
0000
0000
,
0100
0000
0010
0100
0010
0000
0100
0000
,
0001
0000
1000
0001
1000
0000
0001
0000
,
0100
0000
0000
0000
0100
0001
0100
0000
,
0001
0000
0000
0000
1000
0010
1000
0000
,
0010
0000
0010
0000
1000
0010
0100
0000
,
0001
0000
0010
1000
0010
1000
0100
0000
,
0001
0000
0000
0000
0001
0010
0001
0000
,
0010
0000
0000
0000
0100
0010
0100
0000
,
0010
0000
0011
0000
,
1000
0001
1000
0000
1001
0000
0000
0000
,
0001
1000
0001
0000
1001
0000
0000
0000
,
0010
0100
0010
0000
0110
0000
0000
0000
,
0100
0010
0100
0000
0110
0000
0000
0000
,
0002
0000
0010
0000
0103
0000
1000
1000
,
0000
0000
0000
0000
0010
0000
1000
1000
,
2000
0000
0100
0000
3010
0000
0001
0001
,
0000
0120
1030
0000
,
2000
0000
0100
0000
3010
0000
0001
0001
,
0000
0000
0000
0000
0100
0000
0001
0001
,
0002
0000
0010
0000
0103
0000
1000
1000
,
0000
0000
0010
0000
,
0100
0000
0000
0000
0100
0001
0100
0000
,
0001
0000
0000
0000
1000
0010
1000
0000
,
0010
0000
0010
0000
1000
0010
0100
0000
,
0001
0000
0010
1000
0010
1000
0100
0000
,
0001
0000
0000
0000
0001
0010
0001
0000
,
0010
0000
0000
0000
0100
0010
0100
0000
,
0010
0000
0011
0000
,
1000
0001
1000
0000
1001
0000
0000
0000
,
0001
1000
0001
0000
1001
0000
0000
0000
,
0010
0100
0010
0000
0110
0000
0000
0000
,
0100
0010
0100
0000
0110
0000
0000
0000
,
2000
0000
0100
0000
3010
0000
0001
0001
,
0000
0000
0000
0000
0100
0000
0001
0001
,
0002
0000
0010
0000
0103
0000
1000
1000
,
0000
0210
0301
0000
,
0002
0000
0010
0000
0103
0000
1000
1000
,
0000
0000
0000
0000
0010
0000
1000
1000
,
2000
0000
0100
0000
3010
0000
0001
0001
,
0000
0000
0100
0000
,
2020
0000
0000
0000
,
0000
0000
0000
0000
,
0000
0000
0000
0000
,
3030
0000
0000
0000
;

//---------------dance-single - ----------------
#NOTES:
     dance-single:
     :
     Hard:
     12:
     0.468232,0.590638,0.191333,0.224609,0.141420,394.000000,371.000000,23.000000,27.000000,0.000000,0.000000,0.468232,0.590638,0.191333,0.224609,0.141420,394.000000,371.000000,23.000000,27.000000,0.000000,0.000000:
// measure 0
0000
0000
0000
0000
,  // measure 1
0000
0000
0000
0000
,  // measure 2
0000
0000
0000
0000
,  // measure 3
0000
0000
0000
0000
,  // measure 4
0000
0000
0000
0000
,  // measure 5
0000
0000
0000
0000
,  // measure 6
0002
0000
0100
0000
1000
0000
0103
1000
,  // measure 7
0010
0000
0000
0010
0001
0010
1000
0100
,  // measure 8
2000
0000
0010
0000
0001
0000
3010
0001
,  // measure 9
0100
0000
0020
1000
1030
0000
0000
0000
,  // measure 10
0200
0000
1000
0000
0010
0000
1300
0010
,  // measure 11
0001
0000
0000
0001
0100
0001
0010
1000
,  // measure 12
0020
0000
0001
0000
0100
0000
0031
0100
,  // measure 13
1000
0001
0100
0010
0001
1000
0001
0010
0100
1000
0010
0001
,  // measure 14
1000
1000
0000
0001
0001
0000
1001
0000
,  // measure 15
0010
0010
0000
0100
0100
0000
0110
0000
,  // measure 16
0001
0001
0000
0100
0100
0000
0101
0000
,  // measure 17
1000
0100
1000
0010
0100
0001
0010
0000
,  // measure 18
1000
1000
0000
0010
0010
0000
1010
0000
,  // measure 19
0100
0100
0000
1000
1000
0000
1100
0000
,  // measure 20
0010
0010
0000
0001
0001
0000
0011
0000
,  // measure 21
0100
0001
0100
1000
0010
0001
0010
0100
0001
1000
0010
0100
,  // measure 22
0001
0000
0100
0010
1000
0100
0020
0000
,  // measure 23
0031
0000
0000
0000
0000
0000
1000
0100
1000
0100
0000
0000
,  // measure 24
1000
1001
0001
1001
,  // measure 25
1000
0100
0010
0001
0100
0010
1000
0000
,  // measure 26
0100
0110
0010
0110
,  // measure 27
0100
0001
1000
0010
0001
1000
0100
0000
,  // measure 28
0200
0000
0001
0001
0301
0000
0101
0000
,  // measure 29
2000
0000
0010
0010
3010
0000
1010
0000
,  // measure 30
1001
0000
1000
0100
0002
0000
1003
0000
,  // measure 31
1000
0100
0001
0100
2000
0010
3001
0000
,  // measure 32
0100
1000
0100
0001
0100
1000
0100
0001
,  // measure 33
0010
1000
0010
0001
0010
1000
0010
0000
,  // measure 34
0110
0000
0010
1000
0200
0000
0310
0000
,  // measure 35
0010
1000
0100
1000
0020
0001
0130
0000
,  // measure 36
1100
0101
0011
1010
,  // measure 37
0001
0100
1000
0100
0010
0000
1000
0000
,  // measure 38
0100
0001
0100
0010
1000
0000
0100
0000
,  // measure 39
0010
1000
0100
0010
0001
0000
0010
0000
,  // measure 40
0100
0001
0010
0100
1000
0000
0010
0000
,  // measure 41
0002
0000
0100
0000
1000
0000
0103
1000
,  // measure 42
0010
0000
0000
0010
0001
0010
1000
0100
,  // measure 43
2000
0000
0010
0000
0001
0000
3010
0001
,  // measure 44
0100
0000
0020
1000
1030
0000
0000
0000
,  // measure 45
0200
0000
1000
0000
0010
0000
1300
0010
,  // measure 46
0001
0000
0000
0001
0100
0001
0010
1000
,  // measure 47
0020
0000
0001
0000
0100
0000
0031
0100
,  // measure 48
1000
0001
0100
0010
0001
1000
0001
0010
0100
1000
0010
0001
,  // measure 49
1000
0000
1000
0100
0002
0000
1003
0000
,  // measure 50
1000
0100
0001
0100
2000
0010
3001
0000
,  // measure 51
0100
1000
0100
0001
0100
1000
0100
0001
,  // measure 52
0010
1000
0010
0001
0010
1000
0010
0000
,  // measure 53
0110
0000
0010
1000
0200
0000
0310
0000
,  // measure 54
0010
1000
0100
1000
0020
0001
0130
0000
,  // measure 55
1100
0101
0011
1010
,  // measure 56
0001
0100
1000
0100
0010
0000
1000
0000
,  // measure 57
0100
0001
0100
0010
1000
0000
0100
0000
,  // measure 58
0010
1000
0100
0010
0001
0000
0010
0000
,  // measure 59
0100
0001
0010
0100
1000
0000
0010
0000
,  // measure 60
0002
0000
0100
0000
1000
0000
0103
1000
,  // measure 61
0010
0000
0000
0010
0001
0010
1000
0100
,  // measure 62
2000
0000
0010
0000
0001
0000
3010
0001
,  // measure 63
0100
0000
0020
1000
1030
0000
0000
0000
,  // measure 64
0200
0000
1000
0000
0010
0000
1300
0010
,  // measure 65
0001
0000
0000
0001
0100
0001
0010
1000
,  // measure 66
0020
0000
0001
0000
0100
0000
0031
0100
,  // measure 67
1000
0001
0100
0010
0001
1000
0001
0010
0100
1000
0010
0001
,  // measure 68
0200
0000
0000
0000
,  // measure 69
0000
0000
0000
0000
,  // measure 70
0000
0000
0000
0000
,  // measure 71
0300
0000
0000
0000
;

//---------------dance-single - ----------------
#NOTES:
     dance-single:
     :
     Challenge:
     14:
     0.627479,0.738297,0.183015,0.033275,0.861000,528.000000,506.000000,22.000000,4.000000,0.000000,0.000000,0.627479,0.738297,0.183015,0.033275,0.861000,528.000000,506.000000,22.000000,4.000000,0.000000,0.000000:
// measure 0
0000
0000
0000
0000
,  // measure 1
0000
0000
0000
0000
,  // measure 2
0000
0000
0000
0000
,  // measure 3
0000
0000
0000
0000
,  // measure 4
0000
0000
0000
0000
,  // measure 5
0000
0000
0000
0000
,  // measure 6
1000
0000
0000
0000
0001
0000
0100
0000
0000
0000
0100
0000
1000
0000
0000
0000
0010
0000
1000
0000
0000
0100
0000
0000
,  // measure 7
0010
0000
0000
1001
0000
0000
0010
0000
0100
1000
0001
0010
,  // measure 8
0100
0000
1000
0100
0000
0100
0010
0000
1000
0100
0000
0000
,  // measure 9
1000
0100
0010
0100
0001
0100
0010
1000
0001
0100
0010
0001
,  // measure 10
1000
0000
0000
0000
0100
0000
0010
0000
0000
0000
0010
0000
0001
0000
0000
0000
0001
0000
0100
0000
0000
0010
0000
0000
,  // measure 11
1000
0000
0000
0110
0000
0000
1000
1000
0001
0001
0100
0100
,  // measure 12
0010
0000
1000
0001
0000
0100
0001
0000
1000
0010
0000
0000
,  // measure 13
0100
0100
0001
0010
0001
1000
0001
0100
0010
1000
0100
0010
,  // measure 14
0001
0000
1000
0100
0000
1000
0100
0000
1000
0010
0000
0100
,  // measure 15
0001
0000
0010
0100
0000
0010
1000
0000
0100
0100
0000
0001
,  // measure 16
0010
0000
0100
0001
0000
1000
0100
0000
1000
0010
0000
0001
,  // measure 17
1000
0100
1000
0100
0001
0010
0100
1000
0010
0100
0001
0010
,  // measure 18
1000
0000
0001
0010
0000
0001
0010
0000
0001
0100
0000
0010
,  // measure 19
1000
0000
0100
0010
0000
0100
0001
0000
0010
0010
0000
1000
,  // measure 20
0100
0000
0010
1000
0000
0001
0010
0000
0001
0100
0000
1000
,  // measure 21
0001
0010
0001
0010
1000
0100
0010
0001
0100
0010
1000
0100
,  // measure 22
0001
0000
0100
0010
0000
1000
0100
0000
0010
0001
0000
0000
,  // measure 23
0100
1000
0001
0010
0000
0000
0010
0001
0010
0100
0000
0000
,  // measure 24
1100
0000
0100
0010
0000
0001
0010
0100
0010
1000
0000
0000
,  // measure 25
0100
0001
0010
0001
0000
0000
0010
1000
0100
0100
0000
0000
,  // measure 26
0200
0001
1000
0010
,  // measure 27
0310
1100
0101
1001
,  // measure 28
1000
0000
0000
1000
0001
1000
0001
0000
0000
0010
1000
0100
,  // measure 29
0010
0010
1000
0100
1000
0010
0100
0001
0010
0100
1000
0100
,  // measure 30
1000
0001
1000
0100
0010
0100
0010
0001
,  // measure 31
0100
0100
0001
0010
1000
0100
1000
0010
,  // measure 32
0001
0100
0100
0001
0010
0100
0010
0001
,  // measure 33
0110
0000
0000
1000
0000
0000
0100
0000
0000
0010
0000
0000
0001
0000
1000
0000
0100
0000
1000
0000
0010
0000
0100
0000
,  // measure 34
0001
1000
0100
0100
0001
0010
0001
0100
,  // measure 35
0010
0010
1000
0100
1100
0010
0001
0100
,  // measure 36
0020
1000
0001
1030
,  // measure 37
1000
0100
0010
0001
0000
0100
0010
0000
0000
0110
0000
0000
,  // measure 38
1000
0100
0010
0001
0000
0100
0010
0000
0000
0110
0000
0000
,  // measure 39
0100
1000
0001
0010
0000
1000
0001
0000
0000
1001
0000
0000
,  // measure 40
0100
1000
0001
0010
0000
1000
0001
0000
0000
1001
0000
0000
,  // measure 41
0010
0000
0000
0000
0100
0000
1000
0000
0000
0000
1000
0000
0010
0000
0000
0000
0001
0000
0010
0000
0000
1000
0000
0000
,  // measure 42
0001
0000
0000
0110
0000
0000
0001
0000
1000
0010
0100
0001
,  // measure 43
1000
0000
0010
1000
0000
1000
0001
0000
0010
1000
0000
0000
,  // measure 44
0010
1000
0001
1000
0100
1000
0001
0010
0100
1000
0001
0100
,  // measure 45
0010
0000
0000
0000
1000
0000
0001
0000
0000
0000
0001
0000
0100
0000
0000
0000
0100
0000
1000
0000
0000
0001
0000
0000
,  // measure 46
0010
0000
0000
1001
0000
0000
0010
0010
0100
0100
1000
1000
,  // measure 47
0001
0000
0010
0100
0000
1000
0100
0000
0010
0001
0000
0000
,  // measure 48
1000
1000
0100
0001
0100
0010
0100
1000
0001
0010
1000
0001
,  // measure 49
1000
0001
1000
0100
0010
0100
0010
0001
,  // measure 50
0100
0100
0001
0010
1000
0100
1000
0010
,  // measure 51
0001
0100
0100
0001
0010
0100
0010
0001
,  // measure 52
0110
0000
0000
1000
0000
0000
0100
0000
0000
0010
0000
0000
0001
0000
1000
0000
0100
0000
1000
0000
0010
0000
0100
0000
,  // measure 53
0001
1000
0100
0100
0001
0010
0001
0100
,  // measure 54
0010
0010
1000
0100
1100
0010
0001
0100
,  // measure 55
0020
1000
0001
1030
,  // measure 56
1000
0100
0010
0001
0000
0100
0010
0000
0000
0110
0000
0000
,  // measure 57
1000
0100
0010
0001
0000
0100
0010
0000
0000
0110
0000
0000
,  // measure 58
0100
1000
0001
0010
0000
1000
0001
0000
0000
1001
0000
0000
,  // measure 59
0100
1000
0001
0010
0000
1000
0001
0000
0000
1001
0000
0000
,  // measure 60
1000
0000
0000
0000
0001
0000
0100
0000
0000
0000
0100
0000
1000
0000
0000
0000
0010
0000
1000
0000
0000
0100
0000
0000
,  // measure 61
0010
0000
0000
1001
0000
0000
0010
0000
0100
1000
0001
0010
,  // measure 62
0100
0000
1000
0100
0000
0100
0010
0000
1000
0100
0000
0000
,  // measure 63
1000
0100
0010
0100
0001
0100
0010
1000
0001
0100
0010
0001
,  // measure 64
1000
0000
0000
0000
0100
0000
0010
0000
0000
0000
0010
0000
0001
0000
0000
0000
0001
0000
0100
0000
0000
0010
0000
0000
,  // measure 65
1000
0000
0000
0110
0000
0000
1000
1000
0000
0001
0001
0000
,  // measure 66
0010
0100
1000
0001
1000
0100
0001
0010
1000
0010
0001
1000
,  // measure 67
0100
0100
0001
0010
0001
1000
0001
0100
0010
1000
0100
0010
,  // measure 68
0200
0000
0000
0000
,  // measure 69
0000
0000
0000
0000
,  // measure 70
0000
0000
0000
0000
,  // measure 71
0300
0000
0000
0000
;
