#VERSION:0.83;
#TITLE:WHAT I'VE WAINTED FOR;
#SUBTITLE:;
#ARTIST:VICETONE feat. D. BROWN;
#TITLETRANSLIT:;
#SUBTITLETRANSLIT:;
#ARTISTTRANSLIT:;
#GENRE:;
#ORIGIN:;
#CREDIT:;
#BANNER:WHAT I'VE WAINTED FOR.png;
#BACKGROUND:WHAT I'VE WAINTED FOR-bg.png;
#PREVIEWVID:;
#JACKET:WHAT I'VE WAINTED FOR-jacket.png;
#CDIMAGE:;
#DISCIMAGE:;
#LYRICSPATH:;
#CDTITLE:cdtitle.png;
#MUSIC:WHAT I'VE WAINTED FOR.ogg;
#OFFSET:-0.099000;
#SAMPLESTART:82.580002;
#SAMPLELENGTH:15.000000;
#SELECTABLE:YES;
#DISPLAYBPM:128.000000;
#BPMS:0.000=128.030;
#STOPS:;
#DELAYS:;
#WARPS:;
#TIMESIGNATURES:0.000=4=4;
#TICKCOUNTS:0.000=4;
#COMBOS:0.000=1;
#SPEEDS:0.000=1.000=0.000=0;
#SCROLLS:0.000=1.000;
#FAKES:;
#LABELS:0.000=Song Start;
#BGCHANGES:;
#KEYSOUNDS:;
#ATTACKS:
;

//---------------dance-single - ----------------
#NOTEDATA:;
#CHARTNAME:;
#STEPSTYPE:dance-single;
#DESCRIPTION:;
#CHARTSTYLE:;
#DIFFICULTY:Easy;
#METER:3;
#RADARVALUES:0.160846,0.230303,0.059708,0.008530,0.000000,132.000000,125.000000,7.000000,1.000000,0.000000,0.000000,0.000000,0.000000,0.000000,0.160846,0.230303,0.059708,0.008530,0.000000,132.000000,125.000000,7.000000,1.000000,0.000000,0.000000,0.000000,0.000000,0.000000;
#CREDIT:kater15;
#DISPLAYBPM:128.000000;
#NOTES:
0000
0000
0000
0000
,
0000
0000
0000
0000
,
0000
0000
0000
0000
,
0000
0000
0000
0000
,
1000
0100
0001
0000
,
0000
0000
0000
0000
,
1000
0010
0001
0000
,
0000
0000
0000
0000
,
0100
0010
0001
0000
,
0000
0000
0000
0000
,
0100
0010
1000
0000
,
0200
0000
0000
0300
,
0010
0110
0000
0000
,
0001
1001
0000
0000
,
0100
0000
0100
0000
,
0010
0010
0001
0000
,
0010
0110
0000
0000
,
0001
1001
0000
0000
,
0100
0000
0100
0000
,
0010
0010
0001
0000
,
1000
0001
0100
0010
,
0001
0010
0100
0010
,
0001
0010
0100
0000
,
1000
0000
0001
0000
,
1000
0001
0010
0100
,
0001
0100
0010
0100
,
0001
0100
0010
0000
,
1000
0000
0001
0000
,
0100
0000
0000
0000
,
0000
0000
0000
0000
,
0001
0000
0000
0000
,
0000
0000
0000
0000
,
0100
0000
0000
0000
,
0000
0000
0000
0000
,
1000
0000
0000
0000
,
0000
0000
0000
0000
,
1001
0000
0000
0000
,
0100
0000
0001
0000
,
0100
0000
0010
0000
,
0001
0000
0100
0100
,
1001
0000
0000
0000
,
0010
0000
0100
0000
,
0010
0000
1000
0000
,
0001
0000
0000
0000
,
1000
1000
0100
0000
,
1000
1000
0010
0000
,
0001
0100
1000
0000
,
0001
0010
1000
0000
,
0100
0010
0100
0000
,
0001
0010
0100
0000
,
1000
0001
0100
0000
,
0010
0001
0100
0000
,
1000
0001
1000
0000
,
0100
0010
0010
0000
,
0010
0001
0010
0000
,
0100
0100
0100
0000
,
0001
0001
1000
0000
,
0010
1000
0100
0000
,
0100
1000
1000
0000
,
0001
1000
0010
0010
,
1001
0000
0000
0000
;

//---------------dance-single - ----------------
#NOTEDATA:;
#CHARTNAME:;
#STEPSTYPE:dance-single;
#DESCRIPTION:;
#CHARTSTYLE:;
#DIFFICULTY:Beginner;
#METER:1;
#RADARVALUES:0.064582,0.127946,0.008530,0.000000,0.000000,53.000000,52.000000,1.000000,0.000000,0.000000,0.000000,0.000000,0.000000,0.000000,0.064582,0.127946,0.008530,0.000000,0.000000,53.000000,52.000000,1.000000,0.000000,0.000000,0.000000,0.000000,0.000000,0.000000;
#CREDIT:kater15;
#DISPLAYBPM:128.000000;
#NOTES:
0000
0000
0000
0000
,
0000
0000
0000
0000
,
0000
0000
0000
0000
,
0000
0000
0000
0000
,
1000
0000
0000
0000
,
0000
0000
0000
0000
,
1000
0000
0000
0000
,
0000
0000
0000
0000
,
1000
0000
0000
0000
,
0000
0000
0000
0000
,
1000
0000
0000
0000
,
0100
0000
0000
0000
,
0000
0001
0000
0000
,
0000
0001
0000
0000
,
0000
0001
0000
0000
,
0100
0000
0100
0000
,
0000
1000
0000
0000
,
0000
1000
0000
0000
,
0000
1000
0000
0000
,
0100
0000
0100
0000
,
0000
0001
0001
0000
,
0100
0000
0010
0000
,
0100
0000
0010
0000
,
0000
0000
0000
0000
,
0000
1000
1000
0000
,
0100
0000
0010
0000
,
0100
0000
0010
0000
,
0000
0000
0000
0000
,
0000
0000
0000
0000
,
0000
0000
0000
0000
,
0000
0000
0000
0000
,
0000
0000
0000
0000
,
0000
0000
0000
0000
,
0000
0000
0000
0000
,
0000
0000
0000
0000
,
0000
0000
0000
0000
,
1000
0000
0000
0000
,
0001
0000
0000
0000
,
1000
0000
0000
0000
,
0001
0000
0000
0000
,
0100
0000
0000
0000
,
0010
0000
0000
0000
,
0100
0000
0000
0000
,
0010
0000
0000
0000
,
1000
0000
0000
0000
,
1000
0000
0000
0000
,
0100
0000
0000
0000
,
0100
0000
0000
0000
,
1000
0000
0000
0000
,
1000
0000
0000
0000
,
0010
0000
0000
0000
,
0010
0000
0000
0000
,
0001
0000
0000
0000
,
0001
0000
0000
0000
,
0100
0000
0000
0000
,
0100
0000
0000
0000
,
0001
0000
0000
0000
,
0001
0000
0000
0000
,
0010
0000
0000
0000
,
0010
0000
0000
0000
,
0110
0000
0000
0000
;

//---------------dance-single - ----------------
#NOTEDATA:;
#CHARTNAME:;
#STEPSTYPE:dance-single;
#DESCRIPTION:;
#CHARTSTYLE:;
#DIFFICULTY:Medium;
#METER:4;
#RADARVALUES:0.252236,0.332659,0.110886,0.119416,0.000000,207.000000,194.000000,13.000000,14.000000,0.000000,0.000000,0.000000,0.000000,0.000000,0.252236,0.332659,0.110886,0.119416,0.000000,207.000000,194.000000,13.000000,14.000000,0.000000,0.000000,0.000000,0.000000,0.000000;
#CREDIT:kater15;
#DISPLAYBPM:128.000000;
#NOTES:
0000
0000
0000
0000
,
0000
0000
0000
0000
,
0000
0000
0000
0000
,
0000
0000
0000
0000
,
1000
1001
0010
0001
,
0010
1000
0100
0010
,
0100
0110
0001
0010
,
0001
0100
1000
0001
,
1000
1100
0010
0010
,
0002
0100
0013
1000
,
0010
0011
0100
1000
,
0100
0001
0100
0001
0100
0001
0100
0000
,
0000
0000
0110
0000
0100
0010
0100
0000
,
0000
0002
1000
0103
,
0010
0000
0010
0000
0001
1000
0001
0000
,
0200
0310
0200
0301
,
0000
0000
1001
0000
1000
0001
1000
0000
,
0000
0020
0100
1030
,
0001
0000
0001
0000
0010
0100
0010
0000
,
2000
3001
2000
3010
,
0000
0000
1100
0000
0101
0000
0100
0100
,
0100
0000
0002
0000
1003
0000
0100
0100
,
0100
2000
3001
0000
,
0000
0000
0000
0000
,
0000
0000
0011
0000
1010
0000
0010
0010
,
0010
0000
0002
0000
1003
0000
0010
0010
,
0010
2000
3001
0000
,
0000
0000
0000
0000
,
1000
0000
1000
0000
,
0100
0000
0001
0000
,
0100
0000
0001
0000
,
0010
0000
1000
0000
,
0020
0000
0000
0000
,
0000
0000
0000
0000
,
0000
0000
0000
0000
,
0000
0000
0000
0030
,
0110
0000
1000
0100
,
0001
0010
0001
0010
,
0010
1000
0100
1000
,
1000
0000
0000
0000
0010
0100
0010
0000
,
0110
0000
1000
0100
,
0001
0010
0001
0010
,
0010
1000
0100
1000
,
1000
0000
0000
0000
,
1000
0100
0001
0000
0010
0000
0100
0000
,
0100
0001
0100
0010
,
0100
0100
1000
0000
0100
0000
0100
0000
,
0001
1000
0010
0001
,
0100
0010
0001
0000
0100
0000
0010
0000
,
1000
1000
1000
0100
,
0010
1000
1000
0000
0001
0000
0010
0000
,
0002
0000
0000
0003
,
1000
0010
0010
0000
0100
0000
0100
0000
,
0001
1000
0010
0010
,
0100
0100
0100
0000
0010
0000
0001
0000
,
0100
0010
1000
1000
,
0001
1000
0010
0000
0100
0000
0100
0000
,
0001
0010
0001
0100
,
0010
1000
0100
0000
0010
0000
0001
0000
,
0200
0000
0000
0300
,
0110
0000
0000
0000
;

//---------------dance-single - ----------------
#NOTEDATA:;
#CHARTNAME:;
#STEPSTYPE:dance-single;
#DESCRIPTION:;
#CHARTSTYLE:;
#DIFFICULTY:Hard;
#METER:7;
#RADARVALUES:0.374090,0.409427,0.119416,0.025589,0.000000,307.000000,293.000000,14.000000,3.000000,0.000000,0.000000,0.000000,0.000000,0.000000,0.374090,0.409427,0.119416,0.025589,0.000000,307.000000,293.000000,14.000000,3.000000,0.000000,0.000000,0.000000,0.000000,0.000000;
#CREDIT:kater15;
#DISPLAYBPM:128.000000;
#NOTES:
0000
0000
0000
0000
,
0000
0000
0000
0000
,
0000
0000
0000
0000
,
0000
0000
0000
0000
,
1000
0100
0001
0000
0000
0100
0000
0100
,
0000
1000
0001
1000
0000
0010
0000
0010
,
0000
1000
0001
0010
0000
0100
0000
0100
,
0000
1000
0001
0001
0000
0100
0000
0001
,
0000
0100
1000
0001
0000
1000
0000
0001
,
0000
0100
0001
0010
0000
1000
0000
1100
,
0000
0001
1000
0010
0000
0100
0000
0001
,
0100
1000
0100
0001
0100
0010
0100
0000
,
0000
0000
0110
0000
0100
0010
0100
0000
,
1000
0000
0100
0000
0001
1000
0001
0000
,
0100
0000
0001
0000
1000
0010
0100
0000
,
0001
0100
0001
0000
0001
0010
0001
0000
,
0100
0000
0101
0000
1000
0001
1000
0000
,
0100
0000
0001
0000
0010
1000
0010
0000
,
0100
0000
0101
0000
0010
1000
0100
0000
,
1000
0001
1000
0000
1000
0100
1000
0000
,
0000
0000
1100
0000
0001
0010
0100
1000
,
0001
0000
0110
0000
1000
0010
0100
0001
,
1000
0000
1001
0000
0010
0010
0001
1000
,
0100
0001
0100
0001
0010
0100
2000
0000
,
3000
0000
0101
0000
1000
0001
0010
0100
,
1000
0000
1001
0000
0010
0001
1000
0100
,
0010
0000
0110
0000
1000
1000
0010
0100
,
0001
0010
0001
0010
1000
0100
0001
0000
,
2001
0000
0000
0000
,
0000
0000
0000
0000
0001
0001
0001
0001
,
0001
0000
0000
0000
,
0000
0000
0000
0000
0010
0010
0010
0010
,
0020
0000
0000
0000
,
0000
0000
0000
0000
,
0000
0000
0000
3030
,
0000
0000
0000
0000
,
1001
0000
0000
0000
0000
0100
0010
0001
,
0000
0100
0000
0001
0000
1001
0000
1000
,
0000
0010
0000
0100
0000
0001
0000
0001
,
0000
1000
0000
0010
0001
0010
1000
0100
,
0001
0000
0000
0000
0000
0100
0010
0001
,
0000
0100
0000
0001
0000
1001
0000
1000
,
0000
0010
0000
0100
0000
0001
0000
0001
,
0000
1000
0000
0010
0001
0010
1000
0100
,
0001
0100
1000
0000
0100
0100
0001
0100
,
0010
1000
0001
0000
1000
0001
0001
0010
,
0001
0100
0010
0000
0010
1000
0100
0010
,
0001
1000
1000
0000
0100
0100
0100
0001
,
0010
0001
0010
0000
1000
0100
0010
1000
,
1000
0100
1000
0000
0100
0001
0001
0001
,
1000
0100
0010
0000
1000
1000
0100
0010
,
0010
1000
0001
1000
0010
1000
0100
0001
,
0010
0001
0100
0000
0001
0001
0010
0001
,
1000
0100
0010
0000
0100
0010
0010
1000
,
0010
0001
1000
0000
1000
0100
0001
1000
,
0010
0100
0100
0000
0001
0001
0001
0010
,
1000
0010
1000
0000
0100
0001
1000
0100
,
0100
0001
0100
0000
0001
0010
0010
0010
,
0100
0001
1000
0000
0100
0100
0001
1000
,
1000
0100
0010
0100
0001
0010
0100
1000
,
0001
0000
0000
0000
;

//---------------dance-single - ----------------
#NOTEDATA:;
#CHARTNAME:;
#STEPSTYPE:dance-single;
#DESCRIPTION:;
#CHARTSTYLE:;
#DIFFICULTY:Challenge;
#METER:9;
#RADARVALUES:0.511784,0.639730,0.051178,0.051178,0.281481,420.000000,414.000000,6.000000,6.000000,0.000000,0.000000,0.000000,0.000000,0.000000,0.511784,0.639730,0.051178,0.051178,0.281481,420.000000,414.000000,6.000000,6.000000,0.000000,0.000000,0.000000,0.000000,0.000000;
#CREDIT:kater15;
#DISPLAYBPM:128.000000;
#NOTES:
// measure 0
0000
0000
0000
0000
,  // measure 1
0000
0000
0000
0000
,  // measure 2
0000
0000
0000
0000
,  // measure 3
0000
0000
0000
0000
,  // measure 4
1000
0100
0001
0000
1000
0100
0010
0001
,  // measure 5
0100
1000
0001
0000
0100
0100
0010
0001
,  // measure 6
0100
0010
1000
0000
0001
1000
0001
0100
,  // measure 7
0010
0100
0001
0000
1000
0100
0100
0100
,  // measure 8
0001
0010
0001
0000
0100
0100
0100
0100
,  // measure 9
0001
1000
0100
0000
1000
0100
0001
0010
,  // measure 10
0001
0010
0100
0000
1000
1100
0000
0001
,  // measure 11
0100
0010
0100
0010
1000
0100
0001
0000
,  // measure 12
2000
0000
3001
0010
0001
0100
0100
0000
,  // measure 13
1100
0000
0000
0000
0001
0000
0010
0000
0100
0000
0000
0100
0000
0000
0100
0000
,  // measure 14
0000
0000
1000
0100
0100
1000
0001
0000
,  // measure 15
1000
0100
1000
0100
0001
0010
0001
0010
,  // measure 16
2000
0000
3001
0010
0100
0100
0001
0000
,  // measure 17
0010
0000
1000
0000
0100
0000
0001
0000
1000
0000
0000
1000
0000
0000
1000
0000
,  // measure 18
0000
0000
0010
0100
0001
0010
0100
0000
,  // measure 19
1000
0010
1000
0010
0100
0001
0100
0001
,  // measure 20
1000
0000
0000
0000
1100
0000
0000
0000
0001
0000
1000
0001
1000
0000
0100
0001
,  // measure 21
0200
0000
0001
0000
1300
0010
0100
0100
,  // measure 22
0001
0000
0100
0010
0100
0000
0001
0010
0001
0000
0000
0000
1000
0000
0100
0000
,  // measure 23
0000
0100
0001
0100
0100
0010
1000
0000
,  // measure 24
0010
0000
0000
0000
1010
0000
0000
0000
0100
0000
0010
0100
0010
0000
1000
0100
,  // measure 25
2000
0000
0100
0000
3010
0001
1000
1000
,  // measure 26
0100
0000
1000
0001
1000
0000
0100
0001
0100
0000
0000
0000
0010
0000
1000
0000
,  // measure 27
0000
1000
0100
1000
1000
0001
0010
0000
,  // measure 28
1000
0000
0000
1000
0000
0000
0000
0000
0001
0000
0000
0001
0000
0000
0000
0000
,  // measure 29
1000
0000
0000
1000
0000
0000
0000
0000
0001
0000
0000
0001
0000
0000
0000
0000
,  // measure 30
0100
0000
0000
0100
0000
0000
0000
0000
0010
0000
0000
0010
0000
0000
0000
0000
,  // measure 31
0100
0000
0000
0100
0000
0000
0000
0000
0010
0000
0000
0010
0000
0000
0000
0000
,  // measure 32
0100
0000
0000
0001
0000
0000
0000
0000
0100
0000
0000
1000
0000
0000
0000
0000
,  // measure 33
0010
0000
0000
0001
0000
0000
0000
0000
0010
0000
0000
1000
0000
0000
0000
0000
,  // measure 34
0100
0000
0000
0010
0000
0000
0000
0000
1000
0000
0000
0001
0000
0000
0000
0000
,  // measure 35
0010
0000
0000
0100
0000
0000
0000
0000
0001
0000
0000
1000
0000
0000
0000
0000
,  // measure 36
0100
0000
1001
0000
1000
0100
0010
0001
,  // measure 37
0000
1000
0100
0100
0000
0001
0010
0001
,  // measure 38
0000
0100
0100
0010
0000
1000
0001
0100
,  // measure 39
0000
0000
0101
0000
0000
0000
1000
0000
0001
0000
0100
0001
0100
0000
0010
0001
,  // measure 40
0010
1000
0100
1000
0100
0001
0010
0100
,  // measure 41
0100
0001
1000
0100
0010
0001
0010
0001
,  // measure 42
1000
0010
1000
0010
1000
0010
1000
0010
1000
0010
1000
0010
1000
0010
1000
0020
,  // measure 43
2000
0000
0000
3030
,  // measure 44
1000
0100
0001
0000
1000
0000
0100
0000
0100
0000
0001
0010
0001
0000
0100
0000
,  // measure 45
0010
1000
0001
0000
0100
0000
0010
0000
0010
0000
0100
1000
0001
0000
0010
0000
,  // measure 46
0010
1000
0100
0000
0001
0000
1000
0000
1000
0000
0001
0010
0100
0000
0010
0000
,  // measure 47
1000
0001
0100
0000
0010
0000
0010
0000
0010
0000
1000
0100
0010
0000
0100
0000
,  // measure 48
1000
0001
1000
0000
0010
0000
0001
0000
0100
0000
0010
1000
1000
0000
0100
0000
,  // measure 49
0010
0010
0001
0000
0100
0000
0010
0000
0010
0000
1000
0100
0010
0000
0100
0000
,  // measure 50
1000
0010
0100
0000
0100
0000
0001
0000
0001
0000
1000
0100
1000
0000
0010
0000
,  // measure 51
0001
0100
0001
0000
0010
0000
1000
0000
0100
0000
0001
0000
0100
0000
1000
0000
,  // measure 52
0100
0001
0010
0000
0100
0000
0001
0000
0001
0000
0010
1000
0010
0000
0001
0000
,  // measure 53
1000
0100
0010
0000
0001
0000
1000
0000
1000
0000
0001
0100
0010
0000
1000
0000
,  // measure 54
1000
0100
0001
0000
0010
0000
0100
0000
0100
0000
0010
1000
0001
0000
1000
0000
,  // measure 55
0100
0010
0001
0000
1000
0000
1000
0000
1000
0000
0100
0001
1000
0000
0001
0000
,  // measure 56
0100
0010
0100
0000
1000
0000
0010
0000
0001
0000
1000
0100
0100
0000
0001
0000
,  // measure 57
1000
1000
0010
0000
0001
0000
1000
0000
1000
0000
0100
0001
1000
0000
0001
0000
,  // measure 58
0100
1000
0001
0000
0001
0000
0010
0000
0010
0000
0100
0001
0100
0000
1000
0000
,  // measure 59
0010
0001
0010
0000
1000
0000
0100
0000
0001
0000
0010
0000
0001
0000
0100
0000
,  // measure 60
1000
0000
0000
0000
;
