#VERSION:0.83;
#TITLE:Voce Sabia;
#SUBTITLE:;
#ARTIST:Victor & Leo;
#TITLETRANSLIT:;
#SUBTITLETRANSLIT:;
#ARTISTTRANSLIT:;
#GENRE:;
#ORIGIN:;
#CREDIT:;
#BANNER:Você Sabia.png;
#BACKGROUND:Você Sabia-bg.png;
#PREVIEWVID:;
#JACKET:Você Sabia-jacket.png;
#CDIMAGE:;
#DISCIMAGE:;
#LYRICSPATH:;
#CDTITLE:cdtitle.png;
#MUSIC:Você Sabia.ogg;
#OFFSET:0.918000;
#SAMPLESTART:56.000000;
#SAMPLELENGTH:16.000000;
#SELECTABLE:YES;
#DISPLAYBPM:137.000000;
#BPMS:0.000=137.040;
#STOPS:;
#DELAYS:;
#WARPS:;
#TIMESIGNATURES:0.000=4=4;
#TICKCOUNTS:0.000=4;
#COMBOS:0.000=1;
#SPEEDS:0.000=1.000=0.000=0;
#SCROLLS:0.000=1.000;
#FAKES:;
#LABELS:0.000=Song Start;
#BGCHANGES:;
#KEYSOUNDS:;
#ATTACKS:
;

//---------------dance-single - ----------------
#NOTEDATA:;
#CHARTNAME:;
#STEPSTYPE:dance-single;
#DESCRIPTION:;
#CHARTSTYLE:;
#DIFFICULTY:Easy;
#METER:3;
#RADARVALUES:0.167476,0.271102,0.075364,0.050243,0.000000,140.000000,131.000000,9.000000,6.000000,0.000000,0.000000,0.000000,0.000000,0.000000,0.167476,0.271102,0.075364,0.050243,0.000000,140.000000,131.000000,9.000000,6.000000,0.000000,0.000000,0.000000,0.000000,0.000000;
#CREDIT:kater15;
#DISPLAYBPM:137.000000;
#NOTES:
0000
0000
0000
0000
,
0000
0000
0000
0000
,
0000
0000
0000
0000
,
0000
0000
0000
0000
,
0000
0000
0000
0000
,
0000
0000
0000
0000
,
0000
0000
0000
0000
,
0000
0000
0000
0000
,
0000
0000
0000
0000
,
1000
0000
0000
0000
,
1000
0000
0000
0000
,
0100
0000
0000
0000
,
1000
0000
0000
0000
,
0001
0000
0000
0000
,
0010
0000
0000
0000
,
0100
0000
0000
0000
,
1000
0000
0000
0000
,
0100
0000
0010
0000
,
0100
0000
0000
0000
,
1000
0000
0100
0000
,
0001
0000
0000
0000
,
0010
0000
0010
0000
,
0100
0000
0010
0000
,
0010
0000
0100
0000
,
0010
0000
0000
0000
,
1000
1000
0001
0000
,
1000
0000
0000
0000
,
0001
0001
1000
0000
,
0001
0000
0000
0000
,
1000
0000
0001
0000
,
0100
0000
1000
0000
,
0001
0000
0100
0000
,
1000
0000
0000
0000
,
1000
0001
0000
0001
,
1000
0100
0010
0010
,
0100
0001
0010
0000
,
0010
1001
0100
0100
,
0001
1000
0010
0000
,
0010
0001
0100
0100
,
0010
0000
0001
0000
,
0100
0000
1000
0000
,
2002
0000
3003
0000
,
0100
0010
1000
0010
,
0100
0001
0010
0000
,
0010
1000
0100
0010
,
0001
1000
0000
1000
,
0001
0001
0010
0100
,
0001
0000
0000
0000
0000
0001
0000
0000
,
0001
0000
0000
0001
0000
0000
0000
0000
,
2002
0000
3003
0000
,
0100
0001
0001
0110
,
1000
0100
0000
0100
,
1000
1000
0010
0001
,
0110
0100
0000
0100
,
0001
1000
0100
1000
,
0001
0000
0010
0000
,
0001
0000
1000
0000
,
0220
0000
0330
0000
,
0100
0001
0010
0100
,
0010
1001
0100
0000
,
0100
0100
1000
0001
,
1001
0010
0000
0010
,
0001
0100
0001
1000
,
0010
0000
0000
0100
,
0000
0100
0000
0000
0100
0000
1001
0000
;

//---------------dance-single - ----------------
#NOTEDATA:;
#CHARTNAME:;
#STEPSTYPE:dance-single;
#DESCRIPTION:;
#CHARTSTYLE:;
#DIFFICULTY:Beginner;
#METER:1;
#RADARVALUES:0.075364,0.137644,0.016748,0.016748,0.000000,63.000000,61.000000,2.000000,2.000000,0.000000,0.000000,0.000000,0.000000,0.000000,0.075364,0.137644,0.016748,0.016748,0.000000,63.000000,61.000000,2.000000,2.000000,0.000000,0.000000,0.000000,0.000000,0.000000;
#CREDIT:kater15;
#DISPLAYBPM:137.000000;
#NOTES:
// measure 0
0000
0000
0000
0000
,  // measure 1
0000
0000
0000
0000
,  // measure 2
0000
0000
0000
0000
,  // measure 3
0000
0000
0000
0000
,  // measure 4
0000
0000
0000
0000
,  // measure 5
0000
0000
0000
0000
,  // measure 6
0000
0000
0000
0000
,  // measure 7
0000
0000
0000
0000
,  // measure 8
0000
0000
0000
0000
,  // measure 9
1000
0000
0000
0000
,  // measure 10
0000
0000
0000
0000
,  // measure 11
1000
0000
0000
0000
,  // measure 12
0000
0000
0000
0000
,  // measure 13
0001
0000
0000
0000
,  // measure 14
0000
0000
0000
0000
,  // measure 15
0001
0000
0000
0000
,  // measure 16
0000
0000
0000
0000
,  // measure 17
1000
0000
0000
0000
,  // measure 18
0000
0000
0100
0000
,  // measure 19
1000
0000
0000
0000
,  // measure 20
0000
0000
0100
0000
,  // measure 21
0001
0000
0000
0000
,  // measure 22
0010
0000
0010
0000
,  // measure 23
1000
0000
0000
0000
,  // measure 24
0100
0000
0100
0000
,  // measure 25
1000
0000
0000
0000
,  // measure 26
0000
0000
0100
0000
,  // measure 27
1000
0000
0000
0000
,  // measure 28
0000
0000
0100
0000
,  // measure 29
0001
0000
0000
0000
,  // measure 30
0000
0000
0010
0000
,  // measure 31
0100
0000
0000
0000
,  // measure 32
1001
0000
0000
0000
,  // measure 33
0000
0001
0000
0001
,  // measure 34
0000
0000
0000
0000
,  // measure 35
0000
1000
0000
1000
,  // measure 36
0000
0000
0000
0000
,  // measure 37
0000
0010
0000
0010
,  // measure 38
0000
0000
0000
0000
,  // measure 39
1000
0000
1000
0000
,  // measure 40
0100
0000
1000
0000
,  // measure 41
0000
0001
0000
0001
,  // measure 42
0000
0000
0000
0000
,  // measure 43
0000
1000
0000
1000
,  // measure 44
0000
0000
0000
0000
,  // measure 45
0000
0100
0000
0100
,  // measure 46
0000
0000
0000
0000
,  // measure 47
0100
0000
0010
0000
,  // measure 48
0100
0000
0000
0000
,  // measure 49
0000
0001
0000
0001
,  // measure 50
0000
0000
0000
0000
,  // measure 51
0000
1000
0000
1000
,  // measure 52
0000
0000
0000
0000
,  // measure 53
0000
0010
0000
0010
,  // measure 54
0000
0000
0000
0000
,  // measure 55
1000
0000
1000
0000
,  // measure 56
0100
0000
1000
0000
,  // measure 57
0000
0001
0000
0001
,  // measure 58
0000
0000
0000
0000
,  // measure 59
0000
1000
0000
1000
,  // measure 60
0000
0000
0000
0000
,  // measure 61
0000
0100
0000
0100
,  // measure 62
0000
0000
0000
0000
,  // measure 63
0100
0000
0010
0000
,  // measure 64
0100
0000
0000
0000
,  // measure 65
0220
0000
0000
0330
;

//---------------dance-single - ----------------
#NOTEDATA:;
#CHARTNAME:;
#STEPSTYPE:dance-single;
#DESCRIPTION:;
#CHARTSTYLE:;
#DIFFICULTY:Medium;
#METER:5;
#RADARVALUES:0.273943,0.357876,0.242840,0.125607,0.000000,229.000000,200.000000,29.000000,15.000000,0.000000,0.000000,0.000000,0.000000,0.000000,0.273943,0.357876,0.242840,0.125607,0.000000,229.000000,200.000000,29.000000,15.000000,0.000000,0.000000,0.000000,0.000000,0.000000;
#CREDIT:kater15;
#DISPLAYBPM:137.000000;
#NOTES:
0000
0000
0000
0000
,
0000
0000
0000
0000
,
0000
0000
0000
0000
,
0000
0000
0000
0000
,
0000
0000
0000
0000
,
0000
0000
0000
0000
,
0000
0000
0000
0000
,
0000
0000
0000
0000
,
0000
0000
0000
0000
,
1000
0000
0100
0000
,
0001
0000
1000
0000
,
0001
0000
0010
0000
,
1000
0000
0001
0000
,
1000
0000
0100
0000
,
0001
0000
0010
0000
,
0100
0000
1000
0000
,
0001
0000
1000
0000
,
0010
0100
0010
0000
,
0100
0000
1001
0100
,
0001
0010
0100
0000
,
1000
0000
1001
0100
,
0001
0000
0010
0000
0100
0000
1000
0001
,
1000
0000
0001
0000
0010
0000
0100
0010
,
0100
0000
0001
0000
1000
0000
0010
0001
,
0010
1000
0100
0000
,
0100
0001
0010
0000
,
1000
0000
1001
0100
,
1000
0010
0100
0000
,
0001
0000
1001
0100
,
0001
0000
0001
0000
1000
0100
1000
0000
,
0010
0000
0010
0000
0100
0001
0100
0000
,
0010
0010
0001
0100
,
1000
1000
1000
1000
0000
0000
0000
0000
,
2001
0001
0000
3001
,
0100
0000
0001
0100
1000
0000
0010
0000
,
2001
0001
0000
3001
,
0001
0000
0010
0001
0100
0000
0010
0000
,
2001
0001
0000
3001
,
0010
0000
0100
0010
1000
0000
0100
0010
,
1000
0100
0001
1000
,
1001
0110
1001
0000
,
2001
0001
0000
3001
,
0100
0000
0001
0100
1000
0000
0010
0000
,
2001
0001
0000
3001
,
0001
0000
0010
0001
0100
0000
0010
0000
,
2001
0001
0000
3001
,
0010
0000
0100
0010
1000
0000
0100
0010
,
1000
0000
0100
0000
0001
1001
0000
0000
,
0110
0000
0000
1001
0000
0000
0000
0000
,
0201
0001
0000
0301
,
0010
0000
1000
0001
0100
0000
0010
0000
,
2100
0001
0000
3001
,
0010
0000
0001
0001
1000
0000
0010
0000
,
1020
0100
0000
0130
,
1000
0000
0010
0001
1000
0000
0010
0001
,
1000
0100
0001
1000
,
0101
1100
0101
0000
,
0220
0000
0330
0000
,
0100
0000
0010
0100
1000
0000
0001
0000
,
0201
0010
0000
0310
,
0100
0000
0001
0010
0001
0000
0100
0000
,
0021
1000
0000
1030
,
0100
0000
0010
0100
0001
0000
0010
0100
,
0001
0100
0000
0101
,
0000
1100
0000
0000
0101
0000
0000
0000
,
2002
0000
0000
3003
;

//---------------dance-single - ----------------
#NOTEDATA:;
#CHARTNAME:;
#STEPSTYPE:dance-single;
#DESCRIPTION:;
#CHARTSTYLE:;
#DIFFICULTY:Hard;
#METER:6;
#RADARVALUES:0.327775,0.412933,0.075364,0.117233,0.000000,274.000000,265.000000,9.000000,14.000000,0.000000,0.000000,0.000000,0.000000,0.000000,0.327775,0.412933,0.075364,0.117233,0.000000,274.000000,265.000000,9.000000,14.000000,0.000000,0.000000,0.000000,0.000000,0.000000;
#CREDIT:kater15;
#DISPLAYBPM:137.000000;
#NOTES:
0000
0000
0000
0000
,
0000
0000
0000
0000
,
0000
0000
0000
0000
,
0000
0000
0000
0000
,
0000
0000
0000
0000
,
0000
0000
0000
0000
,
0000
0000
0000
0000
,
0000
0000
0000
0000
,
0000
0000
0000
0000
,
1000
1000
0100
0000
,
1000
0000
0100
0000
,
0001
0001
0100
0000
,
0001
0000
0100
0000
,
1000
0100
1000
0010
,
1000
0001
1000
0100
,
1000
0001
0100
0000
,
1001
0000
0001
0000
,
1000
0000
1000
0010
0100
0000
0000
0000
,
1000
0000
0000
0100
0001
0000
0001
0000
,
1000
0000
1000
0010
0100
0000
0000
0000
,
1000
0000
0000
0100
0001
0000
0001
0000
,
1000
0000
0100
1000
0001
0000
0010
0000
,
0100
0000
1000
0100
0010
0000
0100
0000
,
0001
0000
0100
0100
1000
0000
0010
0001
,
0010
1000
0010
0100
1000
0000
0000
0000
,
1000
0000
1000
0010
0100
0000
0000
0000
,
1000
0000
0000
0100
0001
0000
0001
0000
,
1000
0000
1000
0010
0100
0000
0000
0000
,
1000
0000
0000
0100
0001
0000
0001
0000
,
1000
0000
0100
1000
0001
0000
0010
0000
,
0100
0000
1000
0100
0010
0000
0100
0000
,
0001
0000
0100
0100
1000
0000
0100
0000
,
0001
0001
0001
0001
0000
0000
0000
0000
,
0200
0000
0010
0010
0000
0010
0310
0000
,
0100
0000
1000
0100
0001
0000
1000
0010
,
0002
0000
1000
1000
0000
1000
1003
0000
,
0100
0000
0001
1000
0010
0000
0100
0001
,
2000
0000
0100
0100
0000
0100
3100
0000
,
1100
0000
0001
0100
1000
0000
0010
0001
,
1000
0100
1000
0010
,
0010
0000
1000
0100
1000
1000
0001
0010
,
0200
0000
0010
0010
0000
0010
0310
0000
,
0100
0000
1000
0100
0001
0000
1000
0010
,
0002
0000
1000
1000
0000
1000
1003
0000
,
0100
0000
0001
1000
0010
0000
0100
0001
,
2000
0000
0100
0100
0000
0100
3100
0000
,
1100
0000
0001
0100
1000
0000
0010
0001
,
1000
0000
0100
0000
1000
1100
0000
0100
,
0101
0000
1000
1100
0000
0000
0000
0000
,
0020
0000
0100
0100
0000
0100
0130
0000
,
0010
0000
0001
0010
1000
0000
0001
0100
,
2000
0000
0001
0001
0000
0001
3001
0000
,
0010
0000
1000
0001
0100
0000
0010
1000
,
0002
0000
0010
0010
0000
0010
0013
0000
,
0011
0000
1000
0010
0001
0000
0100
1000
,
0001
0010
0001
0100
,
0100
0000
0001
0010
0001
0001
1000
0200
,
0000
0000
0000
0300
0000
0000
0000
0000
,
0010
0000
0001
0010
1000
0000
0001
0100
,
2000
0000
0001
0001
0000
0001
3001
0000
,
0010
0000
1000
0001
0100
0000
0010
1000
,
0002
0000
0010
0010
0000
0010
0013
0000
,
0011
0000
1000
0010
0001
0000
0100
1000
,
0001
0000
0010
0000
0001
0000
0100
1000
,
0100
0010
0001
0010
0001
0001
1000
0000
,
0220
0000
0000
0330
;

//---------------dance-single - ----------------
#NOTEDATA:;
#CHARTNAME:;
#STEPSTYPE:dance-single;
#DESCRIPTION:;
#CHARTSTYLE:;
#DIFFICULTY:Challenge;
#METER:8;
#RADARVALUES:0.464148,0.605636,0.117233,0.016748,0.046056,388.000000,374.000000,14.000000,2.000000,0.000000,0.000000,0.000000,0.000000,0.000000,0.464148,0.605636,0.117233,0.016748,0.046056,388.000000,374.000000,14.000000,2.000000,0.000000,0.000000,0.000000,0.000000,0.000000;
#CREDIT:kater15;
#DISPLAYBPM:137.000000;
#NOTES:
0000
0000
0000
0000
,
0000
0000
0000
0000
,
0000
0000
0000
0000
,
0000
0000
0000
0000
,
0000
0000
0000
0000
,
0000
0000
0000
0000
,
0000
0000
0000
0000
,
0000
0000
0000
0000
,
0000
0000
0000
0000
,
1000
1000
0100
1000
,
0001
0100
0001
0010
,
0001
0001
0100
0001
,
1000
0100
1000
0010
,
0001
0100
1001
0110
,
1000
0001
0110
1001
,
0100
0100
1001
0110
,
1000
1000
0110
1001
,
0100
0000
0001
0010
1000
0000
0100
0000
,
0010
0000
1000
0100
0010
0000
0100
0100
,
0001
0000
0010
1000
1000
0000
0100
0000
,
0001
0000
1000
0100
1000
0000
0010
0001
,
0100
1000
0100
0001
0100
1000
0100
0001
,
0010
1000
0010
0001
0010
1000
0010
0001
,
1000
0010
0100
0001
1000
0010
0100
0001
,
0010
1000
0100
0001
0010
1000
0100
0000
,
0100
0000
0001
0010
1000
0000
0100
0000
,
0010
0000
1000
0100
0010
0000
0100
0100
,
0001
0000
0010
1000
1000
0000
0100
0000
,
0001
0000
1000
0100
1000
0000
0010
0001
,
0100
1000
0100
0001
0100
1000
0100
0001
,
0010
1000
0010
0001
0010
1000
0010
0001
,
0100
1000
0010
0100
0001
1000
0010
0100
,
0001
1000
0001
1000
0001
1000
0001
0000
0000
0000
0000
0000
0000
0000
0000
0000
,
1000
0100
1000
0001
0000
1000
0100
0100
,
0010
0001
0010
1000
0100
0001
0010
0100
,
1000
0001
0010
0100
0000
0100
0001
0001
,
1000
0100
1000
0010
0001
0100
0010
1000
,
0100
1000
0001
0010
0000
0010
0001
1000
,
0100
0001
0100
1000
0100
0001
0010
1000
,
0010
0000
0001
0010
0000
1000
0010
0000
0001
0000
0100
0000
1000
0000
0100
0000
,
0001
0010
0100
1000
0001
0001
0001
0001
,
1000
0100
1000
0001
0000
1000
0100
0100
,
0010
0001
0010
1000
0100
0001
0010
0100
,
1000
0001
0010
0100
0000
0100
0001
0001
,
1000
0100
1000
0010
0001
0100
0010
1000
,
0100
1000
0001
0010
0000
0010
0001
1000
,
0100
0001
0100
1000
0100
0001
0010
1000
,
0010
0000
0001
0010
0000
1000
0010
0000
0101
0000
0101
0000
0000
0000
1100
0000
,
1100
0000
0101
0101
0000
0000
0000
0000
,
0001
0010
0001
1000
0000
0001
0010
0010
,
0100
1000
0100
0001
0010
1000
0100
0010
,
0001
1000
0100
0010
0000
0010
1000
1000
,
0001
0010
0001
0100
1000
0010
0100
0001
,
0010
0001
1000
0100
0000
0100
1000
0001
,
0010
1000
0010
0001
0010
1000
0100
0001
,
0100
0000
1000
0100
0000
0001
0100
0000
1000
0000
0010
0000
0001
0000
0010
0000
,
1000
0100
0010
0001
1000
1000
1000
2000
,
0000
0000
0000
3000
0000
0000
0000
0000
,
0100
1000
0100
0001
0010
1000
0100
0010
,
0001
1000
0100
0010
0000
0010
1000
1000
,
0001
0010
0001
0100
1000
0010
0100
0001
,
0010
0001
1000
0100
0000
0100
1000
0001
,
0010
1000
0010
0001
0010
1000
0100
0001
,
0100
0000
1000
0100
0000
0001
0100
0000
1000
0000
0010
0000
0001
0000
0010
0000
,
1000
0100
0010
0001
1000
1000
1000
1000
,
0200
0000
0000
0300
;
