#VERSION:0.83;
#TITLE:VOZINHA!;
#SUBTITLE:;
#ARTIST:LUGRILLE;
#TITLETRANSLIT:;
#SUBTITLETRANSLIT:;
#ARTISTTRANSLIT:;
#GENRE:;
#ORIGIN:;
#CREDIT:;
#BANNER:VOZINHA!.png;
#BACKGROUND:VOZINHA!-bg.png;
#PREVIEWVID:;
#JACKET:VOZINHA!-jacket.png;
#CDIMAGE:;
#DISCIMAGE:;
#LYRICSPATH:;
#CDTITLE:cdtitle.png;
#MUSIC:VOZINHA!.ogg;
#OFFSET:0.000000;
#SAMPLESTART:44.849998;
#SAMPLELENGTH:15.000000;
#SELECTABLE:YES;
#DISPLAYBPM:128.000000;
#BPMS:0.000=30.685,
4.000=128.818,
132.000=129.918;
#STOPS:;
#DELAYS:;
#WARPS:;
#TIMESIGNATURES:0.000=4=4;
#TICKCOUNTS:0.000=4;
#COMBOS:0.000=1;
#SPEEDS:0.000=1.000=0.000=0;
#SCROLLS:0.000=1.000;
#FAKES:;
#LABELS:0.000=Song Start;
#BGCHANGES:;
#KEYSOUNDS:;
#ATTACKS:
;

//---------------dance-single - ----------------
#NOTEDATA:;
#CHARTNAME:;
#STEPSTYPE:dance-single;
#DESCRIPTION:;
#CHARTSTYLE:;
#DIFFICULTY:Easy;
#METER:3;
#RADARVALUES:0.188095,0.226875,0.075000,0.033333,0.000000,158.000000,149.000000,9.000000,4.000000,0.000000,0.000000,0.000000,0.000000,0.000000,0.188095,0.226875,0.075000,0.033333,0.000000,158.000000,149.000000,9.000000,4.000000,0.000000,0.000000,0.000000,0.000000,0.000000;
#CREDIT:kater15;
#DISPLAYBPM:128.000000;
#NOTES:
0000
0000
0000
0000
,
0000
0000
0000
0000
,
0000
0000
0000
0000
,
0000
0000
0000
0000
,
0000
0000
0000
0000
,
1000
0000
0001
0000
,
1000
0000
0002
0000
,
0103
0000
0010
0000
,
0100
0000
0020
0000
,
1030
0000
0100
0000
,
0010
0000
0001
0000
,
0100
0010
0100
0010
,
0110
0000
0000
0000
,
1000
0000
0001
0000
,
0100
1000
0010
0000
,
1000
0000
0001
0000
,
0010
0100
0010
0000
,
1000
0000
0001
0000
,
0100
0001
0010
0000
,
1000
0000
0001
0000
,
0100
0010
0100
0000
,
1000
0000
0001
0000
,
0100
0100
1001
0000
,
1000
0000
0001
0000
,
0010
0010
1001
0000
,
1000
0000
0001
0000
,
0100
0100
1001
0000
,
1000
0000
0001
0000
,
0010
0010
1001
0000
,
1000
0000
0001
0000
,
1000
0000
0002
0000
,
0103
0000
0010
0000
,
0100
0000
0020
0000
,
1030
1000
1000
0000
,
0100
0100
0100
0000
,
0001
0001
0001
0000
,
0010
0010
0010
0000
,
1000
1000
0001
0001
,
1000
1000
0001
0001
,
0100
0100
0010
0010
,
0100
0100
0010
0010
,
1000
0100
1000
0010
,
0001
0100
0001
0010
,
1000
0100
0001
0010
,
0100
1000
0001
0100
,
1000
0000
0001
0000
,
0100
0100
1001
0000
,
1000
0000
0001
0000
,
0010
0010
1001
0000
,
1000
0000
0001
0000
,
0100
0100
1001
0000
,
1000
0000
0001
0000
,
0010
0010
1001
0000
,
1000
0000
0001
0000
,
0100
1000
0010
0000
,
1000
0000
0001
0000
,
0100
0010
0100
0000
,
1000
0000
0001
0000
,
0100
0001
0010
0000
,
1000
0000
0001
0000
,
0100
0010
0100
0000
;

//---------------dance-single - ----------------
#NOTEDATA:;
#CHARTNAME:;
#STEPSTYPE:dance-single;
#DESCRIPTION:;
#CHARTSTYLE:;
#DIFFICULTY:Medium;
#METER:5;
#RADARVALUES:0.276190,0.327708,0.208333,0.050000,0.162500,232.000000,207.000000,25.000000,6.000000,0.000000,0.000000,0.000000,0.000000,0.000000,0.276190,0.327708,0.208333,0.050000,0.162500,232.000000,207.000000,25.000000,6.000000,0.000000,0.000000,0.000000,0.000000,0.000000;
#CREDIT:kater15;
#DISPLAYBPM:128.000000;
#NOTES:
0000
0000
0000
0000
,
0000
0000
0000
0000
,
0000
0000
0000
0000
,
0000
0000
0000
0000
,
0000
0000
0000
0000
,
1000
0000
0100
0000
,
1000
0000
0020
0100
,
1030
0000
0001
0000
,
0100
0000
2000
0010
,
3100
0000
0001
0000
,
0100
0000
0002
0010
,
0103
1100
0101
1001
,
0100
0000
0000
0010
0000
0000
0100
0000
0010
0000
0000
0000
0000
0000
0000
0000
,
1000
0000
0000
1000
0000
0000
1000
0000
0001
0000
0000
0001
0000
0000
0000
0000
,
1000
1100
0001
0000
,
1000
0000
0000
1000
0000
0000
1000
0000
0001
0000
0000
0001
0000
0000
0000
0000
,
0010
0011
1000
0000
,
1000
0000
0000
1000
0000
0000
1000
0000
0001
0000
0000
0001
0000
0000
0000
0000
,
0100
1010
0001
0000
,
1000
0000
0000
1000
0000
0000
1000
0000
0001
0000
0000
0001
0000
0000
0000
0000
,
0010
0101
1000
0000
,
0100
0000
0000
0100
0000
0000
0100
0000
0010
0000
0000
0010
0000
0000
0000
0000
,
1000
1001
0001
0000
,
0100
0000
0000
0100
0000
0000
0100
0000
0010
0000
0000
0010
0000
0000
0000
0000
,
0001
0110
1000
0000
,
0100
0000
0000
0100
0000
0000
0100
0000
0010
0000
0000
0010
0000
0000
0000
0000
,
1000
1001
0001
0000
,
0100
0000
0000
0100
0000
0000
0100
0000
0010
0000
0000
0010
0000
0000
0000
0000
,
0001
0110
1000
0000
,
1000
0000
0100
0000
,
1000
0000
0020
0100
,
1030
0000
0100
0000
,
0010
0000
0002
0100
,
0013
0000
0000
0010
0000
0000
0010
0000
,
1000
0000
0000
1000
0000
0000
1000
0000
,
0100
0000
0000
0100
0000
0000
0100
0000
,
0001
0000
0000
0001
0000
0000
0001
0010
,
1000
0000
0000
1000
0000
0000
1000
0000
0001
0000
0000
0001
0000
0000
0001
0000
,
1000
0000
0000
1000
0000
0000
1000
0000
0001
0000
0000
0001
0000
0000
0001
0000
,
0100
0000
0000
0100
0000
0000
0100
0000
0010
0000
0000
0010
0000
0000
0010
0000
,
0100
0000
0000
0100
0000
0000
0100
0000
0010
0000
0000
0010
0000
0000
0010
0000
,
1000
0000
0000
1000
0000
0000
1000
0000
0001
0000
0000
0001
0000
0000
0001
0000
,
1000
0000
0000
1000
0000
0000
1000
0000
0001
0000
0000
0001
0000
0000
0001
0000
,
0100
0000
0000
0100
0000
0000
0100
0000
0010
0000
0000
0010
0000
0000
0010
0000
,
0200
0000
0000
0300
,
1100
0000
0101
0000
,
0010
0000
0100
0010
0100
0000
0000
0000
,
0101
0000
1100
0000
,
0010
1010
0100
0000
,
1100
0000
0101
0000
,
0010
0000
0100
0010
0100
0000
0000
0000
,
0101
0000
1100
0000
,
0010
1010
0100
0000
,
1000
0000
0000
1000
0000
0000
1000
0000
0001
0000
0000
0001
0000
0000
0000
0000
,
1000
1100
0001
0000
,
1000
0000
0000
1000
0000
0000
1000
0000
0001
0000
0000
0001
0000
0000
0000
0000
,
0010
0011
1000
0000
,
1000
0000
0000
1000
0000
0000
1000
0000
0001
0000
0000
0001
0000
0000
0000
0000
,
0100
1010
0001
0000
,
1000
0000
0000
1000
0000
0000
1000
0000
0001
0000
0000
0001
0000
0000
0000
0000
,
0010
0101
1000
0000
;

//---------------dance-single - ----------------
#NOTEDATA:;
#CHARTNAME:;
#STEPSTYPE:dance-single;
#DESCRIPTION:;
#CHARTSTYLE:;
#DIFFICULTY:Beginner;
#METER:1;
#RADARVALUES:0.100000,0.126042,0.000000,0.108333,0.000000,84.000000,84.000000,0.000000,13.000000,0.000000,0.000000,0.000000,0.000000,0.000000,0.100000,0.126042,0.000000,0.108333,0.000000,84.000000,84.000000,0.000000,13.000000,0.000000,0.000000,0.000000,0.000000,0.000000;
#CREDIT:kater15;
#DISPLAYBPM:128.000000;
#NOTES:
0000
0000
0000
0000
,
0000
0000
0000
0000
,
0000
0000
0000
0000
,
0000
0000
0000
0000
,
0000
0000
0000
0000
,
1000
0000
0000
0000
,
1000
0000
0000
0000
,
0001
0000
0000
0000
,
0001
0000
0000
0000
,
0100
0000
0000
0000
,
0100
0000
0000
0000
,
0010
0000
0000
0000
,
0020
0000
0030
0000
,
0100
0000
0000
0000
,
0100
0100
0100
0000
,
0010
0000
0000
0000
,
0010
0010
0010
0000
,
1000
0000
0000
0000
,
1000
1000
1000
0000
,
0001
0000
0000
0000
,
0001
0001
0001
0000
,
0200
0000
0300
0000
,
0010
0000
0100
0000
,
0020
0000
0030
0000
,
0100
0000
0010
0000
,
2000
0000
3000
0000
,
0001
0000
1000
0000
,
0002
0000
0003
0000
,
1000
0000
0001
0000
,
0100
0000
0000
0000
,
0001
0000
0000
0000
,
0010
0000
0000
0000
,
1000
0000
0000
0000
,
0200
0000
0300
0000
,
0002
0000
0003
0000
,
0020
0000
0030
0000
,
2000
0000
3000
0000
,
0010
0000
0010
0000
,
0010
0000
0010
0000
,
0100
0000
0100
0000
,
0100
0000
0100
0000
,
0001
0000
0001
0000
,
0001
0000
0001
0000
,
1000
0000
1000
0000
,
1000
0000
1000
0000
,
0200
0000
0300
0000
,
0100
0000
0000
0000
,
0020
0000
0030
0000
,
0010
0000
0000
0000
,
0200
0000
0300
0000
,
0100
0000
0000
0000
,
0020
0000
0030
0000
,
0010
0000
0000
0000
,
0100
0000
0000
0000
,
0100
0100
0100
0000
,
0010
0000
0000
0000
,
0010
0010
0010
0000
,
1000
0000
0000
0000
,
1000
1000
1000
0000
,
0001
0000
0000
0000
,
0001
0001
0001
0000
;

//---------------dance-single - ----------------
#NOTEDATA:;
#CHARTNAME:;
#STEPSTYPE:dance-single;
#DESCRIPTION:;
#CHARTSTYLE:;
#DIFFICULTY:Hard;
#METER:8;
#RADARVALUES:0.471429,0.554583,0.133333,0.058333,0.345833,396.000000,380.000000,16.000000,7.000000,0.000000,0.000000,0.000000,0.000000,0.000000,0.471429,0.554583,0.133333,0.058333,0.345833,396.000000,380.000000,16.000000,7.000000,0.000000,0.000000,0.000000,0.000000,0.000000;
#CREDIT:kater15;
#DISPLAYBPM:128.000000;
#NOTES:
// measure 0
0000
0000
0000
0000
,  // measure 1
0000
0000
0000
0000
,  // measure 2
0000
0000
0000
0000
,  // measure 3
0000
0000
0000
0000
,  // measure 4
0000
0000
0000
0000
,  // measure 5
1000
0100
1000
0010
,  // measure 6
0001
0000
0100
0000
0001
0100
1000
0010
,  // measure 7
1000
0100
1000
0010
,  // measure 8
0001
0000
0100
0000
0001
0100
1000
0010
,  // measure 9
1000
0100
1000
0010
,  // measure 10
0001
0000
0100
0000
0001
0100
1000
0010
,  // measure 11
1000
0110
1001
0110
,  // measure 12
2001
0000
0000
0001
0000
0000
0001
0000
0001
0000
0000
0000
3000
0000
0010
0000
,  // measure 13
0100
0000
0001
1000
0000
0001
0100
0000
0010
0000
0001
1000
0000
0000
0000
0000
,  // measure 14
0010
0000
0100
0010
0100
0000
0001
0000
1000
0000
0000
0000
0010
0000
0001
0000
,  // measure 15
0010
0000
1000
0001
0000
1000
0010
0000
0100
0000
1000
0001
0000
0000
0000
0000
,  // measure 16
0100
0000
0010
0100
0010
0000
1000
0000
0001
0000
0000
0000
0100
0000
1000
0000
,  // measure 17
0100
0000
0001
1000
0000
0001
0100
0000
0010
0000
0001
1000
0000
0000
0000
0000
,  // measure 18
0010
0000
0100
0010
0100
0000
0001
0000
1000
0000
0000
0000
0010
0000
0001
0000
,  // measure 19
0010
0000
1000
0001
0000
1000
0010
0000
0100
0000
1000
0001
0000
0000
0000
0000
,  // measure 20
0100
0000
0010
0100
0010
0000
1000
0000
0001
0000
0000
0000
0100
0000
1000
0000
,  // measure 21
0001
0000
1000
0001
1000
0000
0010
0000
0100
0000
0010
0100
0010
0000
0000
0000
,  // measure 22
1000
0100
0010
0001
0100
0000
0000
1000
,  // measure 23
0001
0000
1000
0001
1000
0000
0010
0000
0100
0000
0010
0100
0010
0000
0000
0000
,  // measure 24
1000
0000
0001
0010
1000
0000
0001
0000
1000
0000
0000
0000
0000
0000
0001
0000
,  // measure 25
1000
0000
0001
1000
0001
0000
0100
0000
0010
0000
0100
0010
0100
0000
0000
0000
,  // measure 26
0001
0010
0100
1000
0010
0000
0000
0001
,  // measure 27
1000
0000
0001
1000
0001
0000
0100
0000
0010
0000
0100
0010
0100
0000
0000
0000
,  // measure 28
0001
0000
1000
0100
0001
0000
1000
0000
0001
0000
0000
0000
1100
0000
0101
0000
,  // measure 29
0010
0000
0000
0100
0001
0000
1000
0000
0010
0000
0000
0100
0001
0000
1000
0000
,  // measure 30
0010
0000
0000
0100
0001
0000
1000
0000
0010
0000
0000
0100
0001
0000
1000
0000
,  // measure 31
0010
0000
0000
0100
0001
0000
1000
0000
0010
0000
0000
0100
0001
0000
1000
0000
,  // measure 32
0010
0000
0000
0100
0001
0000
1000
0000
0010
0000
0000
0100
0001
0000
1000
0000
,  // measure 33
0010
0000
0000
0001
0000
0000
0100
0000
0000
0000
1000
0000
0001
0000
0100
0000
,  // measure 34
0010
0000
0000
0001
0000
0000
0100
0000
0000
0000
1000
0000
0001
0000
0100
0000
,  // measure 35
0010
0000
0000
0001
0000
0000
0100
0000
0000
0000
1000
0000
0001
0000
0100
0000
,  // measure 36
0010
0000
0000
0001
0000
0000
0100
0000
0000
0000
1000
0000
0001
0000
0100
0000
,  // measure 37
0010
0000
0000
0001
0000
0000
0100
0000
0010
0000
0000
1000
0000
0000
0100
0000
,  // measure 38
0010
0000
0000
1010
0000
0000
0100
0000
0001
0000
0000
0010
0000
0000
0100
0000
,  // measure 39
0001
0000
0000
0110
0000
0000
1000
0000
0100
0000
0000
1000
0000
0000
0001
0000
,  // measure 40
0010
0000
0000
1001
0000
0000
0100
0000
0010
0000
0000
0100
0000
0000
0001
0000
,  // measure 41
1000
0000
0010
1000
0000
0010
0100
0000
0001
0000
1000
0100
0000
1000
0001
0000
,  // measure 42
0010
0000
1000
0001
0000
1000
0010
0000
0100
0000
0001
1000
0000
0001
0010
0000
,  // measure 43
1000
0000
0010
1000
0000
0010
0100
0000
0001
0000
1000
0100
0000
1000
0001
0000
,  // measure 44
0220
0000
0000
0000
0000
0000
0330
0010
,  // measure 45
2000
0000
0000
0100
0000
0000
0010
0000
0100
0000
0000
3010
0000
0000
0000
0000
,  // measure 46
0010
0100
0001
0010
1000
0000
0000
0100
,  // measure 47
0002
0000
0000
0010
0000
0000
0100
0000
0010
0000
0000
0103
0000
0000
0000
0000
,  // measure 48
1001
0000
0101
0000
0110
0000
0000
0010
,  // measure 49
2000
0000
0000
0100
0000
0000
0010
0000
0100
0000
0000
3010
0000
0000
0000
0000
,  // measure 50
0010
0100
0001
0010
1000
0000
0000
0100
,  // measure 51
0002
0000
0000
0010
0000
0000
0100
0000
0010
0000
0000
0103
0000
0000
0000
0000
,  // measure 52
1001
0000
0101
0000
0110
0000
0000
0010
,  // measure 53
0100
0000
0001
1000
0000
0001
0100
0000
0010
0000
0001
1000
0000
0000
0000
0000
,  // measure 54
0010
0000
0100
0010
0100
0000
0001
0000
1000
0000
0000
0000
0010
0000
0001
0000
,  // measure 55
0010
0000
1000
0001
0000
1000
0010
0000
0100
0000
1000
0001
0000
0000
0000
0000
,  // measure 56
0100
0000
0010
0100
0010
0000
1000
0000
0001
0000
0000
0000
0100
0000
1000
0000
,  // measure 57
0100
0000
0001
1000
0000
0001
0100
0000
0010
0000
0001
1000
0000
0000
0000
0000
,  // measure 58
0010
0000
0100
0010
0100
0000
0001
0000
1000
0000
0000
0000
0010
0000
0001
0000
,  // measure 59
0010
0000
1000
0001
0000
1000
0010
0000
0100
0000
1000
0001
0000
0000
0000
0000
,  // measure 60
0100
0000
0010
0100
0010
0000
1000
0000
0001
0000
0000
0000
0000
0000
0000
0000
;
