#VERSION:0.83;
#TITLE:U Can't Touch This ("STREAM" Special);
#SUBTITLE:;
#ARTIST:MC Hammer;
#TITLETRANSLIT:;
#SUBTITLETRANSLIT:;
#ARTISTTRANSLIT:;
#GENRE:;
#ORIGIN:;
#CREDIT:;
#BANNER:U Can't Touch This (STREAM Special).png;
#BACKGROUND:U Can't Touch This (STREAM Special)-bg.png;
#PREVIEWVID:;
#JACKET:U Can't Touch This (STREAM Special)-jacket.png;
#CDIMAGE:;
#DISCIMAGE:;
#LYRICSPATH:;
#CDTITLE:;
#MUSIC:U Can't Touch This (STREAM Special).ogg;
#OFFSET:0.000000;
#SAMPLESTART:10.760000;
#SAMPLELENGTH:15.000000;
#SELECTABLE:YES;
#DISPLAYBPM:134.000000;
#BPMS:0.000=133.829,
4.000=133.391,
157.000=133.446;
#STOPS:157.000=1.353;
#DELAYS:;
#WARPS:;
#TIMESIGNATURES:0.000=4=4;
#TICKCOUNTS:0.000=4;
#COMBOS:0.000=1;
#SPEEDS:0.000=1.000=0.000=0;
#SCROLLS:0.000=1.000;
#FAKES:;
#LABELS:0.000=Song Start;
#BGCHANGES:;
#KEYSOUNDS:;
#ATTACKS:
;

//---------------dance-single - ----------------
#NOTEDATA:;
#CHARTNAME:;
#STEPSTYPE:dance-single;
#DESCRIPTION:;
#CHARTSTYLE:;
#DIFFICULTY:Challenge;
#METER:13;
#RADARVALUES:0.578847,0.564808,0.055761,0.148695,0.320623,436.000000,430.000000,6.000000,16.000000,0.000000,0.000000,0.000000,0.000000,0.000000,0.578847,0.564808,0.055761,0.148695,0.320623,436.000000,430.000000,6.000000,16.000000,0.000000,0.000000,0.000000,0.000000,0.000000;
#CREDIT:kater15;
#DISPLAYBPM:134.000000;
#NOTES:
// measure 0
0000
0000
0000
0000
,  // measure 1
0000
0000
0000
0000
,  // measure 2
0000
0000
0000
0000
,  // measure 3
0000
0000
0000
0000
,  // measure 4
1001
0000
0010
0001
0100
0010
0010
0000
,  // measure 5
1000
1000
0100
0100
0010
0010
0001
0001
,  // measure 6
0110
0000
1000
0000
0100
0000
0010
0000
0001
0000
0100
0010
0100
0000
0000
0000
,  // measure 7
0100
0000
0100
0000
0001
0000
0001
0000
1000
0100
1000
0000
0010
0000
0100
0001
,  // measure 8
0200
0000
0000
0000
0301
0000
0100
0000
1000
0000
0010
0100
0010
0000
0000
0000
,  // measure 9
0100
0000
0001
0000
1000
0000
0010
0000
0100
0001
0100
0000
0010
1000
0010
0000
,  // measure 10
0200
0000
0000
0000
0301
0000
0100
0000
1000
0000
0010
0001
0010
0000
0000
0000
,  // measure 11
0100
0000
0010
0000
1000
0000
0100
0000
0010
0001
0010
0000
0100
1000
0100
0000
,  // measure 12
0020
0000
0000
0000
0031
0000
0010
0000
1000
0000
0100
0001
0100
0000
0000
0000
,  // measure 13
0010
0000
0100
0000
1000
0000
0100
0000
0010
0001
0010
0000
1000
0100
1000
0000
,  // measure 14
0020
0000
0000
0000
0031
0000
0010
0000
1000
0000
0001
0100
0001
0000
0000
0000
,  // measure 15
0100
0000
0010
0001
0010
0000
0100
0000
0000
0000
1000
0000
0001
0000
1000
0000
,  // measure 16
0020
0000
0000
0000
0031
0000
0010
0000
1000
0000
0100
0001
0100
0000
0000
0000
,  // measure 17
0010
0000
1000
0001
1000
0000
0100
0000
0000
0000
0001
0000
1000
0000
0001
0000
,  // measure 18
0110
0000
1000
0000
0100
0000
0010
0000
0001
0000
0100
0010
0100
0000
0000
0000
,  // measure 19
0100
0000
0100
0000
0001
0000
0001
0000
1000
0100
1000
0000
0010
0000
0100
0001
,  // measure 20
0200
0000
0000
0000
0301
0000
0100
0000
1000
0000
0010
0100
0010
0000
0000
0000
,  // measure 21
0100
0000
0001
0000
1000
0000
0010
0000
0100
0001
0100
0000
0010
1000
0010
0000
,  // measure 22
0200
0000
0000
0000
0301
0000
0100
0000
1000
0000
0010
0001
0010
0000
0000
0000
,  // measure 23
0100
0000
0010
0000
1000
0000
0100
0000
0010
0001
0010
0000
0100
1000
0100
0000
,  // measure 24
0020
0000
0000
0000
0031
0000
0010
0000
1000
0000
0100
0001
0100
0000
0000
0000
,  // measure 25
0010
0000
0100
0000
1000
0000
0100
0000
0010
0001
0010
0000
1000
0100
1000
0000
,  // measure 26
0020
0000
0000
0000
0031
0000
0010
0000
1000
0000
0001
0100
0001
0000
0000
0000
,  // measure 27
0100
0000
0010
0001
0010
0000
0100
0000
0000
0000
1000
0000
0001
0000
1000
0000
,  // measure 28
0020
0000
0000
0000
0031
0000
0010
0000
1000
0000
0100
0001
0100
0000
0000
0000
,  // measure 29
0010
0000
1000
0001
1000
0000
0100
0000
0000
0000
0001
0000
1000
0000
0001
0000
,  // measure 30
0200
0000
0000
0000
1300
0000
0100
0000
0001
0000
0010
1000
0010
0000
0000
0000
,  // measure 31
0100
0000
0001
1000
0001
0000
0010
0000
0000
0000
1000
0001
1000
0000
0000
0000
,  // measure 32
0100
0000
0010
0000
0100
0000
0001
1000
0001
0000
0010
0000
0100
0000
1000
0001
,  // measure 33
1000
0000
0100
0000
0010
0000
0001
1000
0001
0000
0010
0000
0100
0000
0000
0000
,  // measure 34
0001
0000
1000
0000
0001
0000
0010
0100
0010
0000
1000
0000
0001
0000
0100
0010
,  // measure 35
0100
0000
0001
0000
1000
0000
0010
0100
0010
0000
1000
0000
0001
0000
0000
0000
,  // measure 36
0010
0000
0100
0000
0010
0000
1000
0001
1000
0000
0100
0000
0010
0000
0001
1000
,  // measure 37
0001
0000
0010
0000
0100
0000
1000
0001
1000
0000
0100
0000
0010
0000
0000
0000
,  // measure 38
1000
0000
0001
0000
1000
0000
0100
0010
0100
0000
0001
0000
1000
0000
0010
0100
,  // measure 39
0010
1000
0001
0000
1100
0000
0101
0000
,  // measure 40
0100
0000
0010
0000
0001
0000
0100
0000
0001
1000
0001
0000
0010
0000
0100
0010
,  // measure 41
0100
0000
0001
0000
0020
0000
0000
0000
0031
0000
0010
0000
1000
0000
0100
0001
,  // measure 42
0100
0000
0000
0000
0100
0000
0010
0000
0001
0000
0010
0000
0100
1000
0100
0000
,  // measure 43
0001
0010
0001
0000
0200
0000
0000
0000
1300
0000
0100
0000
0001
0000
1000
0010
,  // measure 44
1000
0000
0000
0000
0010
0000
0100
0000
1000
0000
0100
0000
0010
0001
0010
0000
,  // measure 45
1000
0100
1000
0000
0020
0000
0000
0000
0031
0000
0010
0000
1000
0000
0001
0100
,  // measure 46
0001
0000
0000
0000
0010
0000
0100
0000
1000
0000
0100
0000
0010
0001
0010
0000
,  // measure 47
1000
0100
1000
0000
0020
0000
0000
0000
0031
0000
0010
0000
1000
0000
0001
0100
,  // measure 48
0001
0000
0000
0000
0100
0000
0010
0000
0001
0000
0010
0000
0100
1000
0100
0000
,  // measure 49
0001
0010
0001
0000
0200
0000
0000
0000
1300
0000
0100
0000
0001
0000
1000
0010
,  // measure 50
1000
0000
0000
0000
0100
0000
0010
0000
0001
0000
0010
0000
0100
1000
0100
0000
,  // measure 51
0001
0010
0001
0000
0100
0000
0010
0000
0100
0000
0001
1000
0001
0000
0010
0000
,  // measure 52
0100
0000
1000
0001
1000
0000
0100
0000
0010
0000
0001
1000
0001
0000
0010
0000
,  // measure 53
0100
0000
0000
0000
0001
0000
1000
0000
0001
0000
0010
0100
0010
0000
1000
0000
,  // measure 54
0001
0000
0100
0010
0100
0000
0001
0000
1000
0000
0010
0100
0010
0000
1000
0000
,  // measure 55
0001
0110
0000
0000
;
