#TITLE:This Girl;
#SUBTITLE:;
#ARTIST:KUNGS VS COOKIN`ON 3 BUNNERS;
#TITLETRANSLIT:;
#SUBTITLETRANSLIT:;
#ARTISTTRANSLIT:;
#GENRE:;
#CREDIT:;
#BANNER:This Girl.png;
#BACKGROUND:This Girl-bg.png;
#LYRICSPATH:;
#CDTITLE:cdtitle.png;
#MUSIC:This Girl.ogg;
#OFFSET:1.122000;
#SAMPLESTART:63.779999;
#SAMPLELENGTH:15.000000;
#LASTBEATHINT:0.248128;
#SELECTABLE:YES;
#DISPLAYBPM:122.000000;
#BPMS:0.000000=122.029999
;
#STOPS:
;
#BGCHANGES:;
#KEYSOUNDS:;
#ATTACKS:;

//---------------dance-single - ----------------
#NOTES:
     dance-single:
     :
     Easy:
     2:
     0.150513,0.195801,0.027972,0.046619,0.000000,113.000000,110.000000,3.000000,5.000000,0.000000,0.000000,0.150513,0.195801,0.027972,0.046619,0.000000,113.000000,110.000000,3.000000,5.000000,0.000000,0.000000:
0000
0000
0000
0000
,
0000
0000
0000
0000
,
0000
0000
0000
0000
,
0000
0000
0000
0000
,
0000
0000
0000
0000
,
1000
1000
0000
0001
,
1000
0010
0000
0000
,
0010
0010
0000
0001
,
0100
1000
0000
0000
,
0100
0100
0000
0010
,
0001
0100
0000
0000
,
1000
0000
0001
0000
,
1001
0000
0000
0000
,
2000
0010
3010
0100
,
0001
1000
0000
0000
,
0010
0000
0100
0000
,
1000
0000
0001
0000
,
0200
0010
0310
1000
,
0100
0001
0000
0000
,
0100
0000
0001
0000
,
1000
0000
0100
0000
,
0220
0000
0000
0000
,
0000
0000
0000
0330
,
0000
1000
0000
0001
,
0000
0100
0000
0100
,
0000
0001
0000
1000
,
0000
0010
0000
0010
,
0000
0010
0000
0001
,
0000
0100
0000
0010
,
1000
1000
1000
1000
,
0000
0001
0000
1000
,
0000
0010
0000
0200
,
0000
0000
0000
0300
,
1000
0000
0100
0000
,
0100
0000
0001
0000
,
0010
0010
0010
0010
,
0000
1000
0000
0001
,
0100
1001
0010
0000
,
1000
0000
0100
0000
,
0001
0001
0001
0001
,
0000
1000
0000
1000
,
0100
0000
0100
0000
,
0010
0000
1000
0000
,
0100
0100
0100
0100
,
0000
0001
0000
1000
,
0010
0001
0010
0000
,
1000
0000
0001
0000
,
0100
1000
0100
0000
,
0001
0000
1000
0000
,
1000
0010
1000
0000
,
0100
0000
0010
0000
,
0001
0100
0001
0000
,
0010
0000
0100
0000
;

//---------------dance-single - ----------------
#NOTES:
     dance-single:
     :
     Beginner:
     1:
     0.073259,0.096968,0.009324,0.037295,0.000000,55.000000,54.000000,1.000000,4.000000,0.000000,0.000000,0.073259,0.096968,0.009324,0.037295,0.000000,55.000000,54.000000,1.000000,4.000000,0.000000,0.000000:
0000
0000
0000
0000
,
0000
0000
0000
0000
,
0000
0000
0000
0000
,
0000
0000
0000
0000
,
0000
0000
0000
0000
,
0000
1000
0000
1000
,
0000
1000
0000
0000
,
0000
0001
0000
0001
,
0000
0001
0000
0000
,
0000
1000
0000
1000
,
0000
1000
0000
0000
,
0020
0000
0000
0000
,
0000
0000
0030
0000
,
0000
0100
0000
0100
,
0000
0100
0000
0000
,
0000
0010
0000
0010
,
0000
0010
0000
0000
,
0000
0100
0000
0100
,
0000
0100
0000
0000
,
1000
0000
0000
0000
,
0001
0000
0000
0000
,
2002
0000
0000
0000
,
0000
0000
0000
0000
,
3003
0000
0000
0000
,
0100
0000
0000
0000
,
0001
0000
0000
0000
,
0001
0000
0000
0000
,
0010
0000
0000
0000
,
1000
0000
0000
0000
,
1000
0000
0000
0000
,
0010
0000
0000
0000
,
0100
0000
0000
0000
,
0002
0000
0000
0000
,
0003
0000
0000
0000
,
0100
0000
0000
0000
,
0010
0000
0000
0000
,
0010
0000
0000
0000
,
1000
0000
0000
0000
,
0100
0000
0000
0000
,
0001
0000
0000
0000
,
0001
0000
0000
0000
,
0100
0000
0000
0000
,
0010
0000
0000
0000
,
1000
0000
0000
0000
,
1000
0000
0000
0000
,
0010
0000
0010
0000
,
0010
0000
0000
0000
,
0001
0000
0001
0000
,
0001
0000
0000
0000
,
1000
0000
1000
0000
,
1000
0000
0000
0000
,
0100
0000
0100
0000
,
0100
0000
0000
0000
;

//---------------dance-single - ----------------
#NOTES:
     dance-single:
     :
     Medium:
     4:
     0.238424,0.295099,0.167829,0.158505,0.000000,179.000000,161.000000,18.000000,17.000000,0.000000,0.000000,0.238424,0.295099,0.167829,0.158505,0.000000,179.000000,161.000000,18.000000,17.000000,0.000000,0.000000:
0000
0000
0000
0000
,
0000
0000
0000
0000
,
0000
0000
0000
0000
,
0000
0000
0000
0000
,
0000
0000
0000
0000
,
0200
0001
0301
0010
,
1001
0100
0000
0000
,
2000
0010
3100
0001
,
0110
1000
0000
0000
,
0200
1000
0301
0010
,
0110
0100
0000
0000
,
2000
0000
0000
0100
0000
0010
0000
0010
,
0000
0000
0010
3000
,
0020
0100
1030
0001
,
0110
0000
1000
0000
0000
0000
0001
0001
,
0000
0001
0000
0000
0000
0000
1000
1000
,
0000
1000
0000
0000
0000
0000
0000
0000
,
0002
1000
0103
0010
,
1001
1000
0000
0000
,
1000
1000
0100
0001
,
0010
0001
0100
0100
,
0220
0000
0000
0000
,
0000
0000
0000
0330
,
1000
0000
1000
0000
0001
0001
0000
0001
,
0000
1000
0001
0100
,
0010
0000
1000
0000
0100
0000
0010
0010
,
0000
2000
0001
3100
,
0010
0000
1001
0000
0100
0000
1000
1000
,
0000
0020
0001
0130
,
1000
0000
0001
0000
1000
0000
0010
0010
,
0000
0200
0001
1300
,
0110
0000
0000
0000
0001
0000
0100
0200
,
0000
0000
0000
0300
,
1000
1001
0001
0100
,
0000
2000
0010
3001
,
0100
0000
0110
0000
0010
0000
1000
1000
,
0000
0020
1000
0130
,
1000
1001
0110
0001
,
0001
0010
1000
0110
,
0010
0010
0001
0100
,
0010
2000
0001
3100
,
1000
0000
1000
0000
0001
0000
0010
0010
,
0000
0002
0100
0013
,
1000
0000
1001
0000
0010
0000
0010
0010
,
0000
0200
1000
0310
,
0001
0000
0001
0000
1000
0000
0000
1001
,
0000
0001
0010
0001
,
0100
0000
0100
0000
1000
0000
0000
0110
,
0000
0001
1000
0010
,
1000
0000
1000
0000
0001
0000
0000
1001
,
0000
1000
0100
1000
,
0010
0000
0010
0000
0001
0000
0000
0110
,
0000
1000
0001
0100
;

//---------------dance-single - ----------------
#NOTES:
     dance-single:
     :
     Hard:
     7:
     0.334326,0.368874,0.083915,0.177153,0.046619,251.000000,242.000000,9.000000,19.000000,0.000000,0.000000,0.334326,0.368874,0.083915,0.177153,0.046619,251.000000,242.000000,9.000000,19.000000,0.000000,0.000000:
// measure 0
0000
0000
0000
0000
,  // measure 1
0000
0000
0000
0000
,  // measure 2
0000
0000
0000
0000
,  // measure 3
0000
0000
0000
0000
,  // measure 4
0000
0000
0000
0000
,  // measure 5
0000
0000
1000
0000
0001
0100
1000
0100
,  // measure 6
0000
0000
0000
0000
0010
0000
0000
1000
0100
0000
0010
0000
1000
0000
0100
0000
,  // measure 7
0001
0000
0101
0000
0010
1000
1000
0100
,  // measure 8
0000
0000
0000
0000
0001
0000
0000
0001
0100
0000
0010
0000
1000
0000
0100
0000
,  // measure 9
0001
0000
0110
0000
0100
0010
1000
0001
,  // measure 10
0000
0000
0000
0000
0100
0000
0000
0010
1000
0000
0100
0000
0100
0000
0001
0000
,  // measure 11
0020
0000
2000
0030
,  // measure 12
0002
0000
0000
3003
,  // measure 13
1000
0100
1000
0100
0001
0010
0001
1000
,  // measure 14
0100
0010
0001
0000
0000
0000
1000
0001
,  // measure 15
1000
0001
0000
0000
0000
0000
0100
0010
,  // measure 16
0100
0010
0000
0000
0000
0000
0000
0000
,  // measure 17
1010
0000
0001
0010
0001
0010
1000
0100
,  // measure 18
0010
0100
0010
0000
0000
0000
0000
0000
,  // measure 19
2000
3002
0203
0320
,  // measure 20
2030
3200
0320
0032
,  // measure 21
2000
0000
0000
0000
,  // measure 22
0000
0000
0000
3003
,  // measure 23
0100
0000
0011
0000
1000
0100
0000
1100
,  // measure 24
0000
0020
1000
0031
,  // measure 25
0100
0000
1000
0100
1000
1000
0001
0010
,  // measure 26
0000
0000
1000
0100
1000
0010
0001
0000
,  // measure 27
0010
0000
0001
0010
0001
1000
0100
0100
,  // measure 28
0000
0000
1000
1000
0010
0100
0010
0000
,  // measure 29
1000
0001
1000
0001
1000
0010
1000
0100
,  // measure 30
0000
0000
0001
0001
0010
0001
0100
0000
,  // measure 31
2000
0000
0000
0000
0000
0001
0000
0000
3001
0000
0100
0000
0001
0000
0020
0000
,  // measure 32
0000
0000
0000
0030
,  // measure 33
1000
0000
1010
0000
0100
0100
0001
1000
,  // measure 34
0000
0000
0100
0100
0001
0010
0100
0000
,  // measure 35
0001
1000
0001
1000
0001
0010
0001
0100
,  // measure 36
0000
0000
0100
0100
1000
0010
0100
0000
,  // measure 37
1000
0000
0000
0001
0000
0001
0010
0000
1000
0000
0010
0000
0001
0000
1000
0000
,  // measure 38
0000
0000
1000
0100
0010
0001
1000
0000
,  // measure 39
0010
0100
0010
0100
0010
1000
0010
0001
,  // measure 40
0000
0000
0100
1000
0100
0010
0001
0000
,  // measure 41
2000
0000
0000
0000
0000
0001
0000
0000
3001
0000
0100
0000
0010
0000
0001
0000
,  // measure 42
0000
0000
0100
0010
1000
0001
0010
0000
,  // measure 43
0100
0010
0100
0010
0100
1000
0100
0001
,  // measure 44
0000
0000
0010
0010
0100
0010
1000
0000
,  // measure 45
0200
0000
0310
0000
1000
0100
0000
1100
,  // measure 46
0000
0000
0000
0000
0010
0000
0000
0001
1000
0000
0100
0000
0010
0000
0010
0000
,  // measure 47
2000
0000
3001
0000
0100
0001
0000
0101
,  // measure 48
0000
0000
0000
0000
1000
0000
0000
0100
0010
0000
1000
0000
0100
0000
1000
0000
,  // measure 49
0002
0000
1003
0000
0100
0001
0000
0101
,  // measure 50
0000
0000
0000
0000
1000
0000
0000
0010
0100
0000
0001
0000
1000
0000
1000
0000
,  // measure 51
0100
0010
0001
1000
,  // measure 52
0010
0100
1000
0001
;
