#TITLE:Theory of Eternity ("VOLTAGE" Special);
#SUBTITLE:;
#ARTIST:TAG;
#TITLETRANSLIT:;
#SUBTITLETRANSLIT:;
#ARTISTTRANSLIT:;
#GENRE:;
#CREDIT:;
#BANNER:Theory of Eternity (VOLTAGE Special).png;
#BACKGROUND:Theory of Eternity (VOLTAGE Special)-bg.png;
#LYRICSPATH:;
#CDTITLE:;
#MUSIC:Theory of Eternity (VOLTAGE Special).ogg;
#OFFSET:0.000000;
#SAMPLESTART:61.529999;
#SAMPLELENGTH:15.000000;
#SELECTABLE:YES;
#DISPLAYBPM:160.000000;
#BPMS:0.000000=160.000000
;
#STOPS:
;
#BGCHANGES:;
#KEYSOUNDS:;
#ATTACKS:;

//---------------dance-single - ----------------
#NOTES:
     dance-single:
     :
     Challenge:
     14:
     0.660516,0.712131,0.222207,0.017093,0.581157,541.000000,515.000000,26.000000,2.000000,0.000000,0.000000,0.660516,0.712131,0.222207,0.017093,0.581157,541.000000,515.000000,26.000000,2.000000,0.000000,0.000000:
// measure 0
0000
0000
0000
0000
,  // measure 1
0000
0000
0000
0000
,  // measure 2
0000
0000
0000
0000
,  // measure 3
0000
0000
0000
0000
,  // measure 4
0000
0000
0000
0000
,  // measure 5
1000
0001
1000
0010
0000
0100
0000
0001
,  // measure 6
0000
0010
0000
0010
0000
0001
0000
0010
,  // measure 7
0000
0100
0000
0001
0000
1000
0000
0100
,  // measure 8
0010
0010
0000
0000
0100
0100
1000
0100
,  // measure 9
0010
0001
0100
0000
0010
0010
0000
0001
,  // measure 10
0001
0000
0100
0100
0000
1000
0100
0010
,  // measure 11
0001
0100
1000
0000
0001
0001
0000
0010
,  // measure 12
0010
0000
0100
0100
0000
1000
1000
0010
,  // measure 13
0100
0001
0010
0000
1000
1000
0000
0100
,  // measure 14
0100
0000
0001
0001
0000
0010
0100
0001
,  // measure 15
1000
0100
0010
0000
0100
0100
0000
0001
,  // measure 16
0001
0000
1000
1000
0000
0100
0001
1000
,  // measure 17
0010
0000
0100
0000
1000
0000
0000
0000
0101
0000
0000
0100
0000
0000
0101
0000
,  // measure 18
0000
0000
1000
0000
0000
0000
0000
0000
0100
0001
1000
0001
0010
0001
1000
0001
,  // measure 19
0100
0000
0010
0000
0001
0000
0000
0000
1100
0000
0000
1000
0000
0000
1100
0000
,  // measure 20
0000
0001
0000
0011
0000
1000
0000
1100
,  // measure 21
0001
0000
0100
0000
0010
0000
0000
0000
0011
0000
0000
0001
0000
0000
0011
0000
,  // measure 22
0000
0000
1000
0000
0000
0000
0000
0000
1000
0100
0010
0100
0001
0100
0010
0100
,  // measure 23
1000
0000
0001
0000
0100
0000
0000
0000
1010
0000
0000
0010
0000
0000
1010
0000
,  // measure 24
0001
0100
0000
0001
0000
0010
0000
1000
,  // measure 25
0100
0000
0010
0000
0001
0000
0000
0000
1010
0000
0000
0010
0000
0000
1010
0000
,  // measure 26
0000
0000
0001
0000
0000
0000
0000
0000
0010
1000
0001
1000
0100
1000
0001
1000
,  // measure 27
0010
0000
0100
0000
1000
0000
0000
0000
0011
0000
0000
0001
0000
0000
0011
0000
,  // measure 28
0000
0000
1000
0000
0000
0000
0000
0000
0100
0001
1000
0001
0010
0001
1000
0001
,  // measure 29
0100
0000
0001
0000
0100
0000
0000
0000
0011
0000
0000
0001
0000
0000
0011
0000
,  // measure 30
0000
0000
0100
0000
0000
0000
0000
0000
0001
0010
0100
0010
1000
0010
0100
0010
,  // measure 31
0001
0000
1000
0000
0010
0000
0000
0000
0101
0000
0000
0100
0000
0000
0101
0000
,  // measure 32
0000
0000
0010
0000
0000
0000
0100
0000
0001
0100
0001
0100
0001
0100
0001
0100
,  // measure 33
1000
0000
0100
0000
0010
0000
0001
1000
0000
0100
0000
0010
0001
0000
1000
0000
,  // measure 34
0100
0000
0001
0000
1000
0000
0010
0100
0000
0001
0000
1000
0010
0000
0100
0000
,  // measure 35
0010
0000
1000
0000
0001
0000
0100
0010
0000
1000
0000
0001
0100
0000
0010
0000
,  // measure 36
0001
0000
0010
0000
0100
0000
1000
0001
0000
0000
0010
0000
0100
0000
1000
0000
,  // measure 37
0001
0000
0010
0000
0100
0000
1000
0001
0000
0010
0000
0100
1000
0000
0001
0000
,  // measure 38
0010
0000
1000
0000
0001
0000
0100
0010
0000
1000
0000
0001
0100
0000
0010
0000
,  // measure 39
0100
0000
0001
0000
1000
0000
0010
0100
0000
0001
0000
1000
0010
0000
0100
0000
,  // measure 40
1000
0000
0000
0001
0000
0000
1000
0000
0000
0001
0000
0000
1000
0000
0100
0000
,  // measure 41
0001
0000
0100
0010
1000
0000
0001
0000
0100
0010
0000
0100
0000
0010
0001
1000
,  // measure 42
0100
0000
0010
0000
0001
0000
0100
0000
0010
1000
0000
0100
0000
0010
0001
0100
,  // measure 43
0001
0000
0010
0000
0001
0000
0100
0000
0010
1000
0000
0100
0000
0010
0100
0001
,  // measure 44
0100
0000
0010
0000
1000
0000
0100
0000
0100
0001
0000
0000
0010
0000
0100
0000
,  // measure 45
1000
0000
0010
0100
0001
0000
1000
0000
0010
0100
0000
0010
0000
0100
1000
0001
,  // measure 46
0010
0000
0100
0000
1000
0000
0010
0000
0100
0001
0000
0010
0000
0100
1000
0010
,  // measure 47
1000
0000
0100
0000
1000
0000
0010
0000
0100
0001
0000
0010
0000
0100
0010
1000
,  // measure 48
0010
0000
0000
0100
0000
0000
0010
0000
0000
0100
0000
0000
0010
0000
0001
0000
,  // measure 49
0100
1000
0000
0001
0000
1000
0000
0001
,  // measure 50
0000
0100
0000
0010
0000
1000
0000
0101
,  // measure 51
0000
0010
0000
0101
0000
0100
0000
0010
,  // measure 52
0000
1000
0000
0100
0000
0010
0000
0001
,  // measure 53
0000
0100
0000
1001
0000
0010
0000
1001
,  // measure 54
0000
0100
0000
1000
0000
0100
0000
0010
,  // measure 55
0001
0000
0100
0000
1000
0000
0100
0000
0001
0010
0001
0010
0001
0010
0001
0100
,  // measure 56
0010
0000
0000
0000
,  // measure 57
1000
0000
0100
0000
0010
0000
0001
1000
0000
0100
0000
0010
0001
0000
1000
0000
,  // measure 58
0100
0000
0001
0000
1000
0000
0010
0100
0000
0001
0000
1000
0010
0000
0100
0000
,  // measure 59
0010
0000
1000
0000
0001
0000
0100
0010
0000
1000
0000
0001
0100
0000
0010
0000
,  // measure 60
0001
0000
0010
0000
0100
0000
1000
0001
0000
0000
0010
0000
1000
0000
0001
0000
,  // measure 61
0001
0000
0010
0000
0100
0000
1000
0001
0000
0010
0000
0100
1000
0000
0001
0000
,  // measure 62
0010
0000
1000
0000
0001
0000
0100
0010
0000
1000
0000
0001
0100
0000
0010
0000
,  // measure 63
0100
0000
0001
0000
1000
0000
0010
0100
0000
0001
0000
1000
0010
0000
0100
0000
,  // measure 64
1000
0000
0000
0001
0000
0000
1000
0000
0000
0001
0000
0000
1000
0000
0100
0000
,  // measure 65
0001
0000
0100
0010
1000
0000
0001
0000
0100
0010
0000
0100
0000
0010
0001
1000
,  // measure 66
0100
0000
0010
0000
0001
0000
0100
0000
0010
1000
0000
0100
0000
0010
0001
0100
,  // measure 67
0001
0000
0010
0000
0001
0000
0100
0000
0010
1000
0000
0100
0000
0010
0100
0001
,  // measure 68
0100
0000
0010
0000
1000
0000
0100
0000
0100
0001
0000
0000
0010
0000
0100
0000
,  // measure 69
1000
0000
0010
0100
0001
0000
1000
0000
0010
0100
0000
0010
0000
0100
1000
0001
,  // measure 70
0010
0000
0100
0000
1000
0000
0010
0000
0100
0001
0000
0010
0000
0100
1000
0010
,  // measure 71
1000
0000
0100
0000
1000
0000
0010
0000
0100
0001
0000
0010
0000
0100
0010
1000
,  // measure 72
0010
0000
0000
0100
0000
0000
0010
0000
0000
0100
0000
0000
0010
0000
0001
0000
,  // measure 73
0100
1000
1001
0000
0001
1001
0000
1000
,  // measure 74
1001
0000
0001
2002
0000
0000
0000
0000
,  // measure 75
0000
0000
0000
3003
;
