#TITLE:The Heat is On;
#SUBTITLE:;
#ARTIST:Aaron G.;
#TITLETRANSLIT:;
#SUBTITLETRANSLIT:;
#ARTISTTRANSLIT:;
#GENRE:;
#CREDIT:;
#BANNER:The Heat is On.png;
#BACKGROUND:The Heat is On-bg.png;
#LYRICSPATH:;
#CDTITLE:cdtitle.png;
#MUSIC:The Heat is On.ogg;
#OFFSET:0.000000;
#SAMPLESTART:100.511002;
#SAMPLELENGTH:18.000000;
#SELECTABLE:YES;
#DISPLAYBPM:114.000000;
#BPMS:0.000000=18.250999
,4.000000=114.010002
;
#STOPS:
;
#BGCHANGES:0.000=The Heat is On.avi=1.000=1=0=1=StretchNormal==CrossFade==,
99999=-nosongbg-=1.000=0=0=0 // don't automatically add -songbackground-
;
#KEYSOUNDS:;
#ATTACKS:;

//---------------dance-single - ----------------
#NOTES:
     dance-single:
     :
     Easy:
     3:
     0.163883,0.212707,0.063732,0.235810,0.000000,180.000000,170.000000,10.000000,37.000000,0.000000,0.000000,0.163883,0.212707,0.063732,0.235810,0.000000,180.000000,170.000000,10.000000,37.000000,0.000000,0.000000:
0000
0000
0000
0000
,
0000
0000
0000
0000
,
0000
0000
0000
0000
,
1000
1000
0001
0001
,
1000
0001
1000
0001
,
0100
0100
0010
0010
,
0200
0320
0230
0320
,
1030
1000
0001
0001
,
0100
0100
0010
0010
,
1000
0100
1000
0010
,
0001
0100
0001
0010
,
0200
0000
0000
0000
,
0000
0000
0300
1000
,
0002
0000
0000
2000
0000
0000
0000
0000
,
0000
0000
3003
0100
,
0020
1000
0100
0000
,
0000
0000
0030
0010
,
0200
0000
0000
0020
0000
0000
0000
0000
,
0000
0000
0330
0000
,
2000
0100
0001
0000
,
0000
0000
3000
0000
,
0020
0001
1000
0000
,
0000
0000
0030
0000
,
2000
0010
0100
0000
,
0000
0000
3000
0000
,
0002
0100
1000
0000
,
0000
0000
0103
0100
,
1001
0000
1000
0000
,
0100
0000
1000
0000
,
0001
0000
0001
0000
,
0010
0000
0100
0000
,
1000
0001
0100
0000
,
1000
1000
0001
0001
,
0010
0100
1000
0001
,
0200
0320
0230
0320
,
1030
0000
0110
0000
,
0001
0000
0110
0000
,
1000
0100
0010
0001
,
0200
0001
1000
0300
,
1001
0000
1001
0000
,
1001
0000
2000
3001
,
0010
0010
1000
0100
,
2000
3001
0010
0100
,
2000
3100
1000
0100
,
0010
0000
0010
0000
,
0200
0310
0001
1000
,
0100
0000
0100
0000
,
1001
0110
1000
0001
,
0100
0000
0020
0001
,
1000
0000
0031
0000
0100
0000
0000
2000
,
0000
0000
0000
0002
0000
0000
3003
0000
,
0200
0301
0100
0001
,
1000
0000
1000
0000
,
0002
1003
0010
0100
,
0001
0000
0001
0000
,
0110
1001
0100
0010
,
0001
0000
2000
0010
,
0100
0000
3010
0000
0001
0000
0000
0200
,
0000
0000
0000
0020
0000
0000
0330
0000
,
0002
0000
1000
1000
,
1000
0000
0000
0003
,
0020
0000
0001
0001
,
0001
0000
0000
0030
,
2000
0000
0010
0010
,
0010
0000
3020
0001
,
1000
0000
0031
0000
0000
0000
0000
2000
,
0000
0000
0000
0002
0000
0000
3003
0000
;

//---------------dance-single - ----------------
#NOTES:
     dance-single:
     :
     Beginner:
     2:
     0.073748,0.126907,0.019120,0.076479,0.000000,81.000000,78.000000,3.000000,12.000000,0.000000,0.000000,0.073748,0.126907,0.019120,0.076479,0.000000,81.000000,78.000000,3.000000,12.000000,0.000000,0.000000:
0000
0000
0000
0000
,
0000
0000
0000
0000
,
0000
0000
0000
0000
,
1000
0000
1000
0000
,
0001
0000
0001
0000
,
1000
0000
0001
0000
,
1000
1000
1000
0000
,
0010
0000
0010
0000
,
0100
0000
0100
0000
,
0010
0000
0100
0000
,
0010
0010
0010
0000
,
0002
0000
0000
0000
,
0000
0000
0003
0000
,
0020
0000
0000
0000
,
0000
0000
0030
0000
,
2000
0000
0000
0000
,
0000
0000
3000
0000
,
0200
0000
0000
0000
,
0000
0000
0300
0000
,
0002
0000
0000
0000
,
0000
0000
0003
0000
,
0020
0000
0000
0000
,
0000
0000
0030
0000
,
2000
0000
0000
0000
,
0000
0000
3000
0000
,
0200
0000
0000
0000
,
0000
0000
0300
0000
,
0100
0000
0000
0000
,
0001
0000
0000
0000
,
0100
0000
0000
0000
,
0010
0000
0000
0000
,
1000
0000
0001
0000
,
0100
0000
0010
0000
,
1000
0000
0010
0000
,
0100
0100
0100
0000
,
1000
0000
0100
0000
,
0001
0000
0100
0000
,
0010
0000
0000
0000
,
1000
0000
0000
0000
,
0002
0000
0000
0000
,
0003
0000
0000
0000
,
0100
0000
0000
0000
,
0010
0000
0000
0000
,
1000
1000
0000
0000
,
0100
0000
0000
0000
,
0001
0001
0000
0000
,
0100
0000
0000
0000
,
0010
0010
0000
0000
,
0001
0000
0000
0000
,
1001
0000
0000
0000
,
0010
0000
0100
0000
,
0100
0100
0000
0000
,
0001
0000
0000
0000
,
0010
0010
0000
0000
,
0001
0000
0000
0000
,
1000
1000
0000
0000
,
0010
0000
0000
0000
,
0110
0000
0000
0000
,
1000
0000
0001
0000
,
0200
0000
0000
0000
,
0300
0000
0000
0000
,
0020
0000
0000
0000
,
0030
0000
0000
0000
,
0200
0000
0000
0000
,
0300
0000
0000
0000
,
1001
0000
0000
0000
0000
0000
0000
0001
,
0000
0000
0000
1000
0000
0000
0000
0000
;

//---------------dance-single - ----------------
#NOTES:
     dance-single:
     :
     Medium:
     6:
     0.229437,0.319060,0.152958,0.216690,0.063732,252.000000,228.000000,24.000000,34.000000,0.000000,0.000000,0.229437,0.319060,0.152958,0.216690,0.063732,252.000000,228.000000,24.000000,34.000000,0.000000,0.000000:
0000
0000
0000
0000
,
0000
0000
0000
0000
,
0000
0000
0000
0000
,
1000
0100
0100
0001
,
0100
1000
1000
0010
,
0001
0100
0010
0000
,
1000
0000
0000
0001
1000
0000
0000
0001
1000
0000
0000
0001
0000
0000
0000
0000
,
1000
0000
0100
0000
1000
0000
0001
0010
,
0100
0000
0001
0000
0100
0000
0010
1000
,
0100
0000
1000
0000
0100
0000
0001
1000
,
0100
0000
0000
0010
0100
0000
0000
0010
0100
0000
0000
0010
0000
0000
0000
0000
,
0220
0000
0000
0000
,
0000
0000
0000
0000
0000
0000
0330
0000
0000
0000
0001
0000
0000
0001
0000
0000
,
0002
0000
0000
2000
0000
0000
0000
0000
,
0000
0000
0000
0000
0000
0000
3003
0000
0000
0000
0100
0000
0000
0100
0000
0000
,
0100
0000
0000
2000
0000
0000
0002
0000
0000
0000
0000
0000
0000
0000
0000
0000
,
0000
0000
0000
0000
0000
0000
3003
0000
0000
0000
0100
0000
0000
0100
0000
0000
,
0200
0000
0000
0020
0000
0000
0000
0000
,
0000
0000
0000
0000
0000
0000
0330
0000
0000
0000
1000
0000
0000
1000
0000
0000
,
2002
0000
0000
0000
,
0000
0000
0000
0000
0000
0000
3003
0000
0000
0000
0010
0000
0000
0010
0000
0000
,
0020
0000
0000
0200
0000
0000
0000
0000
,
0000
0000
0000
0000
0000
0000
0330
0000
0000
0000
0001
0000
0000
0001
0000
0000
,
0001
0000
0000
0200
0000
0000
0020
0000
0000
0000
0000
0000
0000
0000
0000
0000
,
0000
0000
0000
0000
0000
0000
0330
0000
0000
0000
0001
0000
0000
0001
0000
0000
,
0002
0000
0000
2000
0000
0000
0000
0000
,
0000
3000
1000
1003
,
1001
0000
1000
0000
0100
1000
0001
0000
,
0010
0000
0010
0000
1000
0100
0100
0000
,
1000
0000
0001
0000
0010
0001
0010
0000
,
0100
0000
0001
0010
0100
0010
1000
0000
,
0200
0000
1300
0000
0010
0001
1000
0000
,
0010
0000
0100
0000
0001
0010
0100
0000
,
0200
0000
1300
0000
0001
1000
0100
0000
,
0001
0000
0000
0100
0001
0000
0000
0100
0001
0000
0000
0100
0001
0000
0000
0000
,
0101
0000
1000
1000
0100
0000
0000
0000
,
1100
0000
0001
0001
0100
0000
0000
0000
,
2000
0000
3001
0000
0010
0000
0100
1000
,
0001
0020
0100
0130
,
1000
0100
1000
0100
0001
0010
0001
0010
,
0100
0000
0000
0000
2000
0010
3010
0000
,
0001
1000
0010
0010
,
0110
0000
0000
0000
1000
1000
0001
0000
,
1010
0000
0101
0000
1000
0000
0010
0001
,
0200
0010
0310
0000
,
0011
0000
1100
0000
0010
0000
0100
1000
,
0002
1000
1003
0000
,
0110
0000
1001
0000
0001
0100
0010
1000
,
0000
0000
1000
1010
,
1010
0000
0000
0000
0000
0000
0000
0000
0001
0000
0000
0001
0000
0000
0002
0000
,
0000
0000
0000
2000
0000
0000
3003
0000
,
1100
0000
0011
0000
0100
0000
1000
0010
,
0002
1000
1003
0000
,
1010
0000
0101
0000
1000
0000
0001
0100
,
0020
0100
0130
0000
,
1001
0000
0110
0000
0010
0001
1000
0100
,
0000
0000
0100
1100
,
1100
0000
0000
0000
0000
0000
0000
0000
0010
0000
0000
0010
0000
0000
0020
0000
,
0000
0000
0000
0200
0000
0000
0330
0000
,
2000
0000
0000
0000
0001
0001
0001
0001
,
0000
0000
0000
3000
,
0002
0000
0000
0000
1000
1000
1000
1000
,
0000
0000
0000
0003
,
2000
0000
0000
0000
0001
0001
0001
0001
,
0000
3000
1000
1010
,
1010
0000
0000
0000
0000
0000
0000
0002
,
0000
0000
0000
2000
0000
0000
3003
0000
;

//---------------dance-single - ----------------
#NOTES:
     dance-single:
     :
     Challenge:
     7:
     0.228526,0.319060,0.152958,0.216690,0.063732,251.000000,227.000000,24.000000,34.000000,64.000000,0.000000,0.228526,0.319060,0.152958,0.216690,0.063732,251.000000,227.000000,24.000000,34.000000,64.000000,0.000000:
0000
0000
0000
0000
,
0000
0000
0000
0000
,
0000
0000
0000
0000
,
1000
0100
0100
0001
,
0100
1000
1000
0010
,
0001
0100
0010
MMMM
,
1000
0000
0000
0001
1000
0000
0000
0001
1000
0000
0000
0001
0000
0000
0000
0000
,
1000
0000
0100
0000
1000
0000
0001
0010
,
0100
0000
0001
0000
0100
0000
0010
1000
,
0100
0000
1000
0000
0100
0000
0001
1000
,
0100
0000
0000
0010
0100
0000
0000
0010
0100
0000
0000
0010
0000
0000
0000
0000
,
0220
0000
0000
0000
,
0000
0000
0000
0000
0000
0000
0330
0000
MMMM
0000
0001
0000
0000
0001
0000
0000
,
0002
0000
0000
2000
0000
0000
0000
0000
,
0000
0000
0000
0000
0000
0000
3003
0000
0000
0000
0100
0000
0000
0100
0000
0000
,
0100
0000
0000
2000
0000
0000
0002
0000
0000
0000
0000
0000
0000
0000
0000
0000
,
0000
0000
0000
0000
0000
0000
3003
0000
MMMM
0000
0100
0000
0000
0100
0000
0000
,
0200
0000
0000
0020
0000
0000
0000
0000
,
0000
0000
0000
0000
0000
0000
0330
0000
0000
0000
1000
0000
0000
1000
0000
0000
,
2002
0000
0000
0000
,
0000
0000
0000
0000
0000
0000
3003
0000
MMMM
0000
0010
0000
0000
0010
0000
0000
,
0020
0000
0000
0200
0000
0000
0000
0000
,
0000
0000
0000
0000
0000
0000
0330
0000
0000
0000
0001
0000
0000
0001
0000
0000
,
0001
0000
0000
0200
0000
0000
0020
0000
0000
0000
0000
0000
0000
0000
0000
0000
,
0000
0000
0000
0000
0000
0000
0330
0000
MMMM
0000
0001
0000
0000
0001
0000
0000
,
0002
0000
0000
2000
0000
0000
0000
0000
,
0000
3000
1000
1003
,
1001
0000
1000
0000
0100
1000
0001
0000
,
0010
0000
0010
0000
1000
0100
0100
0000
,
1000
0000
0001
0000
0010
0001
0010
0000
,
0100
0000
0001
0010
0100
0010
MMMM
0000
,
0200
0000
1300
0000
0010
0001
1000
0000
,
0010
0000
0100
0000
0001
0010
0100
0000
,
0200
0000
1300
0000
0001
1000
0100
0000
,
0001
0000
0000
0100
0001
0000
0000
0100
0001
0000
0000
0100
0001
0000
0000
0000
,
0101
0000
1000
1000
0100
0000
MMMM
0000
,
1100
0000
0001
0001
0100
0000
MMMM
0000
,
2000
0000
3001
0000
0010
0000
0100
1000
,
0001
0020
0100
0130
,
1000
0100
1000
0100
0001
0010
0001
0010
,
0100
0000
0000
0000
2000
0010
3010
0000
,
0001
1000
0010
0010
,
0110
0000
0000
0000
1000
1000
0001
0000
,
1010
0000
0101
0000
1000
0000
0010
0001
,
0200
0010
0310
0000
,
0011
0000
1100
0000
0010
0000
0100
1000
,
0002
1000
1003
0000
,
0110
0000
1001
0000
0001
0100
0010
1000
,
0000
MMMM
1000
1010
,
1010
0000
0000
0000
MMMM
0000
0000
0000
0001
0000
0000
0001
0000
0000
0002
0000
,
0000
0000
0000
2000
0000
0000
3003
0000
,
1100
0000
0011
0000
0100
0000
1000
0010
,
0002
1000
1003
0000
,
1010
0000
0101
0000
1000
0000
0001
0100
,
0020
0100
0130
0000
,
1001
0000
0110
0000
0010
0001
1000
0100
,
0000
MMMM
0100
1100
,
1100
0000
0000
0000
MMMM
0000
0000
0000
0010
0000
0000
0010
0000
0000
0020
0000
,
0000
0000
0000
0200
0000
0000
0330
0000
,
2000
0000
0000
0000
0001
0001
0001
0001
,
0000
0000
3000
MMMM
,
0002
0000
0000
0000
1000
1000
1000
1000
,
0000
0000
0003
MMMM
,
2000
0000
0000
0000
0001
0001
0001
0001
,
3000
MMMM
1000
1010
,
1010
0000
MMMM
0000
0000
0000
0000
0002
,
0000
0000
0000
2000
0000
0000
3003
0000
;

//---------------dance-single - ----------------
#NOTES:
     dance-single:
     :
     Hard:
     11:
     0.393320,0.510497,0.191197,0.172078,0.191197,432.000000,402.000000,30.000000,27.000000,0.000000,0.000000,0.393320,0.510497,0.191197,0.172078,0.191197,432.000000,402.000000,30.000000,27.000000,0.000000,0.000000:
// measure 0
0000
0000
0000
0000
,  // measure 1
0000
0000
0000
0000
,  // measure 2
0000
0000
0000
0000
,  // measure 3
0010
1000
0100
1000
1000
0001
0010
0000
,  // measure 4
0100
0001
0010
0100
0001
1000
0010
0000
,  // measure 5
0100
0001
0010
0100
1000
0001
0010
0010
,  // measure 6
1000
0000
0000
0001
1000
0000
0000
0001
1000
0000
0000
0001
0000
0000
1000
0001
,  // measure 7
1000
0100
0010
0010
0001
0100
0020
0000
,  // measure 8
1030
1000
0001
1000
0100
0010
0200
0000
,  // measure 9
0301
0010
1000
0001
0001
0100
0010
1000
,  // measure 10
0100
0000
0000
0010
0100
0000
0000
0010
0100
0000
0000
0010
0100
0000
0000
0000
,  // measure 11
1000
0000
0100
0000
0001
0000
0000
1000
0000
0000
1100
0000
0000
0000
0000
0000
,  // measure 12
0100
0000
0001
0000
1000
0000
0000
0001
0000
0000
0101
0000
0000
0000
0000
0000
,  // measure 13
1000
0000
1000
0000
0010
0000
0000
0100
0000
0000
1001
0000
0000
0000
0000
0000
,  // measure 14
0001
0000
0010
0000
0010
0000
0000
1000
0000
0000
0110
0000
0000
0000
0000
0000
,  // measure 15
1000
0000
0001
0000
1000
0000
0000
0100
0000
0000
1010
0000
0000
0000
0000
0000
,  // measure 16
0001
0000
1000
0000
0001
0000
0000
0010
0000
0000
0101
0000
0000
0000
0000
0000
,  // measure 17
0010
0000
1000
0000
0001
0000
0000
1000
0000
0000
1001
0000
0000
0000
0000
0000
,  // measure 18
0010
0000
0001
0000
1000
0000
0000
0100
0000
0000
0110
0000
0000
0000
0000
0000
,  // measure 19
0100
0000
0001
0000
0010
0000
0000
0100
0000
0000
0101
0000
0000
0000
0000
0000
,  // measure 20
0001
0000
0010
0000
0100
0000
0000
0010
0000
0000
0011
0000
0000
0000
0000
0000
,  // measure 21
0100
0000
0100
0000
1000
0000
0000
0001
0000
0000
0110
0000
0000
0000
0000
0000
,  // measure 22
0010
0000
1000
0000
1000
0000
0000
0100
0000
0000
1001
0000
0000
0000
0000
0000
,  // measure 23
0100
0000
0010
0000
0100
0000
0000
0001
0000
0000
1100
0000
0000
0000
0000
0000
,  // measure 24
0010
0000
0100
0000
0010
0000
0000
1000
0000
0000
0011
0000
0000
0000
0000
0000
,  // measure 25
1000
0000
0100
0000
0010
0000
0000
0100
0000
0000
0110
0000
0000
0000
0000
0000
,  // measure 26
0000
0000
0010
1000
0000
0000
0000
0000
0010
1000
0000
0000
0000
0000
0010
1000
,  // measure 27
0001
0010
0010
1000
0001
0100
2000
0000
,  // measure 28
3010
0010
0001
0100
0010
1000
2000
0000
,  // measure 29
3001
0010
0001
1000
0100
0010
0200
0000
,  // measure 30
0301
0000
0010
0000
1000
0000
0100
0000
0010
0000
0100
0000
0100
0000
0001
0010
,  // measure 31
0001
0100
0100
0100
0001
0010
0200
0000
,  // measure 32
0310
0001
0010
0100
1000
0100
0020
0000
,  // measure 33
0031
1000
0010
1000
0100
0001
0010
0100
,  // measure 34
1000
0000
0000
0100
1000
0000
0000
0100
1000
0000
0000
0100
1000
0000
0000
0000
,  // measure 35
1001
0000
0000
0000
0001
0000
0100
0000
0001
0100
0000
0000
0000
0000
0000
0000
,  // measure 36
1000
0001
0000
0000
1001
0000
0100
0000
1000
0001
0000
0000
0000
0000
0000
0000
,  // measure 37
0100
0001
0100
0001
0100
0001
0000
1000
0000
0000
1000
0100
0010
0001
0100
0010
,  // measure 38
1000
0000
0001
1000
0000
0001
2000
0000
0000
0000
0000
0000
3000
0000
0000
0010
,  // measure 39
1000
0010
1000
0010
1000
0010
1000
0010
1000
0001
1000
0001
1000
0001
1000
0001
,  // measure 40
1000
0001
0000
0000
0000
0000
0000
0000
0000
0101
0000
0100
0000
0010
2000
0000
,  // measure 41
0000
0000
0010
0000
0010
0000
3001
0000
0100
0001
0000
1000
0100
0000
0000
0100
,  // measure 42
0010
0001
1000
0010
0000
0001
0010
0000
0100
0000
0000
0000
0000
0000
0000
0000
,  // measure 43
1100
0000
0101
0000
1000
0100
0010
0002
,  // measure 44
0000
1000
1000
1003
0100
0010
0001
0100
,  // measure 45
1001
0000
0110
0000
0001
1000
0100
0020
,  // measure 46
0000
0100
0100
0130
1000
0001
0100
0001
,  // measure 47
0011
0000
1010
0000
0100
0010
1000
0002
,  // measure 48
0000
1000
1000
1003
0100
0010
0002
1000
,  // measure 49
0100
1000
0103
0000
0010
0001
0100
0010
,  // measure 50
2000
0010
3100
0001
0020
0001
0130
0010
,  // measure 51
0101
0000
0011
0000
0100
0001
1000
0020
,  // measure 52
0000
0100
0100
0130
0001
1000
0010
0001
,  // measure 53
0110
0000
1001
0000
0010
0100
0001
2000
,  // measure 54
0000
0001
0001
3001
0100
0010
0001
0010
,  // measure 55
1010
0000
1100
0000
0001
1000
0100
0020
,  // measure 56
0000
0100
0100
0130
0001
1000
0020
0100
,  // measure 57
0001
0100
0031
0000
1000
0010
0001
1000
,  // measure 58
0200
1000
0301
0010
2000
0010
3001
1000
,  // measure 59
0200
0000
0010
0000
0001
0010
0001
0010
,  // measure 60
0000
0000
0000
0300
,  // measure 61
2000
0000
0001
0000
0100
0001
0100
0001
,  // measure 62
0000
0000
0000
3000
,  // measure 63
0020
0000
1000
0000
0001
1000
0001
1000
,  // measure 64
0000
0000
0000
0000
1030
0010
0002
1000
,  // measure 65
0100
1000
0103
0000
0000
0000
0001
0002
,  // measure 66
0000
0000
0000
2000
0000
0000
3003
0000
;
