#VERSION:0.83;
#TITLE:Taokaka World;
#SUBTITLE:;
#ARTIST:BlazBlue;
#TITLETRANSLIT:;
#SUBTITLETRANSLIT:;
#ARTISTTRANSLIT:;
#GENRE:;
#ORIGIN:;
#CREDIT:;
#BANNER:Taokaka World.png;
#BACKGROUND:Taokaka World-bg.png;
#PREVIEWVID:;
#JACKET:Taokaka World-jacket.png;
#CDIMAGE:;
#DISCIMAGE:;
#LYRICSPATH:;
#CDTITLE:cdtitle.png;
#MUSIC:Taokaka World.ogg;
#OFFSET:0.700000;
#SAMPLESTART:15.625000;
#SAMPLELENGTH:15.000000;
#SELECTABLE:YES;
#DISPLAYBPM:147.000000:294.000000;
#BPMS:0.000=147.010,
36.000=294.020,
39.000=147.010,
40.000=294.020,
173.000=147.010,
212.000=294.020,
399.000=147.010,
400.000=294.020,
531.000=147.010,
532.000=294.020;
#STOPS:36.000=0.204,
37.000=0.204,
38.000=0.102,
38.500=0.102,
168.000=0.204,
169.000=0.204,
170.000=0.102,
170.500=0.102,
211.000=0.204,
211.500=0.204,
396.000=0.204,
397.000=0.204,
398.000=0.102,
398.500=0.102,
528.000=0.204,
529.000=0.102,
529.500=0.102,
530.000=0.102,
530.500=0.102;
#DELAYS:;
#WARPS:;
#TIMESIGNATURES:0.000=4=4;
#TICKCOUNTS:0.000=4;
#COMBOS:0.000=1;
#SPEEDS:0.000=1.000=0.000=0;
#SCROLLS:0.000=1.000;
#FAKES:;
#LABELS:0.000=Song Start;
#BGCHANGES:;
#KEYSOUNDS:;
#ATTACKS:
;

//---------------dance-single - ----------------
#NOTEDATA:;
#CHARTNAME:;
#STEPSTYPE:dance-single;
#DESCRIPTION:;
#CHARTSTYLE:;
#DIFFICULTY:Hard;
#METER:16;
#RADARVALUES:0.660449,0.954919,0.494128,0.764883,0.003384,683.000000,610.000000,73.000000,113.000000,0.000000,0.000000,0.000000,0.000000,0.000000,0.660449,0.954919,0.494128,0.764883,0.003384,683.000000,610.000000,73.000000,113.000000,0.000000,0.000000,0.000000,0.000000,0.000000;
#CREDIT:kater15;
#DISPLAYBPM:147.000000:294.000000;
#NOTES:
// measure 0
0000
0000
0000
0000
,  // measure 1
0000
0000
0000
0000
,  // measure 2
0000
0000
0000
0000
,  // measure 3
0000
0000
0000
0000
,  // measure 4
0000
0000
0000
0000
,  // measure 5
0020
0000
0000
0000
,  // measure 6
0200
0000
0030
0000
,  // measure 7
2000
0300
0020
3000
,  // measure 8
0002
0030
0000
0003
,  // measure 9
1100
0000
0101
0000
0001
0100
1000
0000
,  // measure 10
0100
0100
0010
0000
,  // measure 11
0010
0001
0100
0010
,  // measure 12
1000
0000
0000
0000
0100
0000
0010
0100
,  // measure 13
0010
0000
0000
0000
0001
0000
0100
1000
,  // measure 14
0010
0011
1010
0200
,  // measure 15
0000
0000
0310
0001
1000
0000
0100
0010
,  // measure 16
1000
0110
0001
2000
,  // measure 17
0000
0000
0020
0000
0030
0000
3001
0010
,  // measure 18
0100
1100
0010
0202
,  // measure 19
0303
0010
1000
0210
,  // measure 20
0000
0001
0010
0301
,  // measure 21
0000
0000
1000
0010
0011
0000
0000
1000
,  // measure 22
0100
0000
0010
0100
0010
0000
0001
0000
,  // measure 23
0100
0110
1000
0010
,  // measure 24
0100
0001
0010
0001
0100
0010
0100
0010
,  // measure 25
1000
0100
1000
0010
1000
0010
0100
0001
,  // measure 26
0010
1100
0101
0000
,  // measure 27
0010
1000
0101
0010
,  // measure 28
0200
0000
0000
0000
0301
0000
0010
1000
,  // measure 29
0002
0000
0003
0000
1100
0000
0010
0001
,  // measure 30
2000
0100
0010
0010
,  // measure 31
3000
0000
0010
0001
0100
0000
0100
0001
,  // measure 32
0011
0100
0110
2000
,  // measure 33
0000
0000
0002
0000
3003
0000
0100
1000
,  // measure 34
1010
0100
0002
2000
,  // measure 35
3003
0100
0100
2020
,  // measure 36
3030
0002
1000
1003
,  // measure 37
0000
0000
0100
0010
0100
0000
0001
1000
,  // measure 38
0001
0000
0010
0001
0100
0000
0010
0000
,  // measure 39
0001
0200
0010
0310
,  // measure 40
1000
0100
0001
0100
1000
0001
1000
0001
,  // measure 41
0010
1000
0010
0001
0010
0001
1000
0100
,  // measure 42
0011
0000
1010
0000
0001
1000
0001
0000
,  // measure 43
0000
2000
0000
0001
,  // measure 44
0000
0010
0000
3001
,  // measure 45
0000
0000
0010
0100
0010
0000
0200
0000
0000
0000
0000
0000
0001
0000
0000
0000
,  // measure 46
0000
0001
0000
1300
,  // measure 47
1000
0002
0000
0010
,  // measure 48
0000
1000
0000
0013
,  // measure 49
0000
0200
0000
0001
,  // measure 50
0000
0000
0310
0000
0001
0010
1000
0010
,  // measure 51
0001
1000
0100
0000
0010
1000
0100
0010
,  // measure 52
0001
0100
0010
0000
0100
0000
0010
0010
,  // measure 53
0022
0000
0033
0000
0101
0000
0010
1000
,  // measure 54
0001
0010
0001
0000
1100
0000
1001
0000
,  // measure 55
0020
0000
0000
0000
0130
0000
1000
0010
,  // measure 56
1000
0100
0001
0000
0011
0000
1100
0000
,  // measure 57
2000
0000
3001
0010
,  // measure 58
0011
2000
3200
0320
,  // measure 59
0002
0033
2200
3300
,  // measure 60
0202
0000
0303
0000
1000
0010
1000
0100
,  // measure 61
0002
0000
0003
0000
0100
0001
0010
0100
,  // measure 62
1000
0000
0010
0001
0000
1000
0001
0000
,  // measure 63
0200
0000
0002
0300
,  // measure 64
1003
0000
0100
0001
0000
1000
0100
0000
,  // measure 65
0012
0000
2003
0000
,  // measure 66
3010
0000
0001
0101
0000
1000
1100
0000
,  // measure 67
0101
0002
1000
0103
,  // measure 68
2000
0010
0200
3300
,  // measure 69
0110
0002
1000
0103
,  // measure 70
0020
1000
2000
3030
,  // measure 71
0101
0020
1000
0130
,  // measure 72
0020
0001
0200
0330
,  // measure 73
1000
0010
1000
0100
0001
0010
0001
0000
,  // measure 74
0100
0010
1000
0100
1000
0001
0010
0000
,  // measure 75
0011
0020
0100
0031
,  // measure 76
0200
1000
0002
0303
,  // measure 77
1001
0020
0100
0031
,  // measure 78
2000
0100
0200
3300
,  // measure 79
0011
2000
0100
3001
,  // measure 80
2000
0010
0002
3003
,  // measure 81
1000
0100
1000
0010
1000
0010
0100
0010
,  // measure 82
0001
0100
1000
0010
0100
0010
0001
0100
,  // measure 83
1100
0200
0010
1300
,  // measure 84
0020
0001
2000
3030
,  // measure 85
1001
0200
0010
1300
,  // measure 86
0002
0010
0020
0033
,  // measure 87
1100
0002
0010
1003
,  // measure 88
0002
0100
2000
3003
,  // measure 89
0010
0001
0010
1000
0100
0001
0100
0000
,  // measure 90
1000
0001
0010
1000
0010
0100
0001
0000
,  // measure 91
0101
0002
1000
0103
,  // measure 92
2000
0010
0200
3300
,  // measure 93
0110
0002
1000
0103
,  // measure 94
0020
1000
2000
3030
,  // measure 95
0101
0020
1000
0130
,  // measure 96
0020
0001
0200
0330
,  // measure 97
0010
1000
0010
0001
0010
0001
1000
0001
,  // measure 98
0100
1000
0010
0001
1000
0001
0100
1000
,  // measure 99
0101
0000
1100
0000
0001
1000
0001
0000
,  // measure 100
0001
0001
1000
0000
,  // measure 101
1000
0010
0001
1000
,  // measure 102
0100
0000
0000
0000
0001
0000
1000
0001
,  // measure 103
1000
0000
0000
0000
0010
0000
0001
0100
,  // measure 104
1000
1010
1100
0002
,  // measure 105
0000
0000
1003
0010
0100
0000
0001
1000
,  // measure 106
0100
1001
0010
0200
,  // measure 107
0000
0000
2000
0000
3000
0000
0310
1000
,  // measure 108
0001
0101
1000
0022
,  // measure 109
0033
1000
0100
1002
,  // measure 110
0000
0010
1000
0013
,  // measure 111
0000
0000
0100
1000
1010
0000
0000
0100
,  // measure 112
0001
0000
1000
0001
1000
0000
0010
0000
,  // measure 113
0001
1001
0100
1000
,  // measure 114
0001
0010
1000
0010
0001
1000
0001
1000
,  // measure 115
0100
0001
0100
1000
0100
1000
0001
0010
,  // measure 116
1000
0101
0011
0000
,  // measure 117
1000
0100
0011
1000
,  // measure 118
0002
0000
0000
0000
0013
0000
1000
0100
,  // measure 119
0020
0000
0030
0000
0101
0000
1000
0010
,  // measure 120
0200
0001
1000
1000
,  // measure 121
0300
0000
1000
0010
0001
0000
0001
0010
,  // measure 122
1010
0001
1001
0200
,  // measure 123
0000
0000
0020
0000
0330
0000
0001
0100
,  // measure 124
1100
0001
0020
0200
,  // measure 125
0330
0001
0001
2200
,  // measure 126
3300
0020
0100
0130
,  // measure 127
0000
0000
0001
1000
0001
0000
0010
0100
,  // measure 128
0010
0000
1000
0010
0001
0000
1000
0000
,  // measure 129
0010
0002
1000
1003
,  // measure 130
0100
0001
0010
0001
0100
0010
0100
0010
,  // measure 131
1000
0100
1000
0010
1000
0010
0100
0001
,  // measure 132
0110
0000
0010
0001
0100
0001
1000
0000
,  // measure 133
0202
0000
0303
0000
1100
0000
0001
0010
,  // measure 134
0100
0001
0100
0000
1010
0000
0110
0000
,  // measure 135
0002
0000
0000
0000
1003
0000
0010
0001
,  // measure 136
0010
1000
0100
0000
0101
0000
1010
0000
,  // measure 137
0020
0000
0130
0001
,  // measure 138
0101
0020
2030
3002
,  // measure 139
0200
0303
2020
3030
,  // measure 140
2200
0000
3300
0000
0010
0001
0010
1000
,  // measure 141
0200
0000
0300
0000
1000
0100
0001
1000
,  // measure 142
0010
0000
0001
0100
0000
0010
0100
0000
,  // measure 143
2000
0000
0200
3000
,  // measure 144
0310
0000
1000
0100
0000
0010
1000
0000
,  // measure 145
0001
0100
0001
0010
1000
0100
1000
0100
,  // measure 146
0001
0010
0100
1000
0100
0010
1000
0010
,  // measure 147
2002
0000
0000
0000
,  // measure 148
0000
0000
0000
0000
,  // measure 149
0000
0000
0000
0000
,  // measure 150
0000
0000
0000
0000
,  // measure 151
0000
0000
0000
0000
,  // measure 152
0000
0000
0000
0000
,  // measure 153
0000
0000
0000
0000
,  // measure 154
0000
0000
0000
0000
,  // measure 155
0000
0000
0000
0000
,  // measure 156
0000
0000
0000
3003
;

//---------------dance-single - ----------------
#NOTEDATA:;
#CHARTNAME:;
#STEPSTYPE:dance-single;
#DESCRIPTION:;
#CHARTSTYLE:;
#DIFFICULTY:Beginner;
#METER:6;
#RADARVALUES:0.207901,0.318306,0.108302,0.115071,0.000000,215.000000,199.000000,16.000000,17.000000,0.000000,0.000000,0.000000,0.000000,0.000000,0.207901,0.318306,0.108302,0.115071,0.000000,215.000000,199.000000,16.000000,17.000000,0.000000,0.000000,0.000000,0.000000,0.000000;
#CREDIT:kater15;
#DISPLAYBPM:147.000000:294.000000;
#NOTES:
0000
0000
0000
0000
,
0000
0000
0000
0000
,
0000
0000
0000
0000
,
0000
0000
0000
0000
,
0000
0000
0000
0000
,
0010
0000
0000
0000
,
0010
0000
0000
0000
,
0100
0000
0100
0000
,
1000
0000
0000
0000
,
0002
0000
0000
0003
,
0010
0000
0110
0000
,
0000
0000
1000
0000
,
0010
0000
0000
0000
,
1001
0000
0000
0000
,
0010
0000
1000
1000
,
0000
0000
0010
0000
,
0001
0000
0100
0100
,
0000
0110
0000
0000
,
0010
0000
0000
0000
,
0100
0000
0000
0000
,
1000
0000
0000
0000
,
0010
0000
0000
0000
,
0001
0000
0001
0000
,
1000
0000
1000
0000
,
0010
0000
0100
0000
,
0010
0000
0100
0000
,
0001
0000
1001
0000
,
0000
0000
0100
0000
,
1000
0000
0000
0000
,
0110
0000
0000
0000
,
1000
0000
0100
0100
,
0000
0000
1000
0000
,
0010
0000
0001
0001
,
0000
1001
0000
0000
,
1000
0000
0000
0000
,
0001
0000
0000
0000
,
0100
0000
0000
0000
,
1000
0000
0000
0000
,
0010
0000
0010
0000
,
0100
0000
0100
0000
,
1000
0000
0001
0000
,
1000
0000
0001
0000
,
0200
0000
0000
0300
,
0000
0100
0000
0000
,
0000
0000
0000
0000
,
0000
0001
0000
0000
,
0000
0000
0000
0000
,
0000
1000
0000
1000
,
0000
1000
0000
0000
,
0000
0001
0000
0001
,
0000
2002
0000
3003
,
0000
0220
0000
0330
,
0000
0100
0000
0100
,
0100
0000
0000
0000
,
0001
0000
0001
0000
,
1000
0000
0000
0000
,
0001
0000
0001
0000
,
0010
0000
0000
0000
,
0010
0000
0001
0000
,
0100
0000
0000
0000
,
1001
0000
0000
0000
,
0010
0000
0000
0000
,
0001
0000
0000
0000
,
0100
0000
0000
0000
,
0001
0000
0000
0000
,
1000
0000
0000
0000
,
0010
0000
0000
0000
,
0000
0000
0100
0000
,
0010
0000
0100
0000
,
0000
0000
0001
0000
,
0010
0000
0001
0000
,
0000
0000
1000
0000
,
0010
0000
1000
0000
,
0002
0000
0003
0000
,
0002
0000
0003
0000
,
0000
0000
1000
0000
,
0100
0000
1000
0000
,
0000
0000
0001
0000
,
0100
0000
0001
0000
,
0000
0000
0010
0000
,
0100
0000
0010
0000
,
2000
0000
3000
0000
,
2000
0000
3000
0000
,
0000
0000
1000
0000
,
0001
0000
1000
0000
,
0000
0000
0100
0000
,
0001
0000
0100
0000
,
0000
0000
0010
0000
,
0001
0000
0010
0000
,
0200
0000
0300
0000
,
0200
0000
0300
0000
,
0000
0000
0010
0000
,
1000
0000
0010
0000
,
0000
0000
0100
0000
,
1000
0000
0100
0000
,
0000
0000
0001
0000
,
1000
0000
0001
0000
,
0020
0000
0030
0000
,
0020
0000
0030
0000
,
2000
0000
0000
3000
,
1000
0000
1001
0000
,
0000
0000
0100
0000
,
1000
0000
0000
0000
,
0110
0000
0000
0000
,
1000
0000
0100
0100
,
0000
0000
1000
0000
,
0010
0000
0001
0001
,
0000
1001
0000
0000
,
1000
0000
0000
0000
,
0001
0000
0000
0000
,
0100
0000
0000
0000
,
1000
0000
0000
0000
,
0010
0000
0010
0000
,
0100
0000
0100
0000
,
1000
0000
0001
0000
,
1000
0000
0001
0000
,
0010
0000
0110
0000
,
0000
0000
0001
0000
,
0100
0000
0000
0000
,
1001
0000
0000
0000
,
0100
0000
0001
0001
,
0000
0000
0100
0000
,
1000
0000
0010
0010
,
0000
0110
0000
0000
,
0100
0000
0000
0000
,
0010
0000
0000
0000
,
0001
0000
0000
0000
,
0100
0000
0000
0000
,
1000
0000
1000
0000
,
0001
0000
0001
0000
,
0100
0000
0010
0000
,
0100
0000
0010
0000
,
0002
0000
0000
0003
,
0001
0000
0000
0000
,
0010
0000
0010
0000
,
0100
0000
0000
0000
,
0010
0000
0010
0000
,
1000
0000
0000
0000
,
1000
0000
0010
0000
,
0001
0000
0000
0000
,
0110
0000
0000
0000
,
1000
0000
0000
0000
,
0010
0000
0000
0000
,
0001
0000
0000
0000
,
0010
0000
0000
0000
,
0100
0000
0000
0000
,
1000
0000
0000
0000
,
0020
0000
0000
0000
,
0000
0000
0000
0000
,
0000
0000
0000
0000
,
0000
0000
0000
0000
,
0000
0000
0000
0000
,
0000
0000
0000
0000
,
0000
0000
0000
0000
,
0000
0000
0000
0000
,
0000
0000
0000
0000
,
0000
0000
0000
0030
;

//---------------dance-single - ----------------
#NOTEDATA:;
#CHARTNAME:;
#STEPSTYPE:dance-single;
#DESCRIPTION:;
#CHARTSTYLE:;
#DIFFICULTY:Easy;
#METER:7;
#RADARVALUES:0.284293,0.583562,0.169222,0.250448,0.000000,294.000000,269.000000,25.000000,37.000000,0.000000,0.000000,0.000000,0.000000,0.000000,0.284293,0.583562,0.169222,0.250448,0.000000,294.000000,269.000000,25.000000,37.000000,0.000000,0.000000,0.000000,0.000000,0.000000;
#CREDIT:kater15;
#DISPLAYBPM:147.000000:294.000000;
#NOTES:
0000
0000
0000
0000
,
0000
0000
0000
0000
,
0000
0000
0000
0000
,
0000
0000
0000
0000
,
0000
0000
0000
0000
,
1001
0000
0000
0000
,
0110
0000
0000
0000
,
0001
0000
1000
0000
,
0001
0000
0000
0000
,
0010
0000
0010
0000
0010
0010
0010
0000
,
0010
0000
0020
0000
,
0030
0000
0100
0000
,
1001
0000
0000
0000
,
1001
0000
0000
0000
,
0010
0000
0001
0000
,
0010
0000
1000
0000
,
0100
0000
0001
0000
,
0200
0000
0301
0000
,
0110
0000
0000
0000
,
0110
0000
0000
0000
,
1000
0000
0001
0000
,
1000
0000
0001
0000
,
0010
0001
0010
0000
,
0010
1000
0010
0000
,
0100
0000
0100
0000
,
0010
0010
0010
0010
,
1000
0000
2000
0000
,
3000
0000
0001
0000
,
0110
0000
0000
0000
,
0110
0000
0000
0000
,
1000
0000
0010
0000
,
1000
0000
0100
0000
,
0001
0000
0010
0000
,
0002
0000
0013
0000
,
1001
0000
0000
0000
,
1001
0000
0000
0000
,
0100
0000
0010
0000
,
0100
0000
0010
0000
,
1000
0010
1000
0000
,
1000
0100
1000
0000
,
0001
0000
0001
0000
,
1000
1000
1000
1000
,
0001
0000
0001
0000
0001
0001
0002
0000
,
0003
1001
0000
0000
,
0000
0110
0000
0000
,
0000
1001
0000
0000
,
0000
0110
0000
0000
,
0000
2000
3000
0002
,
0003
2000
3000
0020
,
0030
0200
0300
0020
,
0030
1000
1000
0100
,
0010
0100
0100
0001
,
0010
0000
0100
0000
1000
0000
0010
0010
,
0010
0000
0000
0000
,
0001
0000
1000
1000
,
0100
0000
0000
0000
,
0010
0000
0100
0100
,
0001
0000
0000
0000
,
0010
0000
0001
0100
,
1000
0000
0000
0000
,
0001
0000
0010
0100
,
0010
0000
0001
0000
,
0010
0000
0100
0000
,
2000
0000
3000
0000
,
0002
0000
0003
0000
,
0220
0000
0330
0000
,
2002
0000
3003
0000
,
0200
0000
0000
0000
,
0301
0000
0000
0000
,
0200
0000
0000
0000
,
1300
0000
0000
0000
,
0200
0000
0000
0000
,
0301
0000
0000
0000
,
0010
0000
0001
0000
,
0100
0000
1000
0000
,
0020
0000
0000
0000
,
0031
0000
0000
0000
,
0020
0000
0000
0000
,
1030
0000
0000
0000
,
0020
0000
0000
0000
,
0031
0000
0000
0000
,
1000
0000
0001
0000
,
1000
0100
0010
0000
,
2000
0000
0000
0000
,
3100
0000
0000
0000
,
2000
0000
0000
0000
,
3010
0000
0000
0000
,
2000
0000
0000
0000
,
3100
0000
0000
0000
,
0001
0000
0100
0000
,
1000
0000
0010
0000
,
0002
0000
0000
0000
,
0103
0000
0000
0000
,
0002
0000
0000
0000
,
0013
0000
0000
0000
,
0002
0000
0000
0000
,
0103
0000
0000
0000
,
0010
0000
0100
0000
,
0010
1000
0001
0000
,
0100
0000
0100
0000
0100
0100
0100
0000
,
0100
0000
0200
0000
,
0300
0000
0010
0000
,
1001
0000
0000
0000
,
1001
0000
0000
0000
,
0100
0000
1000
0000
,
0100
0000
0001
0000
,
0010
0000
1000
0000
,
0020
0000
1030
0000
,
0110
0000
0000
0000
,
0110
0000
0000
0000
,
0001
0000
1000
0000
,
0001
0000
1000
0000
,
0100
1000
0100
0000
,
0100
0001
0100
0000
,
0010
0000
0010
0000
,
0100
0100
0100
0100
,
0001
0000
0002
0000
,
0003
0000
1000
0000
,
0110
0000
0000
0000
,
0110
0000
0000
0000
,
0001
0000
0100
0000
,
0001
0000
0010
0000
,
1000
0000
0100
0000
,
2000
0000
3100
0000
,
1001
0000
0000
0000
,
1001
0000
0000
0000
,
0010
0000
0100
0000
,
0010
0000
0100
0000
,
0001
0100
0001
0000
,
0001
0010
0001
0000
,
1000
0000
1000
0000
,
0001
0001
0001
0001
,
0100
0000
0100
0100
0100
0100
0100
0000
,
0100
0000
0000
0000
,
1000
0000
0001
0001
,
0010
0000
0000
0000
,
0100
0000
0010
0010
,
1000
0000
0000
0000
,
0100
0000
1000
0010
,
0001
0000
0000
0000
,
1000
0000
0100
0010
,
0100
0000
1000
0000
,
0100
0000
0010
0000
,
0002
0000
0003
0000
,
2000
0000
3000
0000
,
1000
0100
0001
0010
,
1000
0100
0010
0001
,
0220
0000
0000
0000
,
0000
0000
0000
0000
,
0000
0000
0000
0000
,
0000
0000
0000
0000
,
0000
0000
0000
0000
,
0000
0000
0000
0000
,
0000
0000
0000
0000
,
0000
0000
0000
0000
,
0000
0000
0000
0000
,
0000
0000
0000
0330
;

//---------------dance-single - ----------------
#NOTEDATA:;
#CHARTNAME:;
#STEPSTYPE:dance-single;
#DESCRIPTION:;
#CHARTSTYLE:;
#DIFFICULTY:Medium;
#METER:12;
#RADARVALUES:0.467052,0.795766,0.284293,0.148915,0.000000,483.000000,441.000000,42.000000,22.000000,0.000000,0.000000,0.000000,0.000000,0.000000,0.467052,0.795766,0.284293,0.148915,0.000000,483.000000,441.000000,42.000000,22.000000,0.000000,0.000000,0.000000,0.000000,0.000000;
#CREDIT:kater15;
#DISPLAYBPM:147.000000:294.000000;
#NOTES:
// measure 0
0000
0000
0000
0000
,  // measure 1
0000
0000
0000
0000
,  // measure 2
0000
0000
0000
0000
,  // measure 3
0000
0000
0000
0000
,  // measure 4
0000
0000
0000
0000
,  // measure 5
0202
0000
0303
0000
,  // measure 6
2200
0000
3300
0000
,  // measure 7
1001
0000
0010
0000
,  // measure 8
0110
0000
0000
0000
,  // measure 9
1000
0000
0001
0000
1000
0001
1000
0000
,  // measure 10
0010
0001
0100
0000
,  // measure 11
0000
0010
0000
0001
,  // measure 12
0101
0000
0000
0000
0000
0000
0010
0100
,  // measure 13
0010
0000
0000
1000
,  // measure 14
0100
0010
0001
0100
,  // measure 15
0000
0100
1000
0010
,  // measure 16
0001
0100
0010
0001
,  // measure 17
0000
1100
0000
0000
,  // measure 18
0010
0001
1000
0110
,  // measure 19
0000
0001
0001
1000
,  // measure 20
0000
0100
0010
0010
,  // measure 21
0000
2002
3003
0000
,  // measure 22
0100
0010
1000
0100
,  // measure 23
0010
0100
0001
0010
,  // measure 24
0000
0100
0010
0010
,  // measure 25
0000
0001
1000
0001
1000
0001
0000
0000
,  // measure 26
1000
0010
0001
0000
,  // measure 27
0000
1000
0000
0010
,  // measure 28
0011
0000
0000
0000
0000
0000
1000
0001
,  // measure 29
1000
0000
0000
0100
,  // measure 30
0001
1000
0010
0001
,  // measure 31
0000
0001
0100
1000
,  // measure 32
0010
0001
1000
0010
,  // measure 33
0000
0101
0000
0000
,  // measure 34
1000
0010
0100
1001
,  // measure 35
0000
0010
0010
0100
,  // measure 36
0000
0001
1000
1000
,  // measure 37
0000
0220
0330
0000
,  // measure 38
0001
1000
0100
0001
,  // measure 39
1000
0001
0010
1000
,  // measure 40
0000
0001
1000
1000
,  // measure 41
0000
0010
0100
0010
0100
0010
0000
0000
,  // measure 42
1000
0000
0001
0000
1000
0001
1000
0000
,  // measure 43
0000
0002
0000
0100
,  // measure 44
0000
1003
0000
0000
,  // measure 45
0000
0020
0000
0001
,  // measure 46
0000
0130
0000
0000
,  // measure 47
0000
0200
0000
0010
,  // measure 48
0000
0301
0000
0000
,  // measure 49
0000
2000
0000
0001
,  // measure 50
0000
3010
0101
1000
,  // measure 51
0110
0001
1001
0100
,  // measure 52
0011
0000
1000
0100
0010
0001
0100
0010
,  // measure 53
0100
0000
0000
0000
0000
0000
0000
1000
,  // measure 54
0001
0010
0100
1000
,  // measure 55
0010
0000
0000
0000
0000
0000
0000
0001
,  // measure 56
1000
0100
0010
0001
,  // measure 57
0100
0000
0000
0100
,  // measure 58
0010
1000
0100
0010
,  // measure 59
0002
0000
0000
0000
,  // measure 60
2000
0000
3003
0000
,  // measure 61
0110
0000
1000
0100
,  // measure 62
0010
0000
0000
0001
0000
0000
0100
0000
,  // measure 63
0010
0000
0011
0000
,  // measure 64
1000
0000
0000
0001
0000
0000
0010
0000
,  // measure 65
0100
0000
1100
0000
,  // measure 66
0001
0000
0000
1000
0000
0000
0001
0000
,  // measure 67
0011
0000
0001
1000
,  // measure 68
0001
1000
0010
0000
,  // measure 69
0110
0000
1000
0100
,  // measure 70
0010
0001
0100
0000
,  // measure 71
0101
0000
0010
1000
,  // measure 72
0001
0100
0010
0000
,  // measure 73
1000
0100
0010
0001
,  // measure 74
0100
0000
0010
0000
1000
0001
1000
0000
,  // measure 75
1001
0000
0100
0100
,  // measure 76
0001
0010
0001
0000
,  // measure 77
1100
0000
0010
0001
,  // measure 78
0010
0100
1000
0000
,  // measure 79
0011
0000
0100
0100
,  // measure 80
1000
0001
1000
0000
,  // measure 81
1000
0100
1000
0000
0010
1000
0010
0000
,  // measure 82
0100
0010
0100
0000
0001
0100
0001
0000
,  // measure 83
1010
0000
0010
0100
,  // measure 84
0010
0100
1000
0000
,  // measure 85
1001
0000
0100
0001
,  // measure 86
1000
0010
0001
0000
,  // measure 87
0011
0000
1000
0100
,  // measure 88
0010
0001
1000
0000
,  // measure 89
0100
0001
1000
0010
,  // measure 90
0001
0000
1000
0000
0100
0010
0100
0000
,  // measure 91
0110
0000
0001
0001
,  // measure 92
0010
1000
0010
0000
,  // measure 93
0101
0000
1000
0010
,  // measure 94
1000
0001
0100
0000
,  // measure 95
1010
0000
0001
0001
,  // measure 96
0100
0010
0100
0000
,  // measure 97
0100
0001
0100
0000
1000
0100
1000
0000
,  // measure 98
0001
1000
0001
0000
0010
0001
0010
0000
,  // measure 99
1000
0000
0001
0000
1000
0001
1000
0000
,  // measure 100
0100
1000
0010
0000
,  // measure 101
0000
0100
0000
1000
,  // measure 102
1010
0000
0000
0000
0000
0000
0100
0010
,  // measure 103
0100
0000
0000
0001
,  // measure 104
0010
0100
1000
0010
,  // measure 105
0000
0010
0001
0100
,  // measure 106
1000
0010
0100
1000
,  // measure 107
0000
0011
0000
0000
,  // measure 108
0100
1000
0001
0110
,  // measure 109
0000
1000
1000
0001
,  // measure 110
0000
0010
0100
0100
,  // measure 111
0000
2002
3003
0000
,  // measure 112
0010
0100
0001
0010
,  // measure 113
0100
0010
1000
0100
,  // measure 114
0000
0010
0100
0100
,  // measure 115
0000
1000
0001
1000
0001
1000
0000
0000
,  // measure 116
0001
0100
1000
0000
,  // measure 117
0000
0001
0000
0100
,  // measure 118
1100
0000
0000
0000
0000
0000
0001
1000
,  // measure 119
0001
0000
0000
0010
,  // measure 120
1000
0001
0100
1000
,  // measure 121
0000
1000
0010
0001
,  // measure 122
0100
1000
0001
0100
,  // measure 123
0000
1010
0000
0000
,  // measure 124
0001
0100
0010
1001
,  // measure 125
0000
0100
0100
0010
,  // measure 126
0000
1000
0001
0001
,  // measure 127
0000
0220
0330
0000
,  // measure 128
1000
0001
0010
1000
,  // measure 129
0001
1000
0100
0001
,  // measure 130
0000
1000
0001
0001
,  // measure 131
0000
0100
0010
0100
0010
0100
0000
0000
,  // measure 132
1000
0000
0001
0010
0100
1000
0010
0000
,  // measure 133
1000
0000
0000
0000
0000
0000
0000
0010
,  // measure 134
0100
0001
1000
0010
,  // measure 135
0001
0000
0000
0000
0000
0000
0000
0100
,  // measure 136
0010
1000
0001
0100
,  // measure 137
1000
0000
0000
1000
,  // measure 138
0001
0010
1000
0001
,  // measure 139
0200
0000
0000
0000
,  // measure 140
0020
0000
0330
0000
,  // measure 141
1001
0000
0010
1000
,  // measure 142
0001
0000
0000
0100
0000
0000
1000
0000
,  // measure 143
0001
0000
0101
0000
,  // measure 144
0010
0000
0000
0100
0000
0000
0001
0000
,  // measure 145
1000
0100
1000
0000
0001
1000
0001
0000
,  // measure 146
0010
0001
0010
0000
1000
0010
1000
0000
,  // measure 147
2020
0000
0000
0000
,  // measure 148
0000
0000
0000
0000
,  // measure 149
0000
0000
0000
0000
,  // measure 150
0000
0000
0000
0000
,  // measure 151
0000
0000
0000
0000
,  // measure 152
0000
0000
0000
0000
,  // measure 153
0000
0000
0000
0000
,  // measure 154
0000
0000
0000
0000
,  // measure 155
0000
0000
0000
0000
,  // measure 156
0000
0000
0000
3030
;

//---------------dance-single - ----------------
#NOTEDATA:;
#CHARTNAME:;
#STEPSTYPE:dance-single;
#DESCRIPTION:;
#CHARTSTYLE:;
#DIFFICULTY:Challenge;
#METER:18;
#RADARVALUES:0.872218,1.167124,0.920567,0.324906,0.023691,902.000000,766.000000,136.000000,48.000000,0.000000,0.000000,0.000000,0.000000,0.000000,0.872218,1.167124,0.920567,0.324906,0.023691,902.000000,766.000000,136.000000,48.000000,0.000000,0.000000,0.000000,0.000000,0.000000;
#CREDIT:kater15;
#DISPLAYBPM:147.000000:294.000000;
#NOTES:
// measure 0
0000
0000
0000
0000
,  // measure 1
0000
0000
0000
0000
,  // measure 2
0000
0000
0000
0000
,  // measure 3
0000
0000
0000
0000
,  // measure 4
0000
0000
0000
0000
,  // measure 5
0210
0000
0000
0000
,  // measure 6
0002
0000
0300
0000
,  // measure 7
0200
0003
0020
0300
,  // measure 8
2000
0000
0000
3030
,  // measure 9
1100
0000
1001
0000
0011
0110
1100
0000
,  // measure 10
0001
1000
0100
0000
2100
0000
0001
0000
,  // measure 11
3001
0010
1100
0101
,  // measure 12
0010
0001
0100
0000
1001
0000
0100
1000
,  // measure 13
0010
0000
0001
0100
0011
0000
0100
1000
,  // measure 14
0010
0100
0010
1000
0101
0000
2200
0000
,  // measure 15
3300
0000
0010
0001
0010
0001
0100
1000
,  // measure 16
0010
0100
0001
0100
1010
0000
0022
0000
,  // measure 17
0033
0000
2002
0000
3003
0000
0100
0010
,  // measure 18
0100
0001
0010
0100
1010
0000
0110
0000
,  // measure 19
0000
0000
0001
1000
0010
0000
1100
0000
,  // measure 20
0000
0000
0010
0001
0100
0000
0011
0000
,  // measure 21
0000
0000
1000
0010
0110
0000
0000
1000
,  // measure 22
1100
0000
0010
0001
0100
0010
1000
0010
,  // measure 23
0100
0000
0010
0001
0100
0001
0010
0001
,  // measure 24
1000
0000
0010
0100
0010
0001
1000
0010
,  // measure 25
0001
0010
1000
0100
0010
0100
0001
1000
,  // measure 26
0100
0010
1000
0000
1020
0000
0100
0000
,  // measure 27
0130
0001
1010
1100
,  // measure 28
0001
0100
1000
0000
0110
0000
1000
0010
,  // measure 29
0001
0000
0100
1000
0101
0000
1000
0010
,  // measure 30
0001
1000
0001
0010
1100
0000
2020
0000
,  // measure 31
3030
0000
0001
0100
0001
0100
1000
0010
,  // measure 32
0001
1000
0100
1000
0011
0000
0202
0000
,  // measure 33
0303
0000
0220
0000
0330
0000
1000
0001
,  // measure 34
1000
0100
0001
1000
0011
0000
1001
0000
,  // measure 35
0000
0000
0100
0010
0001
0000
1010
0000
,  // measure 36
0000
0000
0001
0100
1000
0000
0101
0000
,  // measure 37
0000
0000
0010
0001
1001
0000
0100
0010
,  // measure 38
1010
0000
0001
0100
1000
0001
0010
0001
,  // measure 39
1000
0000
0001
0100
1000
0100
0001
0100
,  // measure 40
0010
0000
0001
1000
0001
0100
0010
0001
,  // measure 41
0100
0001
0010
1000
0001
1000
0100
1000
,  // measure 42
0011
0000
0110
0000
1010
1001
0101
0000
,  // measure 43
0000
2000
0000
0001
,  // measure 44
0000
0100
0000
3010
,  // measure 45
0000
0000
0100
0010
0100
0000
0002
0000
0000
0000
0000
0000
1000
0000
0000
0000
,  // measure 46
0000
0100
0000
0013
,  // measure 47
0000
0000
0100
1000
0200
0000
0000
0000
0000
0000
0000
0000
0001
0000
0000
0000
,  // measure 48
0000
1000
0000
0010
,  // measure 49
0000
1000
0000
0301
,  // measure 50
0000
0000
0100
0010
0100
0001
0010
0100
,  // measure 51
1000
0000
1000
0010
0100
0001
0010
0100
,  // measure 52
1000
0000
0000
0000
0100
0010
0100
0001
1000
0100
0001
0100
0010
0000
1100
0000
,  // measure 53
0120
0000
0000
0000
0031
0000
1000
0100
,  // measure 54
1000
0010
0101
0000
1000
0100
1100
0000
,  // measure 55
2010
0000
0000
0000
3100
0000
0010
1000
,  // measure 56
0100
0010
0110
0000
0001
1000
1001
0000
,  // measure 57
0102
0000
0013
1000
,  // measure 58
0100
0010
1000
0000
0100
0010
0001
0000
,  // measure 59
2200
0000
3300
0000
1000
0100
0010
0001
,  // measure 60
0010
0000
0000
0000
0001
1000
0001
0010
,  // measure 61
0100
0000
0011
0000
1000
0100
1000
0000
,  // measure 62
0010
0000
0010
0110
0000
1000
1001
0000
,  // measure 63
0010
1100
0101
0011
,  // measure 64
1000
0000
0100
0101
0000
1000
1100
0000
,  // measure 65
0010
0011
1001
0110
,  // measure 66
0010
0000
0001
0101
0000
1000
1100
0000
,  // measure 67
0001
0000
0011
0000
1000
0010
0100
0000
,  // measure 68
1000
0010
0001
0000
0100
0010
1000
0000
,  // measure 69
0100
0000
1100
0000
0010
0001
0100
0000
,  // measure 70
0010
0010
1000
0000
0100
0010
0100
0000
,  // measure 71
1000
0000
1010
0000
0100
0001
0100
0000
,  // measure 72
0010
1000
0100
0000
0100
0001
0010
0000
,  // measure 73
1000
0001
1000
0010
0100
1000
0100
0001
,  // measure 74
0100
0010
0001
1000
0001
0010
0100
1000
,  // measure 75
0100
0000
1100
0000
0010
1000
0100
0000
,  // measure 76
0010
0100
0010
0000
0001
0100
1000
0000
,  // measure 77
0001
0000
1001
0000
0100
1000
1000
0000
,  // measure 78
0010
0010
0001
0000
0100
0010
1000
0000
,  // measure 79
0010
0000
1010
0000
0100
0001
1000
0000
,  // measure 80
0010
0100
1000
0000
0100
0010
1000
0000
,  // measure 81
0100
0001
0100
0010
1000
0100
0010
0001
,  // measure 82
0010
0001
0100
0010
0100
1000
0010
0100
,  // measure 83
0010
0000
1010
0000
0100
1000
0001
0000
,  // measure 84
0100
1000
0010
0000
0001
1000
0100
0000
,  // measure 85
0001
0000
0101
0000
1000
0010
0001
0000
,  // measure 86
1000
1000
0100
0000
0001
1000
0001
0000
,  // measure 87
0100
0000
1100
0000
0001
0010
0001
0000
,  // measure 88
1000
0100
0001
0000
0001
0010
1000
0000
,  // measure 89
0100
0010
0100
1000
0001
0100
0001
0010
,  // measure 90
0001
1000
0010
0100
0010
1000
0001
0100
,  // measure 91
0001
0000
0101
0000
1000
0100
0001
0000
,  // measure 92
1000
0001
1000
0000
0010
0001
0100
0000
,  // measure 93
0010
0000
0110
0000
0001
0100
0100
0000
,  // measure 94
1000
1000
0010
0000
0001
1000
0100
0000
,  // measure 95
1000
0000
1100
0000
0001
0010
0100
0000
,  // measure 96
1000
0001
0100
0000
0001
1000
0100
0000
,  // measure 97
0001
0010
0001
1000
0100
0001
1000
0010
,  // measure 98
1000
0010
0001
1000
0001
0100
1000
0001
,  // measure 99
1010
0000
0110
0000
0011
1001
1100
0000
,  // measure 100
0010
0100
0001
0000
0201
0000
0010
0000
,  // measure 101
0310
1000
0101
0011
,  // measure 102
1000
0010
0001
0000
0110
0000
0001
0100
,  // measure 103
1000
0000
0010
0001
1010
0000
0001
0100
,  // measure 104
1000
0001
1000
0100
0011
0000
0202
0000
,  // measure 105
0303
0000
1000
0010
1000
0010
0001
0100
,  // measure 106
1000
0001
0010
0001
1100
0000
2020
0000
,  // measure 107
3030
0000
0220
0000
0330
0000
0001
1000
,  // measure 108
0001
0010
1000
0001
1100
0000
1001
0000
,  // measure 109
0000
0000
0010
0100
1000
0000
0101
0000
,  // measure 110
0000
0000
1000
0010
0001
0000
1010
0000
,  // measure 111
0000
0000
0100
1000
1001
0000
0000
0100
,  // measure 112
0101
0000
1000
0010
0001
1000
0100
1000
,  // measure 113
0001
0000
1000
0010
0001
0010
1000
0010
,  // measure 114
0100
0000
1000
0001
1000
0010
0100
1000
,  // measure 115
0010
1000
0100
0001
1000
0001
0010
0100
,  // measure 116
0001
1000
0100
0000
2100
0000
0001
0000
,  // measure 117
3001
0010
1100
0101
,  // measure 118
0010
0001
0100
0000
1001
0000
0100
1000
,  // measure 119
0010
0000
0001
0100
0011
0000
0100
1000
,  // measure 120
0010
0100
0010
1000
0101
0000
2200
0000
,  // measure 121
3300
0000
0010
0001
0010
0001
0100
1000
,  // measure 122
0010
0100
0001
0100
1010
0000
0022
0000
,  // measure 123
0033
0000
2002
0000
3003
0000
0100
0010
,  // measure 124
0100
0001
0010
0100
1010
0000
0110
0000
,  // measure 125
0000
0000
0001
1000
0010
0000
1100
0000
,  // measure 126
0000
0000
0010
0001
0100
0000
0011
0000
,  // measure 127
0000
0000
1000
0010
0110
0000
0001
1000
,  // measure 128
1100
0000
0010
0001
0100
0010
1000
0010
,  // measure 129
0100
0000
0010
0001
0100
0001
0010
0001
,  // measure 130
1000
0000
0010
0100
0010
0001
1000
0010
,  // measure 131
0001
0010
1000
0100
0010
0100
0001
0100
,  // measure 132
0110
0000
1100
0101
1010
0101
1001
0000
,  // measure 133
0120
0000
0000
0000
0031
0000
1000
0100
,  // measure 134
1000
0010
0101
0000
1000
0100
1100
0000
,  // measure 135
2010
0000
0000
0000
3100
0000
0010
1000
,  // measure 136
0100
0010
0110
0000
0001
1000
1001
0000
,  // measure 137
0102
0000
0013
1000
,  // measure 138
0100
0010
1000
0000
0100
0010
0001
0000
,  // measure 139
2200
0000
3300
0000
1000
0100
0010
0001
,  // measure 140
0010
0000
0000
0000
0001
1000
0001
0010
,  // measure 141
0100
0000
0011
0000
1000
0100
1000
0000
,  // measure 142
0010
0000
0010
0110
0000
1000
1001
0000
,  // measure 143
0010
1100
0101
0011
,  // measure 144
1000
0000
0100
0101
0000
1000
1100
0000
,  // measure 145
0010
1000
0010
0100
0001
0010
0100
1000
,  // measure 146
0001
0000
0100
0000
0010
0000
0100
0000
0001
0000
1000
0000
0001
0000
1000
0002
,  // measure 147
2000
0000
0000
0000
,  // measure 148
0000
0000
0000
0000
,  // measure 149
0000
0000
0000
0000
,  // measure 150
0000
0000
0000
0000
,  // measure 151
0000
0000
0000
0000
,  // measure 152
0000
0000
0000
0000
,  // measure 153
0000
0000
0000
0000
,  // measure 154
0000
0000
0000
0000
,  // measure 155
0000
0000
0000
0000
,  // measure 156
0000
0000
0000
3003
;
