#TITLE:Tao Is Taokaka;
#SUBTITLE:;
#ARTIST:3R2;
#TITLETRANSLIT:;
#SUBTITLETRANSLIT:;
#ARTISTTRANSLIT:;
#GENRE:;
#CREDIT:;
#BANNER:Tao Is Taokaka.png;
#BACKGROUND:Tao Is Taokaka-bg.png;
#LYRICSPATH:;
#CDTITLE:cdtitle.png;
#MUSIC:Tao Is Taokaka.ogg;
#OFFSET:-0.250000;
#SAMPLESTART:30.483999;
#SAMPLELENGTH:15.000000;
#SELECTABLE:YES;
#DISPLAYBPM:127.000000:254.000000;
#BPMS:0.000000=127.010010
,48.000000=254.020020
;
#STOPS:
;
#BGCHANGES:;
#KEYSOUNDS:;
#ATTACKS:;

//---------------dance-single - ----------------
#NOTES:
     dance-single:
     :
     Easy:
     5:
     0.173570,0.295519,0.029044,0.193624,0.000000,251.000000,245.000000,6.000000,40.000000,0.000000,0.000000,0.173570,0.295519,0.029044,0.193624,0.000000,251.000000,245.000000,6.000000,40.000000,0.000000,0.000000:
0000
0000
0000
0000
,
0000
0000
0000
0000
,
0000
0000
0000
0000
,
0000
0000
0000
0000
,
0000
0000
0000
0000
,
0000
0000
0000
0000
,
2000
0000
0000
3000
,
0200
0000
0000
0300
,
0020
0000
0000
0030
,
0002
0000
0000
0003
,
2002
0000
0000
0000
,
0000
0000
0000
3003
,
1000
0000
0000
0000
,
0001
0000
0000
0000
,
1000
0000
0100
0000
,
0010
0000
0001
0000
,
0100
0000
0000
0000
,
0010
0000
0000
0000
,
1000
0000
0100
0000
,
0020
0000
0030
0000
,
1000
0000
0001
0000
,
0000
0000
0010
0000
,
2000
0000
0000
0000
,
3001
0000
0000
0000
,
0100
0000
0001
0001
,
0000
0000
0000
0000
,
1000
0000
0100
0100
,
0000
0010
0000
0000
,
1000
0000
0000
0100
,
0000
0000
0000
1000
,
0000
0000
0000
0001
,
0000
0100
0000
0000
,
0010
0000
1000
0000
,
0100
0000
0000
0001
,
0000
1000
0000
0001
,
0000
0010
0000
0000
,
0100
0000
0010
0000
,
0000
0000
1000
0000
,
0200
0000
0000
0000
,
0310
0000
0000
0000
,
0001
0000
0010
0010
,
0000
0000
0000
0000
,
0100
0000
0001
0001
,
0000
1000
0000
0000
,
0100
0000
0000
0001
,
0000
0000
0000
0100
,
0000
0000
0000
0010
,
0000
0001
0000
0000
,
1000
0000
0100
0000
,
0001
0000
0000
0010
,
0000
0100
0000
0010
,
0000
1000
0000
0000
,
2000
0000
0000
0000
,
0100
0000
0000
0000
,
0100
0000
0000
0000
,
3100
0000
0000
0000
,
0002
0000
0000
0000
,
0010
0000
0000
0000
,
0010
0000
0000
0000
,
0013
0000
0000
0000
,
2000
0000
0000
0000
,
0001
0000
0000
0000
,
0001
0000
0000
0000
,
3001
0000
0000
0000
,
0002
0000
0000
0000
,
0003
0000
0000
0000
,
2000
0000
0000
0000
,
3000
0000
0000
0000
,
0020
0000
0000
0000
,
0030
0000
0000
0000
,
0200
0000
0000
0000
,
0001
0000
0301
0000
,
0001
0000
0000
0000
,
1000
0000
0100
0000
,
0001
0000
0000
0000
,
1000
0000
0010
0000
,
0001
0000
0000
0000
,
0010
0000
0100
0000
,
1000
0000
0000
0000
,
0001
0000
0000
0000
,
1000
0000
0000
0000
,
0020
0000
0030
0000
,
0200
0000
0300
0000
,
2000
0000
3000
0000
,
0002
0000
0003
0000
,
0200
0000
0300
0000
,
0110
0000
0000
0000
,
0000
0000
0000
0000
,
0000
1000
0000
0000
,
1000
0000
0000
0000
,
1000
0000
0000
0000
,
0000
0000
0000
0000
,
0001
0000
0001
0000
,
0100
0000
0010
0000
,
1000
0000
0000
0000
,
0200
0000
0000
0000
,
0310
0000
0001
0000
,
2000
0000
3000
0000
,
1000
0000
0000
0000
,
0010
0000
0000
0000
,
0100
0000
0000
0000
,
0100
0000
0000
0000
,
0001
0000
0000
0000
,
0010
0000
1000
0000
,
0100
0000
0000
0000
,
0010
0000
0001
0000
,
1001
0000
0000
0000
,
0110
0000
0000
0000
,
1000
0000
0100
0000
,
0100
0000
0010
0000
,
1000
0000
0000
0000
,
0100
0000
0010
0000
,
0001
0000
1000
0000
,
0100
0000
0000
0000
,
1000
0000
0000
0000
,
0100
0000
0000
0000
,
0100
0000
0000
0000
,
0001
0000
0000
0000
,
0010
0000
0000
0000
,
0100
0000
0000
0000
,
0001
0000
0000
0000
,
1000
0000
0000
0000
,
0001
0000
0010
0000
,
0100
0000
1000
0000
,
0010
0000
0000
0000
,
0100
0000
0000
0000
,
0001
0000
0010
0000
,
0200
0000
0300
0000
,
0001
0000
1000
0000
,
0000
0000
0100
0000
,
0002
0000
0000
0000
,
1003
0000
0000
0000
,
0010
0000
1000
1000
,
0000
0000
0000
0000
,
0001
0000
0010
0010
,
0000
0100
0000
0000
,
0001
0000
0000
0010
,
0000
0000
0000
0001
,
0000
0000
0000
1000
,
0000
0010
0000
0000
,
0100
0000
0001
0000
,
0010
0000
0000
1000
,
0000
0001
0000
1000
,
0000
0100
0000
0000
,
0010
0000
0100
0000
,
0000
0000
0001
0000
,
0020
0000
0000
0000
,
0130
0000
0000
0000
,
1000
0000
0100
0100
,
0000
0000
0000
0000
,
0010
0000
1000
1000
,
0000
0001
0000
0000
,
0010
0000
0000
1000
,
0000
0000
0000
0010
,
0000
0000
0000
0100
,
0000
1000
0000
0000
,
0001
0000
0010
0000
,
1000
0000
0000
0100
,
0000
0010
0000
0100
,
0000
0001
0000
0000
,
0002
0000
0000
0000
,
0010
0000
0000
0000
,
0010
0000
0000
0000
,
0013
0000
0000
0000
,
2000
0000
0000
0000
,
0100
0000
0000
0000
,
0100
0000
0000
0000
,
3100
0000
0000
0000
,
0002
0000
0000
0000
,
1000
0000
0000
0000
,
1000
0000
0000
0000
,
1003
0000
0000
0000
,
2000
0000
0000
0000
,
3000
0000
0000
0000
,
0002
0000
0000
0000
,
0003
0000
0000
0000
,
0200
0000
0000
0000
,
0300
0000
0000
0000
,
0020
0000
0000
0000
,
1000
0000
1030
0000
,
1000
0000
0000
0000
,
0001
0000
0010
0000
,
1000
0000
0000
0000
,
0001
0000
0100
0000
,
1000
0000
0000
0000
,
0100
0000
0010
0000
,
0001
0000
0000
0000
,
1000
0000
0000
0000
,
0001
0000
0000
0000
,
0200
0000
0300
0000
,
0020
0000
0030
0000
,
0002
0000
0003
0000
,
2000
0000
3000
0000
,
0020
0000
0030
0000
,
0110
0000
0000
0000
,
1000
0000
0000
0000
,
0100
0000
0010
0000
,
0001
0000
0000
0000
,
0001
0000
0000
0000
,
1000
0000
0000
0000
,
1000
0000
0001
0000
,
0010
0000
0220
0000
,
0000
0000
0000
0000
,
0000
0000
0330
0000
;

//---------------dance-single - ----------------
#NOTES:
     dance-single:
     :
     Medium:
     11:
     0.374109,0.492531,0.232349,0.334001,0.000000,541.000000,493.000000,48.000000,69.000000,0.000000,0.000000,0.374109,0.492531,0.232349,0.334001,0.000000,541.000000,493.000000,48.000000,69.000000,0.000000,0.000000:
0000
0000
0000
0000
,
0000
0000
0000
0000
,
0000
0000
0000
0000
,
0000
0000
0000
0000
,
0000
0000
0000
0000
,
0000
0000
0000
0000
,
1001
0000
0000
0100
0000
0100
0000
0000
,
0110
0000
0000
0001
0000
0001
0000
0000
,
1001
0000
0000
0010
0000
0010
0000
0000
,
0110
0000
0000
1000
0000
1000
0000
0000
,
2002
0000
0000
0000
,
0000
0000
0000
3003
,
1000
0000
1000
0000
1000
0000
0000
0001
,
0000
0001
0000
0001
0000
0000
0000
0000
,
1000
0000
1000
0000
1000
0000
0000
0100
,
0000
0000
0100
0000
0000
0100
0000
0000
,
0100
0000
0100
0000
0100
0000
0000
0010
,
0000
0010
0000
0010
0000
0000
0000
0000
,
0100
0000
0000
0100
0000
0000
0000
0001
,
0000
1000
0000
0200
0000
0300
0000
0000
,
1000
0100
0001
0000
,
0000
0010
1000
0100
,
0010
0000
0000
2000
,
0002
0000
3003
0001
,
0100
0100
1000
0001
,
0000
1000
0001
0100
,
0010
1000
0100
0020
,
0000
0002
0033
0000
,
1000
0100
0010
0010
,
0000
1000
0100
0001
,
0000
0010
1000
0001
,
0000
1001
0000
0000
,
0100
0010
0001
0010
,
1000
0100
0010
0200
,
0000
0302
0000
0203
,
0000
0320
0000
0030
,
0100
0001
0010
0000
,
0000
1000
0100
0010
,
0100
0000
0000
0200
,
0020
0000
0330
1000
,
0100
0001
0010
0200
,
0000
1000
1300
0001
,
0010
1000
0010
0100
,
0000
0110
0000
0000
,
1000
0001
0010
0010
,
0000
1000
0100
0001
,
0000
1000
0010
0001
,
0000
1100
0000
0010
,
0001
0010
0010
0001
,
0100
1000
0001
0200
,
0000
0320
0000
2030
,
0000
3200
0300
0000
,
0220
0000
0000
0000
,
0330
0000
0000
0000
,
2200
0000
3300
0000
,
0202
0000
0303
0000
,
2002
0000
0000
0000
,
3003
0000
0000
0000
,
0022
0000
0033
0000
,
2020
0000
3030
0000
,
1100
0000
0000
0000
,
0110
0000
0000
0000
,
0011
0000
0000
0000
,
1001
0000
0000
0000
,
0101
0000
0000
0000
,
0110
0000
0000
0000
,
1010
0000
0000
0000
,
1001
0000
0000
0000
,
0011
0000
0000
0000
,
0101
0000
0000
0000
,
1000
0100
0010
0010
,
0002
0000
2003
0000
,
3001
0000
0000
1000
,
1000
0001
0010
0100
,
1000
0000
0000
0001
,
0001
1000
0010
0100
,
0001
0000
0000
0010
,
0001
0001
1000
0100
,
0020
0000
0100
0000
,
1030
0000
0000
1000
0000
0000
1000
0000
,
0001
0000
0010
0100
,
0001
0000
0000
0001
0000
0000
0001
0000
,
1000
0000
1010
0000
,
0100
0000
0000
0100
0000
0000
0100
0000
,
0001
0000
0101
0000
,
0010
0000
0000
0010
0000
0000
0010
0000
,
1000
0000
1000
0000
1000
0000
0000
0001
,
0000
0001
0000
0001
0000
0000
0100
0000
,
0000
0000
1000
0000
0000
0100
0000
0000
,
0010
0000
0000
0001
0000
0000
0100
0000
,
0020
0000
0000
0000
,
0030
0000
0000
0000
,
0000
1000
0000
0100
0000
0000
0010
0000
,
0001
0100
0100
0010
,
1000
0000
0000
0200
,
0310
0000
0010
0001
,
0100
1000
0001
1000
,
0100
0100
0001
0010
,
0200
0000
0300
0000
,
1000
1000
0001
1000
,
0010
0000
0000
0000
0000
1000
0000
1000
,
0000
0010
0000
0100
0000
0000
1000
0000
,
1000
0000
0000
0000
0110
0000
0000
1000
,
0000
0000
0100
0000
0000
1000
0000
0000
,
0000
0010
0000
0000
0100
0000
1000
0000
,
0100
0100
0001
0010
,
0001
0100
0000
0000
,
0200
1000
1300
0000
,
0000
0010
0000
0000
1000
0000
0100
0000
,
0010
0000
0000
0010
0000
0000
0010
0000
,
1000
0001
0001
0010
,
1000
0001
0000
0100
,
1000
0000
0000
0100
0000
0000
0100
0000
,
0010
1000
1000
0001
,
0001
0010
1000
0010
,
0100
0100
0001
0010
,
0001
0000
0100
1000
,
0010
0100
0100
0001
,
0010
0000
0100
0010
,
0100
1000
0010
0010
,
0100
0000
0100
0000
0100
0000
0000
0010
,
0000
0010
0000
0010
0000
0000
1000
0000
,
1000
0000
1000
0000
0000
0001
0000
0000
,
1000
0000
0000
0001
0000
0000
1000
0000
,
0001
0000
0001
0000
0001
0000
0000
1000
,
0000
1000
0000
1000
0000
0000
0000
0000
,
0001
0000
0000
0001
0000
0000
0000
0010
,
0000
0100
0000
0002
0000
0003
0000
0000
,
0100
0001
0010
0000
,
0000
1000
0100
0001
,
1000
0000
0000
0200
,
0020
0000
0330
0010
,
0001
0001
0100
0010
,
0000
0100
0010
0001
,
1000
0100
0001
2000
,
0000
0020
3030
0000
,
0100
0001
1000
1000
,
0000
0100
0001
0010
,
0000
1000
0100
0010
,
0000
0110
0000
0000
,
0001
1000
0010
1000
,
0100
0001
1000
0002
,
0000
0023
0000
0032
,
0000
2003
0000
3000
,
0001
0010
1000
0000
,
0000
0100
0001
1000
,
0001
0000
0000
0002
,
2000
0000
3003
0100
,
0001
0010
1000
0002
,
0000
0100
0103
0010
,
1000
0100
1000
0001
,
0000
1001
0000
0000
,
0100
0010
1000
1000
,
0000
0100
0001
0010
,
0000
0100
1000
0010
,
0000
0101
0000
1000
,
0010
1000
1000
0010
,
0001
0100
0010
0002
,
0000
2003
0000
3200
,
0000
0302
0003
0000
,
2002
0000
0000
0000
,
3003
0000
0000
0000
,
0202
0000
0303
0000
,
0022
0000
0033
0000
,
0220
0000
0000
0000
,
0330
0000
0000
0000
,
2020
0000
3030
0000
,
2200
0000
3300
0000
,
0101
0000
0000
0000
,
1001
0000
0000
0000
,
1010
0000
0000
0000
,
0110
0000
0000
0000
,
0011
0000
0000
0000
,
1001
0000
0000
0000
,
1100
0000
0000
0000
,
0110
0000
0000
0000
,
1010
0000
0000
0000
,
0011
0000
0000
0000
,
0100
0001
1000
1000
,
0020
0000
0230
0000
,
0310
0000
0000
0100
,
0100
0010
1000
0001
,
0100
0000
0000
0010
,
0010
0100
1000
0001
,
0010
0000
0000
1000
,
0010
0010
0100
0001
,
2000
0000
0001
0000
,
3100
0000
0000
0100
0000
0000
0100
0000
,
0010
0000
1000
0001
,
0010
0000
0000
0010
0000
0000
0010
0000
,
0100
0000
1100
0000
,
0001
0000
0000
0001
0000
0000
0001
0000
,
0010
0000
0011
0000
,
1000
0000
0000
1000
0000
0000
1000
0000
,
0100
0100
0100
0010
,
0001
0010
0100
1000
,
1000
1000
0100
0001
,
1000
0100
0001
1000
,
0001
0001
0001
0100
,
0100
0010
1000
0100
,
0001
0000
0100
0000
0000
1000
0000
0010
,
0000
0100
0000
0002
0000
0000
0000
0000
,
0000
0000
0000
0000
,
0000
0000
0003
0000
;

//---------------dance-single - ----------------
#NOTES:
     dance-single:
     :
     Hard:
     14:
     0.518636,0.689543,0.382407,0.261392,0.004841,750.000000,671.000000,79.000000,54.000000,0.000000,0.000000,0.518636,0.689543,0.382407,0.261392,0.004841,750.000000,671.000000,79.000000,54.000000,0.000000,0.000000:
// measure 0
0000
0000
0000
0000
,  // measure 1
0000
0000
0000
0000
,  // measure 2
0000
0000
0000
0000
,  // measure 3
0000
0000
0000
0000
,  // measure 4
0000
0000
0000
0000
,  // measure 5
0000
0000
0000
0000
0000
0000
0000
0000
0000
0000
0000
0000
0000
0000
1000
0001
,  // measure 6
1000
0001
0100
0100
0000
0001
0010
0010
,  // measure 7
0000
0000
0001
0000
1000
0000
1000
0000
0000
0000
0011
0000
0000
0000
0000
0001
,  // measure 8
1000
0000
0010
0010
0001
0010
1000
0010
,  // measure 9
0000
0100
0000
1000
0000
0100
0000
0001
,  // measure 10
2002
0000
0000
0000
,  // measure 11
0000
0000
0000
3003
,  // measure 12
1000
0000
0001
0000
1000
0000
0100
0001
,  // measure 13
0000
0100
0000
0001
0000
0010
1000
0000
,  // measure 14
0001
0000
0001
0000
1000
0000
0001
0100
,  // measure 15
0000
1000
0100
0000
0001
0100
0000
1000
,  // measure 16
0100
0000
1000
0000
0010
0000
0100
0010
,  // measure 17
0000
0001
0000
0100
0000
0010
1000
0000
,  // measure 18
0100
0000
0010
0100
0000
0100
0000
0001
,  // measure 19
0000
1000
0000
0200
0000
0300
0000
0000
,  // measure 20
1000
0100
0002
0000
,  // measure 21
1003
0001
0100
1000
,  // measure 22
0110
0000
0000
0000
0100
0000
1000
0001
,  // measure 23
2000
0000
0000
0000
3001
0000
0001
1000
,  // measure 24
0100
0010
1100
0101
,  // measure 25
0000
0000
1000
0100
0001
0000
1000
0010
,  // measure 26
0001
1000
0100
0020
,  // measure 27
0000
0000
0002
0000
0033
0000
1000
0100
,  // measure 28
1000
0020
0001
1030
,  // measure 29
0000
2000
0001
3010
,  // measure 30
0000
0010
1000
0001
,  // measure 31
0000
0000
1000
0001
0000
0000
0000
0010
,  // measure 32
0100
0000
0010
0100
0001
0000
1010
0000
,  // measure 33
0100
0001
0010
1100
,  // measure 34
0000
0000
0101
0000
0000
0000
0100
0001
,  // measure 35
1000
0001
0020
0000
0000
0000
0031
0010
,  // measure 36
0100
0001
0020
0000
,  // measure 37
1030
1000
0100
0011
,  // measure 38
0101
0000
0000
0000
1000
0000
0100
1000
,  // measure 39
0020
0000
0000
0000
0130
0000
1000
0010
,  // measure 40
0100
0001
0101
0210
,  // measure 41
0000
0000
1300
0010
0001
0000
0001
1000
,  // measure 42
0100
1000
1001
2100
,  // measure 43
0000
0000
3001
0000
0000
0000
1000
0100
,  // measure 44
1000
0001
0101
1100
,  // measure 45
0000
2000
0001
3001
,  // measure 46
0000
0020
1000
0031
,  // measure 47
0000
0100
1000
0000
0000
0000
0010
0100
,  // measure 48
0001
0000
0010
0100
1000
0000
0001
0000
,  // measure 49
0101
1000
0011
0200
,  // measure 50
0000
0302
0000
0203
,  // measure 51
0000
2300
0000
3000
,  // measure 52
0210
0000
0000
0000
,  // measure 53
0010
0000
0000
0000
,  // measure 54
0010
0000
0000
0000
,  // measure 55
0310
0000
0000
0000
0000
0000
1000
0001
,  // measure 56
2000
0000
0000
0000
,  // measure 57
0001
0000
0000
0000
,  // measure 58
0001
0000
0000
0000
,  // measure 59
3001
0000
0010
0000
,  // measure 60
1100
0000
1000
0000
,  // measure 61
0100
0000
0100
0000
,  // measure 62
1001
0000
0010
0000
,  // measure 63
1001
0000
0100
0000
,  // measure 64
0001
0000
0001
0000
,  // measure 65
0110
0000
1000
0000
,  // measure 66
0110
0000
0001
0000
,  // measure 67
0010
0000
0100
0000
,  // measure 68
0001
0000
0001
0000
,  // measure 69
0100
0000
1000
0000
,  // measure 70
1000
0100
0010
0010
,  // measure 71
0002
0000
2003
0000
,  // measure 72
3001
0000
0000
0000
1010
0000
1000
0010
,  // measure 73
1000
0010
0001
0000
1000
0000
0100
0000
,  // measure 74
0010
0000
0000
0000
0011
0000
0001
0100
,  // measure 75
0001
0100
1000
0000
0100
0000
0100
0000
,  // measure 76
0010
0000
0001
0010
,  // measure 77
1001
0001
1000
0110
,  // measure 78
0020
0000
0100
0000
,  // measure 79
1030
0000
0000
1000
0000
1000
0100
0010
,  // measure 80
0001
0000
0000
0000
0010
1000
0100
0000
,  // measure 81
0001
0000
0000
0101
0000
0000
0100
0000
,  // measure 82
1000
0000
0011
0000
,  // measure 83
0100
0000
0000
1100
0000
0000
1000
0000
,  // measure 84
0001
0000
0101
0000
,  // measure 85
0100
0000
0000
0110
0000
0000
0010
0000
,  // measure 86
1000
0000
0100
0000
1000
0000
0100
0001
,  // measure 87
0000
0010
0000
0001
0000
0010
0100
0000
,  // measure 88
0110
0000
1000
0000
1000
0100
0000
0100
,  // measure 89
0010
0000
0010
0001
0000
0001
0100
0000
,  // measure 90
0020
0000
0000
0000
,  // measure 91
0130
0000
0100
0000
,  // measure 92
0100
1000
0000
0100
1000
0000
0010
0000
,  // measure 93
0001
0100
0100
0010
,  // measure 94
1000
0000
0000
0000
0000
0000
0010
0100
,  // measure 95
0010
0000
0010
0001
,  // measure 96
0100
0000
1000
0100
0000
0001
1000
0000
,  // measure 97
0100
0000
0100
1000
0001
1000
0010
1000
,  // measure 98
0200
0000
0000
0000
0300
0000
0000
0001
,  // measure 99
1000
1000
0011
1000
,  // measure 100
1010
0000
0000
0000
0100
1000
0000
1000
,  // measure 101
0000
0010
0000
0100
0000
0001
1000
0000
,  // measure 102
1000
0000
0000
0000
0110
0000
0000
1100
,  // measure 103
0000
0000
0101
0000
0000
1010
0000
0000
,  // measure 104
0000
0011
0000
0000
0100
0000
1000
0000
,  // measure 105
0100
0000
0100
0001
0000
0010
0000
0001
,  // measure 106
0000
0100
0010
0100
0010
0000
0000
0000
,  // measure 107
0200
1000
1300
0000
,  // measure 108
0000
0011
0000
0000
1000
0000
0100
0000
,  // measure 109
0010
1000
0001
0100
1000
0001
1000
0000
,  // measure 110
0100
0001
0001
0010
,  // measure 111
1000
0001
0000
0100
,  // measure 112
1000
0001
0000
0110
0000
0000
0100
0000
,  // measure 113
0011
1010
1000
0100
,  // measure 114
0001
0010
0001
0010
,  // measure 115
0100
0110
0002
1000
,  // measure 116
0103
0000
0100
1010
,  // measure 117
0110
1000
0200
0001
,  // measure 118
0310
0000
0100
0010
,  // measure 119
0100
0000
1000
0100
0010
1000
0010
0000
,  // measure 120
0100
0000
0010
0000
0100
0000
0001
0010
,  // measure 121
0000
0001
0000
0010
0000
1000
0100
0000
,  // measure 122
0010
0000
0010
0000
0100
0000
0010
0001
,  // measure 123
0000
0100
0001
0000
0010
0001
0000
0100
,  // measure 124
0001
0000
0100
0000
1000
0000
0001
1000
,  // measure 125
0000
0010
0000
0001
0000
1000
0100
0000
,  // measure 126
0001
0000
1000
0001
0000
0001
0000
0010
,  // measure 127
0000
0100
0000
0002
0000
0003
0000
0000
,  // measure 128
0100
0001
0020
0000
,  // measure 129
0130
0010
0001
0100
,  // measure 130
1001
0000
0000
0000
0001
0000
0100
0010
,  // measure 131
0200
0000
0000
0000
0310
0000
0010
0100
,  // measure 132
0001
1000
0101
0011
,  // measure 133
0000
0000
0100
0001
0010
0000
0100
1000
,  // measure 134
0010
0100
0001
2000
,  // measure 135
0000
0000
0020
0000
3030
0000
0100
0001
,  // measure 136
0100
2000
0010
3100
,  // measure 137
0000
0200
0010
1300
,  // measure 138
0000
1000
0100
0010
,  // measure 139
0000
0000
0100
0010
0000
0000
0000
1000
,  // measure 140
0001
0000
1000
0001
0010
0000
1100
0000
,  // measure 141
0001
0010
1000
0101
,  // measure 142
0000
0000
0011
0000
0000
0000
0001
0010
,  // measure 143
0100
0010
2000
0000
0000
0000
3010
1000
,  // measure 144
0001
0010
2000
0000
,  // measure 145
3100
0100
0001
1010
,  // measure 146
0011
0000
0000
0000
0100
0000
0001
0100
,  // measure 147
2000
0000
0000
0000
3001
0000
0100
1000
,  // measure 148
0001
0010
0011
1002
,  // measure 149
0000
0000
0103
1000
0010
0000
0010
0100
,  // measure 150
0001
0100
0110
0201
,  // measure 151
0000
0000
0310
0000
0000
0000
0100
0001
,  // measure 152
0100
0010
0011
0101
,  // measure 153
0000
0200
0010
0310
,  // measure 154
0000
2000
0100
3010
,  // measure 155
0000
0001
0100
0000
0000
0000
1000
0001
,  // measure 156
0010
0000
1000
0001
0100
0000
0010
0000
,  // measure 157
0011
0100
1010
0002
,  // measure 158
0000
0023
0000
0032
,  // measure 159
0000
0203
0000
0300
,  // measure 160
1002
0000
0000
0000
,  // measure 161
1000
0000
0000
0000
,  // measure 162
1000
0000
0000
0000
,  // measure 163
1003
0000
0000
0000
0000
0000
0100
0010
,  // measure 164
0200
0000
0000
0000
,  // measure 165
0010
0000
0000
0000
,  // measure 166
0010
0000
0000
0000
,  // measure 167
0310
0000
1000
0000
,  // measure 168
0101
0000
0100
0000
,  // measure 169
0001
0000
0001
0000
,  // measure 170
0110
0000
1000
0000
,  // measure 171
0110
0000
0001
0000
,  // measure 172
0010
0000
0010
0000
,  // measure 173
1001
0000
0100
0000
,  // measure 174
1001
0000
0010
0000
,  // measure 175
1000
0000
0001
0000
,  // measure 176
0010
0000
0010
0000
,  // measure 177
0001
0000
0100
0000
,  // measure 178
0100
0001
1000
1000
,  // measure 179
0020
0000
0230
0000
,  // measure 180
0310
0000
0000
0000
1100
0000
0100
1000
,  // measure 181
0100
1000
0010
0000
0100
0000
0001
0000
,  // measure 182
1000
0000
0000
0000
1010
0000
0010
0001
,  // measure 183
0010
0001
0100
0000
0001
0000
0001
0000
,  // measure 184
1000
0000
0010
1000
,  // measure 185
0110
0010
0100
1001
,  // measure 186
2000
0000
0001
0000
,  // measure 187
3100
0000
0000
0100
0000
0100
0001
1000
,  // measure 188
0010
0000
0000
0000
1000
0100
0001
0000
,  // measure 189
0010
0000
0000
0011
0000
0000
0001
0000
,  // measure 190
0100
0000
1010
0000
,  // measure 191
0001
0000
0000
0101
0000
0000
0100
0000
,  // measure 192
0010
0000
0011
0000
,  // measure 193
0001
0000
0000
1001
0000
0000
0100
0000
,  // measure 194
1000
0000
0001
0000
1000
0000
0100
0001
,  // measure 195
0000
0100
0000
0001
0000
0010
1000
0000
,  // measure 196
0001
0000
0001
0000
1000
0000
0001
0100
,  // measure 197
0000
1000
0100
0000
0001
0100
0000
1000
,  // measure 198
0100
0000
1000
0000
0010
0000
0100
0010
,  // measure 199
0000
0001
0000
0100
0000
0010
1000
0000
,  // measure 200
0100
0000
0010
0100
0000
0100
0000
0001
,  // measure 201
0000
1000
0000
0200
0000
0000
0000
0000
,  // measure 202
0000
0000
0000
0000
,  // measure 203
0000
0000
0300
0000
;

//---------------dance-single - ----------------
#NOTES:
     dance-single:
     :
     Beginner:
     3:
     0.145909,0.246265,0.043565,0.019362,0.000000,211.000000,202.000000,9.000000,4.000000,0.000000,0.000000,0.145909,0.246265,0.043565,0.019362,0.000000,211.000000,202.000000,9.000000,4.000000,0.000000,0.000000:
0000
0000
0000
0000
,
0000
0000
0000
0000
,
0000
0000
0000
0000
,
0000
0000
0000
0000
,
0000
0000
0000
0000
,
0000
0000
0000
0000
,
1000
0000
0000
0000
,
0001
0000
0000
0000
,
1000
0000
1000
0000
,
0001
0000
0000
0000
,
2002
0000
0000
0000
,
0000
0000
3003
0000
,
1000
0000
0000
0000
,
0001
0000
0000
0000
,
1000
0000
0000
0000
,
0000
0000
0000
0000
,
0100
0000
0000
0000
,
0010
0000
0000
0000
,
0100
0000
0000
0000
,
0000
0000
0000
0000
,
1000
0000
1000
0000
,
0000
0000
0000
0000
,
0001
0000
0000
0000
,
1000
0000
0000
0000
,
0010
0000
0000
0100
,
0000
0000
0000
0000
,
0100
0000
0000
0010
,
0000
0010
0000
0000
,
1000
0000
0000
0001
,
0000
1000
0000
0000
,
0000
0001
0000
0000
,
0000
0110
0000
0000
,
1000
0000
0000
0000
,
0100
0000
0000
0000
,
0010
0000
0000
0000
,
0001
0000
0000
0000
,
0001
0000
0001
0000
,
0000
0000
0000
0000
,
1000
0000
0000
0000
,
0001
0000
0000
0000
,
0100
0000
0000
0010
,
0000
0000
0000
0000
,
0010
0000
0000
0100
,
0000
0100
0000
0000
,
0001
0000
0000
1000
,
0000
0001
0000
0000
,
0000
1000
0000
0000
,
0000
0110
0000
0000
,
0001
0000
0000
0000
,
0010
0000
0000
0000
,
0100
0000
0000
0000
,
1000
0000
0000
0000
,
1001
0000
0000
0000
,
0000
0000
0000
0000
,
1000
0000
0000
0000
,
0001
0000
0000
0000
,
1000
0000
0000
0000
,
0000
0000
0000
0000
,
0010
0000
0000
0000
,
0100
0000
0000
0000
,
0010
0000
0000
0000
,
1000
0000
0000
0000
,
0100
0000
0000
0000
,
0010
0000
0000
0000
,
0001
0000
0000
0000
,
0100
0000
0000
0000
,
0010
0000
0000
0000
,
1000
0000
0000
0000
,
0100
0000
0000
0000
,
0000
0000
0000
0000
,
0001
0000
0000
0000
,
1000
0000
1000
0000
,
1000
0000
0000
0000
,
0001
0000
0001
0000
,
0001
0000
0000
0000
,
0100
0000
0100
0000
,
0100
0000
0000
0000
,
0010
0000
0010
0000
,
0010
0000
0000
0000
,
0000
0000
0000
0000
,
0100
0000
0000
0000
,
0001
0000
0000
0000
,
0010
0000
0000
0000
,
0100
0000
0000
0000
,
1000
0000
0000
0000
,
0010
0000
0000
0000
,
0100
0000
0000
0000
,
0000
0000
0000
0000
,
0000
0100
0000
0000
,
0100
0000
0000
0000
,
0100
0000
0000
0000
,
0000
0000
0000
0000
,
0001
0000
0000
0000
,
1000
0000
0000
0000
,
0100
0000
0000
0000
,
0110
0000
0000
0000
,
1000
0000
1000
0000
,
0100
0000
0010
0000
,
0001
0000
0000
0000
,
1000
0000
0000
0000
,
0100
0000
0000
0000
,
0010
0000
0000
0000
,
0100
0000
0000
0000
,
0001
0000
0000
0000
,
1001
0000
0000
0000
,
0000
0000
0000
0000
,
0200
0000
0000
0000
,
0300
0000
0000
0000
,
0010
0000
0000
0000
,
0100
0000
0000
0000
,
0010
0000
0000
0000
,
0000
0000
0000
0000
,
1000
0000
0001
0000
,
0010
0000
0100
0000
,
1000
0000
0000
0000
,
0001
0000
0000
0000
,
0100
0000
0000
0000
,
0100
0000
0000
0000
,
0010
0000
0000
0000
,
1000
0000
0000
0000
,
0100
0000
0000
0000
,
0010
0000
0000
0000
,
0100
0000
0000
0000
,
0000
0000
0000
0000
,
0001
0000
0000
0000
,
1000
0000
0000
0000
,
0001
0000
0000
0000
,
0000
0000
0000
0000
,
0100
0000
0100
0000
,
0000
0000
0000
0000
,
0010
0000
0000
0000
,
0100
0000
0000
0000
,
1000
0000
0000
0001
,
0000
0000
0000
0000
,
0001
0000
0000
1000
,
0000
1000
0000
0000
,
0100
0000
0000
0010
,
0000
0100
0000
0000
,
0000
0010
0000
0000
,
0000
1001
0000
0000
,
0100
0000
0000
0000
,
0001
0000
0000
0000
,
1000
0000
0000
0000
,
0010
0000
0000
0000
,
0010
0000
0010
0000
,
0000
0000
0000
0000
,
0100
0000
0000
0000
,
0010
0000
0000
0000
,
0001
0000
0000
1000
,
0000
0000
0000
0000
,
1000
0000
0000
0001
,
0000
0001
0000
0000
,
0010
0000
0000
0100
,
0000
0010
0000
0000
,
0000
0100
0000
0000
,
0000
1001
0000
0000
,
0010
0000
0000
0000
,
1000
0000
0000
0000
,
0001
0000
0000
0000
,
0100
0000
0000
0000
,
0110
0000
0000
0000
,
0000
0000
0000
0000
,
0100
0000
0000
0000
,
0010
0000
0000
0000
,
0100
0000
0000
0000
,
0000
0000
0000
0000
,
1000
0000
0000
0000
,
0001
0000
0000
0000
,
1000
0000
0000
0000
,
0100
0000
0000
0000
,
0001
0000
0000
0000
,
1000
0000
0000
0000
,
0010
0000
0000
0000
,
0001
0000
0000
0000
,
1000
0000
0000
0000
,
0100
0000
0000
0000
,
0001
0000
0000
0000
,
0000
0000
0000
0000
,
0010
0000
0000
0000
,
0100
0000
0100
0000
,
0100
0000
0000
0000
,
0010
0000
0010
0000
,
0010
0000
0000
0000
,
0001
0000
0001
0000
,
0001
0000
0000
0000
,
1000
0000
1000
0000
,
1000
0000
0000
0000
,
0000
0000
0000
0000
,
0001
0000
0000
0000
,
0010
0000
0000
0000
,
1000
0000
0000
0000
,
0001
0000
0000
0000
,
0100
0000
0000
0000
,
1000
0000
0000
0000
,
0001
0000
0000
0000
,
1000
0000
0000
0000
,
0010
0000
0010
0000
,
0010
0000
0000
0000
,
0001
0000
0000
0000
,
1000
0000
0000
0000
,
0100
0000
0100
0000
,
0100
0000
2000
0000
,
0000
0000
0000
0000
,
0000
0000
3000
0000
;
