#TITLE:TRUE♥LOVE (Clubstar's True Club Mix) ("CHAOS" Special);
#SUBTITLE:;
#ARTIST:jun feat. Schanita;
#TITLETRANSLIT:;
#SUBTITLETRANSLIT:;
#ARTISTTRANSLIT:;
#GENRE:;
#CREDIT:;
#BANNER:TRUE LOVE (Clubstar's True Club Mix) (CHAOS Special).png;
#BACKGROUND:TRUE LOVE (Clubstar's True Club Mix) (CHAOS Special)-bg.png;
#LYRICSPATH:;
#CDTITLE:;
#MUSIC:TRUE LOVE (Clubstar's True Club Mix) (CHAOS Special).mp3;
#OFFSET:-3.617000;
#SAMPLESTART:44.469002;
#SAMPLELENGTH:15.000000;
#SELECTABLE:YES;
#BPMS:0.000000=135.000000
;
#STOPS:
;
#BGCHANGES:;
#KEYSOUNDS:;
#ATTACKS:;

//---------------dance-single - ----------------
#NOTES:
     dance-single:
     :
     Challenge:
     14:
     0.687775,0.855940,0.275986,0.000000,0.608192,471.000000,444.000000,27.000000,0.000000,0.000000,0.000000,0.687775,0.855940,0.275986,0.000000,0.608192,471.000000,444.000000,27.000000,0.000000,0.000000,0.000000:
// measure 0
0000
0000
0000
0000
,  // measure 1
0000
0000
0000
0000
,  // measure 2
0000
0000
0000
0000
,  // measure 3
1000
0000
0001
1000
0001
0000
1000
0001
0000
0000
1001
0000
0000
0000
0100
0000
,  // measure 4
0010
0000
0100
0010
0100
0000
0010
0100
0000
0000
0110
0000
0000
0000
0001
0000
,  // measure 5
0100
0000
0001
0100
0001
0000
0100
0001
0000
0000
0101
0000
0000
0000
1000
0000
,  // measure 6
0010
0000
1000
0010
1000
0000
0010
0000
0001
0000
0010
1000
0010
0000
0100
0000
,  // measure 7
1000
0001
1000
0001
1000
0001
1000
0000
0000
0000
1001
0000
0000
0000
0100
0000
,  // measure 8
0010
0100
0010
0100
0010
0100
0010
0000
0000
0000
0110
0000
0000
0000
0001
0000
,  // measure 9
1000
0100
1000
0100
1000
0100
1000
0000
0000
0000
1100
0000
0000
0000
0010
0000
,  // measure 10
0100
0001
0100
0001
0100
0001
0100
0000
0000
0000
0101
0000
0000
0000
0001
0000
,  // measure 11
1000
0001
1000
0001
1000
0001
1000
0000
0000
0000
1001
0000
0000
0000
0100
0000
,  // measure 12
0010
0100
0010
0100
0010
0100
0010
0000
0000
0000
0110
0000
0000
0000
0001
0000
,  // measure 13
1000
0100
1000
0100
1000
0100
1000
0000
0000
0000
1100
0000
0000
0000
0010
0000
,  // measure 14
0100
0001
0100
0001
0100
0001
0100
0000
0000
0000
0101
0000
0000
0000
0010
0000
,  // measure 15
1000
0000
0001
0010
0100
0000
1000
0100
0010
0000
1000
0000
0001
0000
0010
0000
,  // measure 16
0100
0000
0100
0000
0010
0000
1000
0000
0001
0000
0100
0001
1000
0000
0010
0000
,  // measure 17
0100
0000
1000
0010
0001
0000
0100
1000
0010
0000
0100
0000
0100
0000
0001
0000
,  // measure 18
0010
0000
0100
0000
0001
0000
0010
0000
1000
0000
0100
0001
1000
0000
0010
0000
,  // measure 19
0100
0000
1000
0010
0100
0000
0001
0100
0010
0000
0100
0000
1000
0000
0001
0000
,  // measure 20
0100
1000
0100
0001
0100
1000
0100
0001
,  // measure 21
0010
0100
0010
0100
0010
0100
0010
0100
0010
0100
0010
0100
0010
0100
0010
0100
,  // measure 22
0001
1000
0001
1000
0001
1000
0001
1000
0001
1000
0001
1000
0001
1000
0001
1000
,  // measure 23
0001
0000
0000
0000
0110
0000
0000
0001
1000
0000
0100
0000
0010
0000
0001
0000
,  // measure 24
0100
0000
1000
0001
1000
0001
0010
0000
0000
0000
0101
0000
0000
0000
1000
0000
,  // measure 25
1000
0000
0010
0100
0010
0100
0001
0000
0000
0000
1100
0000
0000
0000
0010
0000
,  // measure 26
0001
0000
0100
0000
0010
0000
1000
0000
0000
0000
0001
1000
0010
0000
0100
0000
,  // measure 27
1000
0000
0000
0000
0110
0000
0000
1000
0001
0000
0010
0000
0100
0000
1000
0000
,  // measure 28
0010
0000
0001
1000
0001
1000
0100
0000
0000
0000
1010
0000
0000
0000
0001
0000
,  // measure 29
0001
0000
0100
0010
0100
0010
1000
0000
0000
0000
0011
0000
0000
0000
0100
0000
,  // measure 30
1000
0000
0000
1010
0000
0000
0001
0000
0100
0000
1000
0001
0100
0000
0000
1000
,  // measure 31
0001
0000
0000
0000
0110
0000
0000
0001
1000
0000
0100
0000
0010
0000
0001
0000
,  // measure 32
0100
0000
1000
0001
1000
0001
0010
0000
0000
0000
0101
0000
0000
0000
1000
0000
,  // measure 33
1000
0000
0010
0100
0010
0100
0001
0000
0000
0000
1100
0000
0000
0000
0010
0000
,  // measure 34
0001
0000
0100
0000
0010
0000
1000
0000
0000
0000
0001
1000
0010
0000
0100
0000
,  // measure 35
1000
0000
0000
0000
0110
0000
0000
1000
0001
0000
0010
0000
0100
0000
1000
0000
,  // measure 36
0010
0000
0001
1000
0001
1000
0100
0000
0000
0000
1010
0000
0000
0000
0001
0000
,  // measure 37
0001
0000
0100
0010
0100
0010
1000
0000
0000
0000
0011
0000
0000
0000
0100
0000
,  // measure 38
1000
0000
0000
1010
0000
0000
0001
0000
0100
0000
1000
0001
0100
0000
0000
1000
,  // measure 39
0100
0000
1000
0001
1000
0001
1000
0000
0100
0000
0010
0100
0010
0100
0010
0000
,  // measure 40
1000
0000
0001
0100
0001
0100
0001
0000
0100
0000
0010
1000
0010
1000
0010
0000
,  // measure 41
0001
0000
1000
0100
1000
0100
1000
0000
0010
0000
0001
0010
0001
0010
0001
0000
,  // measure 42
1000
0000
0100
0000
0010
0000
0001
0000
0000
0000
0110
0000
0000
0000
0100
1000
,  // measure 43
0010
0000
0001
1000
0001
1000
0001
0000
0010
0000
0100
0010
0100
0010
0100
0000
,  // measure 44
0001
0000
1000
0010
1000
0010
1000
0000
0010
0000
0100
0001
0100
0001
0100
0000
,  // measure 45
1000
0000
0001
0010
0001
0010
0001
0000
0100
0000
1000
0100
1000
0100
1000
0000
,  // measure 46
0001
0000
0010
0000
0100
0000
1000
0000
0000
0000
0110
0000
0000
0000
0010
0100
,  // measure 47
0001
0000
0100
1000
0010
0000
0100
0001
0010
0000
1000
0000
0010
0000
0100
0000
,  // measure 48
0001
0000
0010
0100
1000
0000
0001
0010
0100
0000
0001
0000
1000
0000
0010
0000
,  // measure 49
1000
0000
0100
1000
0001
0000
1000
0001
0010
0000
0100
0000
0001
0000
0100
0000
,  // measure 50
0010
0000
1000
0100
0010
0000
1000
0100
0010
0000
1000
0100
0010
0000
0000
0000
;
