#VERSION:0.83;
#TITLE:Stickerbrush Symphony;
#SUBTITLE:;
#ARTIST:Dave Wise;
#TITLETRANSLIT:;
#SUBTITLETRANSLIT:;
#ARTISTTRANSLIT:;
#GENRE:;
#ORIGIN:;
#CREDIT:;
#BANNER:Stickerbrush Symphony.png;
#BACKGROUND:Stickerbrush Symphony-bg.png;
#PREVIEWVID:;
#JACKET:Stickerbrush Symphony-jacket.png;
#CDIMAGE:;
#DISCIMAGE:;
#LYRICSPATH:;
#CDTITLE:;
#MUSIC:Stickerbrush Symphony.ogg;
#OFFSET:-0.327000;
#SAMPLESTART:68.529999;
#SAMPLELENGTH:15.000000;
#SELECTABLE:YES;
#DISPLAYBPM:99.000000;
#BPMS:0.000=98.530;
#STOPS:;
#DELAYS:;
#WARPS:;
#TIMESIGNATURES:0.000=4=4;
#TICKCOUNTS:0.000=4;
#COMBOS:0.000=1;
#SPEEDS:0.000=1.000=0.000=0;
#SCROLLS:0.000=1.000;
#FAKES:;
#LABELS:0.000=Song Start;
#BGCHANGES:;
#KEYSOUNDS:;
#ATTACKS:
;

//---------------dance-single - ----------------
#NOTEDATA:;
#CHARTNAME:;
#STEPSTYPE:dance-single;
#DESCRIPTION:;
#CHARTSTYLE:;
#DIFFICULTY:Easy;
#METER:3;
#RADARVALUES:0.145067,0.200233,0.064361,0.193082,0.000000,142.000000,133.000000,9.000000,27.000000,0.000000,0.000000,0.000000,0.000000,0.000000,0.145067,0.200233,0.064361,0.193082,0.000000,142.000000,133.000000,9.000000,27.000000,0.000000,0.000000,0.000000,0.000000,0.000000;
#CREDIT:kater15;
#DISPLAYBPM:99.000000;
#NOTES:
0000
0000
0000
0000
,
0000
0000
0000
0000
,
0000
0000
0000
0000
,
0000
0000
0000
0000
,
1000
0000
0001
0000
,
1000
0000
0001
0000
,
0100
0000
0010
0000
,
0100
0000
0010
0000
,
2000
3000
0001
0001
,
1000
1000
0020
0030
,
0200
0300
0010
0010
,
0100
0100
2000
3000
,
0002
0003
1000
1000
,
0001
0001
0200
0300
,
0000
0001
0100
1000
,
1001
0000
0110
0000
,
0100
0000
0000
0000
,
0002
0000
0000
0003
,
2000
3000
0100
0010
,
0100
0010
0001
0100
,
0220
0000
0330
0001
,
0002
0000
0000
0003
,
0020
0030
1000
0001
,
1000
0001
0010
0100
,
2002
3003
1000
0000
,
0001
0000
0100
0010
,
1001
0000
1000
0100
,
0020
0000
0032
0000
,
0103
1000
0100
0000
,
0010
1000
0010
0000
,
0010
0001
0100
0000
,
0010
1000
0100
0000
,
0001
0001
1000
1000
,
0010
0010
0001
0001
,
0100
0100
1000
1000
,
0010
0010
0100
0100
,
1001
0000
1000
0100
,
0100
1000
0010
0010
,
0100
0000
0001
0010
,
0100
0000
1000
1000
,
0020
0000
0000
0030
,
0200
0000
0000
0300
,
2000
3000
0010
0100
,
0010
0100
1000
0001
,
0110
0000
1000
0100
,
0001
0000
0100
0010
,
1001
0000
1000
0100
,
0020
0000
0032
0000
,
0203
0000
0000
0300
,
0020
0030
0100
0010
,
1001
0000
0001
0000
,
0100
0000
0010
0000
,
2000
0000
0000
3000
,
0002
0000
0000
0003
,
0200
0000
0000
0300
,
0020
0000
0000
0000
,
0030
0000
0000
0000
;

//---------------dance-single - ----------------
#NOTEDATA:;
#CHARTNAME:;
#STEPSTYPE:dance-single;
#DESCRIPTION:;
#CHARTSTYLE:;
#DIFFICULTY:Beginner;
#METER:1;
#RADARVALUES:0.068447,0.099223,0.028605,0.085814,0.000000,67.000000,63.000000,4.000000,12.000000,0.000000,0.000000,0.000000,0.000000,0.000000,0.068447,0.099223,0.028605,0.085814,0.000000,67.000000,63.000000,4.000000,12.000000,0.000000,0.000000,0.000000,0.000000,0.000000;
#CREDIT:kater15;
#DISPLAYBPM:99.000000;
#NOTES:
0000
0000
0000
0000
,
0000
0000
0000
0000
,
0000
0000
0000
0000
,
0000
0000
0000
0000
,
0001
0000
0000
0000
,
0100
0000
0000
0000
,
0010
0000
0000
0000
,
1000
0000
0000
0000
,
0100
0000
0000
0001
,
0000
1000
0000
0000
,
0010
0000
0000
1000
,
0000
0001
0000
0000
,
1000
0000
0000
0010
,
0000
0100
0000
0000
,
0001
0000
0000
0100
,
0000
0010
0000
0000
,
1000
0000
0000
0000
,
0020
0000
0030
0000
,
0200
0000
0300
0000
,
0100
0000
0001
0000
,
0020
0000
0030
0000
,
0200
0000
0300
0000
,
2000
0000
3000
0000
,
0100
0000
0010
0000
,
0002
0000
0003
0000
,
0100
0000
0010
0000
,
1001
0000
0000
0000
,
0100
0000
0000
0000
,
0001
0000
0000
0000
,
0010
0000
0000
0000
,
0100
0000
0000
0000
,
1000
0000
0000
0000
,
0100
0000
0000
0000
,
0010
0000
0000
0000
,
0001
0000
0000
0000
,
1000
0000
0000
0000
,
0100
0000
0010
0000
,
0010
0000
0001
0000
,
0000
0000
0100
0000
,
0010
0000
1000
0000
,
0001
0000
0000
0000
,
0110
0000
0000
0000
,
2000
0000
3000
0000
,
0001
0000
0010
0000
,
1000
0000
0000
0000
,
0010
0000
0100
0000
,
1001
0000
0000
0000
,
0000
0000
0000
0000
,
2000
0000
3000
0000
,
0010
0000
0100
0000
,
1001
0000
0000
0000
,
0000
0000
0000
0000
,
2000
0000
3000
0000
,
0200
0000
0300
0000
,
0020
0000
0030
0000
,
0002
0000
0003
0000
;

//---------------dance-single - ----------------
#NOTEDATA:;
#CHARTNAME:;
#STEPSTYPE:dance-single;
#DESCRIPTION:;
#CHARTSTYLE:;
#DIFFICULTY:Medium;
#METER:7;
#RADARVALUES:0.217600,0.240280,0.057209,0.100117,0.039332,213.000000,205.000000,8.000000,14.000000,0.000000,0.000000,0.000000,0.000000,0.000000,0.217600,0.240280,0.057209,0.100117,0.039332,213.000000,205.000000,8.000000,14.000000,0.000000,0.000000,0.000000,0.000000,0.000000;
#CREDIT:kater15;
#DISPLAYBPM:99.000000;
#NOTES:
0000
0000
0000
0000
,
0000
0000
0000
0000
,
0000
0000
0000
0000
,
0000
0000
0000
0000
,
0010
0001
0010
1000
,
0100
0000
0001
0000
0100
0000
1000
0100
,
0001
0010
1000
0010
,
0001
0000
0100
0000
1000
0000
0100
0001
,
0010
0000
0000
0000
0000
0001
0001
0001
,
0000
1000
1000
1000
0000
0000
0010
0000
,
0110
0000
0000
0000
0000
0010
0010
0010
,
0000
0100
0100
0100
0000
0000
0001
0000
,
1001
0000
0000
0000
0000
0100
0010
0100
,
0000
0010
0100
0010
0000
0000
1000
0000
,
1001
0000
0000
0010
0001
0001
0100
1000
,
0000
0002
0000
2000
,
3003
0000
0000
0000
0000
0000
0000
0001
,
0002
0000
0000
0000
0000
0000
0003
0100
,
0200
0000
0000
0000
0000
0000
0000
0000
0310
0000
0000
0010
0000
0000
0010
0000
,
0001
0000
0100
0000
0010
0000
1000
0100
,
2000
0000
0000
0000
3000
0002
0000
0100
,
0103
0010
0000
1000
1000
0000
0000
0010
,
0020
0000
0000
0000
0000
0000
0000
0000
1030
0000
0000
1000
0000
0000
1000
0000
,
0100
0000
0001
0000
0010
0000
0100
0001
,
2000
0000
0000
0000
0000
0000
0000
0000
3010
0000
0000
0010
0000
0000
0010
0000
,
0100
0000
0000
0000
0000
0000
1000
0000
0100
0000
0000
0010
0000
0000
0100
0000
,
0001
0000
0000
0000
0000
0000
1000
0000
0001
0000
0000
0001
0000
0000
0001
0000
,
1000
0000
0100
0100
0000
0010
0010
0000
,
0001
0000
0001
0000
0001
1000
0001
0000
,
1000
0000
1000
0000
1000
0001
1000
0000
,
0100
0000
0100
0000
0100
0010
0100
0000
,
0010
0000
0010
0000
0010
0100
0010
0000
,
1000
0100
0001
0100
,
1000
0000
0100
0000
0001
0000
0100
1000
,
0010
0001
0010
1000
,
0010
0000
0001
0000
0010
0000
1000
0010
,
0001
0000
0000
0000
0001
0001
0001
0000
,
1000
1000
1000
0000
0100
0000
1001
0000
,
0010
0000
0000
0000
0010
0000
0100
0100
,
0100
0000
0000
0001
0001
0000
0100
0000
,
0120
0000
0000
0000
0000
1000
0000
0100
,
1030
0000
0000
0000
0000
0000
0000
0001
,
0002
0000
0000
0000
0000
0000
0000
0000
1003
0000
0000
1000
0000
0000
1000
0000
,
0100
0010
0001
0100
,
1001
0000
0000
0000
0000
0000
0000
0000
0010
0000
0000
0010
0000
0000
0010
0000
,
0001
0000
0000
0000
0000
0000
0100
0000
1000
0000
0000
1000
0000
0000
1000
0000
,
0010
0000
0000
0000
0000
0000
0010
0000
0100
0000
0000
0100
0000
0000
0100
0000
,
0001
0000
1000
1000
0000
0001
0001
0000
,
0110
0000
0000
0000
,
1001
0000
0000
0000
0000
0000
0100
0000
0001
0000
0000
0001
0000
0000
0001
0000
,
0010
0000
0000
0000
0000
0000
0100
0000
1000
0000
0000
0001
0000
0000
1000
0000
,
0010
0000
0001
0001
0000
1000
1000
0000
,
0020
0000
0000
0000
,
0002
0000
0030
0000
,
0200
0000
0003
0000
,
2000
0000
0300
0000
,
3000
0000
0000
0000
;

//---------------dance-single - ----------------
#NOTEDATA:;
#CHARTNAME:;
#STEPSTYPE:dance-single;
#DESCRIPTION:;
#CHARTSTYLE:;
#DIFFICULTY:Hard;
#METER:10;
#RADARVALUES:0.313630,0.340396,0.071512,0.143024,0.078663,307.000000,297.000000,10.000000,20.000000,0.000000,0.000000,0.000000,0.000000,0.000000,0.313630,0.340396,0.071512,0.143024,0.078663,307.000000,297.000000,10.000000,20.000000,0.000000,0.000000,0.000000,0.000000,0.000000;
#CREDIT:kater15;
#DISPLAYBPM:99.000000;
#NOTES:
0000
0000
0000
0000
,
0000
0000
0000
0000
,
0000
0000
0000
0000
,
0000
0000
0000
0000
,
1000
0100
0001
0100
1000
0100
0001
0100
,
1000
0010
0001
0010
1000
0010
0001
0010
,
0100
0001
0010
0001
0100
0001
0010
0001
,
0100
1000
0010
1000
0100
1000
0010
1000
,
0000
0000
0000
0000
0000
1000
0100
0001
,
0000
1000
0010
0001
0000
1000
0100
0010
,
0001
0000
0000
0000
0000
1000
0100
0001
,
0000
1000
0010
0001
0000
1000
0100
0010
,
0001
0000
0000
0000
0000
0100
0001
0010
,
0000
0100
1000
0010
0000
0100
0001
1000
,
0010
0000
0000
0010
0001
0100
0010
1000
,
0100
0000
0010
0000
0010
0000
0000
1001
0000
0000
0100
0000
0100
0000
0000
0000
,
1000
0000
0100
0000
1000
0000
0000
0011
0000
0000
0010
0000
0001
0000
0100
0000
,
0200
0000
0000
0000
0000
0001
0301
0010
,
0020
0000
0000
0000
0000
0000
0000
0000
1030
0000
0000
0100
0000
0000
0010
0000
,
0001
0000
0000
0000
0110
0000
1000
0010
1000
0000
0000
0100
0000
0000
0010
0000
,
0002
0000
0000
0000
0000
2003
0000
0100
,
3010
0002
0000
0010
0103
1000
1000
0010
,
0020
0000
0000
0000
0000
0000
0000
0000
0130
0000
0000
0001
0000
0000
1000
0000
,
0010
0000
0010
0001
0000
0101
0000
0100
,
2000
0000
0001
0000
0001
0000
0000
0001
0000
0000
0001
0000
3001
0000
0000
0000
,
0002
0000
1000
0000
1000
0000
0000
1000
0000
0000
1000
0000
1003
0000
0000
0000
,
0020
0000
0100
0000
0100
0000
0000
0100
0000
0000
0100
0000
0130
0000
0000
0000
,
0200
0000
0010
0000
0010
0000
0000
0010
0000
0000
0010
0000
0310
0000
0000
0000
,
1000
0100
1000
0010
0010
0001
1000
0100
,
0010
0100
0100
0001
1000
0010
0100
0000
,
0001
1000
0010
1000
1000
0010
0001
0010
,
0010
0100
0001
0100
1000
0010
0100
0000
,
1000
0100
0001
0100
1000
0100
0001
0100
,
1000
0010
0001
0010
1000
0010
0001
0010
,
0100
0001
0010
0001
0100
0001
0010
0001
,
0100
1000
0010
1000
0100
1000
0010
1000
,
0000
0000
0000
0000
0101
0000
0000
0000
1000
0000
0100
0000
0001
0000
0100
1000
,
0000
0000
0010
0000
0001
0000
0010
1000
0000
0000
0100
0000
1000
0000
0100
0001
,
0000
0000
0110
0000
1000
0100
0010
0001
,
0100
0000
0000
0000
0000
0000
0001
1000
0001
0000
0000
0000
0100
0000
0010
0000
,
0002
0000
0000
0000
0000
1000
0000
0100
,
2003
0010
0000
0001
3010
0100
0100
0001
,
1000
0000
0000
0000
1100
0000
0000
0000
0010
0000
0000
0001
0000
0000
0010
0000
,
0100
0000
0100
0010
0000
0001
0100
1000
,
0100
0000
0000
0000
0000
0000
0000
0000
0101
0000
0000
0001
0000
0000
1000
0000
,
0010
0000
0000
0000
0000
0000
0010
0000
0001
0000
0000
0101
0000
0000
0010
0000
,
1000
0000
0000
0000
0100
0000
0010
0000
0001
0000
0000
1100
0000
0000
1000
0000
,
0010
0100
0001
0001
0010
1000
0100
0010
,
2000
0000
0001
0000
0001
0000
0000
0001
0000
0000
0001
0000
3001
0000
0000
0000
,
0002
0000
1000
0000
1000
0000
0000
1000
0000
0000
1000
0000
1003
0000
0000
0000
,
0020
0000
0100
0000
0100
0000
0000
0100
0000
0000
0100
0000
0130
0000
0000
0000
,
0200
0000
0010
0000
0010
0000
0000
0010
0000
0000
0010
0000
0310
0000
0000
0000
,
0002
0000
0000
0000
,
0200
0000
0003
0000
,
0020
0000
0300
0000
,
2000
0000
0030
0000
,
3000
0000
0000
0000
;

//---------------dance-single - ----------------
#NOTEDATA:;
#CHARTNAME:;
#STEPSTYPE:dance-single;
#DESCRIPTION:;
#CHARTSTYLE:;
#DIFFICULTY:Challenge;
#METER:14;
#RADARVALUES:0.612958,0.660769,0.336106,0.035756,0.804508,600.000000,553.000000,47.000000,5.000000,0.000000,0.000000,0.000000,0.000000,0.000000,0.612958,0.660769,0.336106,0.035756,0.804508,600.000000,553.000000,47.000000,5.000000,0.000000,0.000000,0.000000,0.000000,0.000000;
#CREDIT:kater15;
#DISPLAYBPM:99.000000;
#NOTES:
// measure 0
0000
0000
0000
0000
,  // measure 1
0000
0000
0000
0000
,  // measure 2
0000
0000
0000
0000
,  // measure 3
0000
0000
0000
0000
0000
0000
0000
0000
0000
0000
0000
0000
0000
0000
0001
1000
,  // measure 4
0000
0100
0010
0000
0100
0000
0001
1000
0000
0100
0000
1000
0010
0000
0100
0010
,  // measure 5
0000
1000
0100
0000
0010
0000
0001
0010
0000
0100
0000
1000
0010
0000
0100
0001
,  // measure 6
0000
0001
1000
0000
0001
0000
0010
0100
0000
0001
0000
0100
1000
0000
0001
1000
,  // measure 7
0000
0100
0001
0000
1000
0000
0010
1000
0000
0001
0000
0100
1000
0000
0001
0010
,  // measure 8
0000
0000
0100
0000
1001
0000
0000
0011
0000
0000
0100
0000
1000
0000
0010
0000
,  // measure 9
1100
0000
0010
0000
0001
0000
0100
0001
0010
1000
0100
0010
0001
0100
0010
0000
,  // measure 10
0100
0000
0010
0000
0011
0000
0000
0101
0000
0000
0010
0000
1000
0000
0100
0000
,  // measure 11
1001
0000
0010
1000
0001
0010
0100
0010
0000
0100
0001
1000
0010
0100
0001
1000
,  // measure 12
0100
0000
1000
0000
0011
0000
0000
0110
0000
0000
1000
0000
0100
0000
0001
0000
,  // measure 13
1010
0000
1000
0000
0010
0000
0001
1000
0001
0010
0100
1000
0010
0100
0001
0000
,  // measure 14
0010
0000
0100
0000
1001
0000
0010
0001
0010
1000
0100
0010
0001
0000
1100
0000
,  // measure 15
0000
0000
0100
1000
0100
0010
0001
0010
0000
0001
0100
0010
1000
0100
0001
0010
,  // measure 16
0000
0000
1000
0000
1100
0000
0000
1001
0000
0000
0010
0000
0001
0000
1100
0000
,  // measure 17
0101
0000
1000
0100
0100
0010
1000
0100
0010
0001
0100
0010
1000
0100
0011
0000
,  // measure 18
1010
0000
0100
0001
1000
0010
0100
0100
0001
0010
1000
0100
0010
0001
0000
0000
,  // measure 19
0100
0001
0100
1000
0010
0100
0000
0000
0010
1000
0100
0010
0001
0100
0000
0000
,  // measure 20
0100
0100
0001
1000
0100
0001
0010
0100
1000
0010
0010
0100
0001
0010
0000
0000
,  // measure 21
0100
1000
0100
0100
0001
0010
1000
0100
0010
0001
0100
0010
1000
0100
0000
0000
,  // measure 22
1000
0100
0001
0010
0100
0001
1000
1000
0001
0010
0100
0010
1000
0100
0000
0000
,  // measure 23
0010
0010
0001
0100
1000
0010
0000
0000
0100
0100
0001
0010
1000
0100
0000
0000
,  // measure 24
1000
1000
0100
0010
1000
0100
0001
1000
0010
0001
0001
1000
0100
0001
0000
0000
,  // measure 25
1000
0010
1000
1000
0100
0001
0010
1000
0001
0100
1000
0001
0010
1000
0000
0000
,  // measure 26
0010
1000
0100
0001
1000
0100
0010
0010
0100
0001
1000
0001
0010
1000
0000
0000
,  // measure 27
1000
0100
0010
1000
0001
0001
0100
0010
1000
0100
1000
0010
0100
0001
0000
0000
,  // measure 28
1000
0100
0010
1000
0100
1000
0001
0100
0001
1000
0001
0010
1000
1000
0100
0001
,  // measure 29
1000
0010
0100
1000
1000
0010
1000
0100
1000
0100
0010
0010
0100
0001
0010
0100
,  // measure 30
1000
0100
0100
1000
1000
0100
0010
0100
1000
0001
0010
1000
0100
1000
0010
0001
,  // measure 31
1000
1000
0100
0001
0100
0010
1000
0100
1000
0010
0010
0001
0010
1000
0100
0010
,  // measure 32
0000
0001
1000
0000
0001
0000
0010
0100
0000
0001
0000
0100
1000
0000
0001
1000
,  // measure 33
0000
0100
0001
0000
1000
0000
0010
1000
0000
0001
0000
0100
1000
0000
0001
0010
,  // measure 34
0000
0010
0100
0000
0010
0000
1000
0001
0000
0010
0000
0001
0100
0000
0010
0100
,  // measure 35
0000
0001
0010
0000
0100
0000
1000
0100
0000
0010
0000
0001
0100
0000
0010
1000
,  // measure 36
0100
0000
0010
0000
1010
0000
0000
1100
0001
0000
0010
0000
0100
0000
1000
0100
,  // measure 37
0001
0000
0010
0000
0100
0000
0001
0010
0100
0000
0010
0000
1000
0000
0001
0010
,  // measure 38
1000
0000
0100
0000
0010
0000
0001
1000
0100
0000
0101
0000
1100
0000
0110
0000
,  // measure 39
0002
0000
0000
0000
1003
0000
1000
0010
0100
0000
0100
0000
0001
0000
1000
0000
,  // measure 40
1001
0000
0010
0000
0110
0000
0000
1010
0000
0000
0100
0000
0001
0000
0010
0100
,  // measure 41
0010
0000
1000
0000
0100
0000
0010
0001
0010
0000
1100
0000
0101
0000
0011
0000
,  // measure 42
1010
0000
0100
0000
1001
0000
0010
1000
0100
0000
0100
0010
0000
1000
0100
0000
,  // measure 43
0011
0100
1001
1100
0010
0001
0100
0010
,  // measure 44
1000
1000
0100
0010
1000
0100
0001
1000
0010
0001
0001
1000
0100
0001
0000
0000
,  // measure 45
1000
0010
1000
1000
0100
0001
0010
1000
0001
0100
1000
0001
0010
1000
0000
0000
,  // measure 46
0010
1000
0100
0001
1000
0100
0010
0010
0100
0001
1000
0001
0010
1000
0000
0000
,  // measure 47
1000
0100
0010
1000
0001
0001
0100
0010
1000
0100
1000
0010
0100
0001
0001
0010
,  // measure 48
0100
0000
1100
0000
0101
0000
0010
1100
0000
0001
0011
0000
0001
0000
0100
0000
,  // measure 49
0010
0000
0110
0000
0001
0000
1000
0011
0000
0100
1100
0000
0010
0000
0100
0000
,  // measure 50
0001
0000
0101
0000
0011
0000
1000
0101
0000
0010
1010
0000
0010
0000
0001
0000
,  // measure 51
1000
0000
1001
0000
0010
0000
0100
1010
0000
0001
0101
0000
1000
0000
0001
0100
,  // measure 52
0020
0000
0000
0000
,  // measure 53
0200
0000
0030
0000
,  // measure 54
0002
0000
0300
0000
,  // measure 55
2000
0000
0003
0000
,  // measure 56
3000
0000
0000
0000
;
