#TITLE:Stickerbrush Symphony Cover;
#SUBTITLE:;
#ARTIST:Burning Idol;
#TITLETRANSLIT:;
#SUBTITLETRANSLIT:;
#ARTISTTRANSLIT:;
#GENRE:;
#CREDIT:;
#BANNER:Stickerbrush Symphony Cover.png;
#BACKGROUND:Stickerbrush Symphony Cover-bg.png;
#LYRICSPATH:;
#CDTITLE:cdtitle.png;
#MUSIC:Stickerbrush Symphony Cover.ogg;
#OFFSET:0.205000;
#SAMPLESTART:69.293999;
#SAMPLELENGTH:15.000000;
#SELECTABLE:YES;
#DISPLAYBPM:*;
#BPMS:0.000000=196.960007
,29.000000=393.920013
,32.000000=196.960007
,90.000000=98.480003
,94.000000=393.920013
,108.000000=98.480003
,108.500000=393.920013
,146.000000=98.480003
,150.000000=196.960007
,151.000000=393.920013
,353.000000=196.960007
,407.000000=393.920013
,471.000000=196.960007
,498.000000=393.920013
,500.000000=196.960007
,531.000000=393.920013
,534.000000=196.960007
,554.000000=98.480003
;
#STOPS:10.000000=0.608000,
16.000000=0.608000,
22.000000=0.608000,
32.500000=0.152000,
33.000000=0.152000,
34.000000=0.152000,
34.500000=0.152000,
35.500000=0.152000,
36.500000=0.152000,
37.500000=0.152000,
38.000000=0.152000,
39.000000=0.152000,
39.500000=0.152000,
40.500000=0.152000,
41.500000=0.152000,
42.500000=0.152000,
43.000000=0.152000,
44.000000=0.152000,
44.500000=0.152000,
45.500000=0.152000,
46.500000=0.152000,
47.500000=0.152000,
48.000000=0.152000,
49.000000=0.152000,
50.000000=0.152000,
50.500000=0.152000,
52.000000=1.218000,
53.000000=0.152000,
53.500000=0.152000,
54.000000=0.152000,
54.500000=0.152000,
55.000000=0.152000,
55.500000=0.152000,
61.000000=1.218000,
62.000000=0.152000,
62.500000=0.152000,
63.000000=0.304000,
66.500000=0.152000,
70.500000=1.218000,
71.500000=0.152000,
72.000000=0.152000,
72.500000=0.152000,
73.000000=0.152000,
73.500000=0.152000,
74.000000=0.152000,
79.500000=0.608000,
80.500000=0.152000,
81.000000=0.152000,
81.500000=0.152000,
82.000000=0.152000,
82.500000=0.304000,
86.000000=0.150000,
116.500000=0.304000,
117.500000=0.304000,
118.500000=0.152000,
146.000000=0.304000,
147.500000=0.304000,
159.000000=0.304000,
160.000000=0.304000,
161.000000=0.152000,
186.000000=0.304000,
187.000000=0.304000,
188.000000=0.152000,
195.000000=0.152000,
196.000000=0.304000,
197.000000=0.304000,
198.000000=0.152000,
205.000000=0.152000,
206.000000=0.304000,
207.000000=0.304000,
208.000000=0.152000,
360.500000=0.304000,
363.500000=0.304000,
375.000000=0.304000,
376.000000=0.152000,
377.500000=0.152000,
379.000000=0.152000,
379.500000=0.152000,
382.000000=0.152000,
383.000000=0.152000,
392.000000=0.152000,
392.500000=0.152000,
393.000000=0.152000,
397.500000=0.304000,
398.000000=0.304000,
398.500000=0.152000,
473.000000=0.152000,
474.000000=0.152000,
480.000000=0.152000,
481.000000=0.152000,
487.000000=0.152000,
488.000000=0.152000,
494.000000=0.152000,
495.000000=0.152000,
534.500000=0.152000,
535.000000=0.152000,
536.000000=0.152000,
536.500000=0.152000,
537.500000=0.152000,
538.500000=0.152000,
539.500000=0.152000,
540.000000=0.152000,
541.000000=0.152000,
541.500000=0.152000,
542.500000=0.152000,
543.500000=0.152000,
544.500000=0.152000,
545.000000=0.152000,
546.000000=0.152000,
546.500000=0.152000,
547.500000=0.152000,
548.500000=0.152000,
549.500000=0.152000,
550.000000=0.152000,
551.000000=0.152000,
552.000000=0.152000
;
#BGCHANGES:7.000=Stickerbrush Symphony Cover.avi=1.000=1=0=0=StretchNoLoop==CrossFade==,
554.000=Stickerbrush Symphony Cover-bg.png=1.000=1=0=1===CrossFade==,
99999=-nosongbg-=1.000=0=0=0 // don't automatically add -songbackground-
;
#KEYSOUNDS:;
#ATTACKS:;

//---------------dance-single - ----------------
#NOTES:
     dance-single:
     :
     Hard:
     16:
     0.586160,0.976590,0.188032,0.147739,0.013431,611.000000,583.000000,28.000000,22.000000,0.000000,0.000000,0.586160,0.976590,0.188032,0.147739,0.013431,611.000000,583.000000,28.000000,22.000000,0.000000,0.000000:
0000
0000
0000
0000
,
0000
0000
0000
0000
,
0000
0000
0000
0000
,
0000
0000
0000
0000
,
0000
0000
0001
0000
2000
0000
0000
3100
,
0000
0010
0100
0010
,
0020
0000
0000
0031
0000
0000
0100
0000
,
0100
0010
0010
0000
,
1000
0001
0100
0010
0100
1000
0001
0100
,
0010
0001
0010
0010
0100
1000
0001
0010
,
0100
0100
0010
1000
0001
0100
0010
0100
,
0001
1000
0010
0100
0001
0001
0010
1000
,
0100
0010
0010
0001
1000
0010
0001
1000
,
0020
0030
0000
0000
0000
0000
0000
0000
0000
0000
0000
0000
0000
0000
0000
0000
0001
0000
0000
0000
0000
0000
0000
0000
0010
0000
0000
0000
0000
0000
0000
0000
1000
0000
0000
0000
0000
0000
0000
0000
0010
0000
0000
0000
0000
0000
0000
0000
0001
0000
0000
0000
0000
0000
0000
0000
0010
0000
0000
0000
0000
0000
0000
0000
,
1000
0100
0010
0001
0100
0010
1000
0100
,
0010
0000
0000
0000
0000
0000
0000
0000
0100
0000
0000
0000
0000
0000
0000
0000
0020
0030
0000
0000
0000
0000
0000
0000
0000
0000
0000
0000
0000
0000
0000
0000
0001
0000
0000
0000
0000
0000
0000
0000
1000
0000
0000
0000
0000
0000
0000
0000
0100
0000
0000
0000
0000
0000
0000
0000
0000
0000
0000
0000
0000
0000
0000
0000
,
0010
0001
0100
0010
1000
0100
0010
0001
,
0100
0000
0000
0000
0000
0000
0000
0000
0010
0000
0000
0000
0000
0000
0000
0000
1000
0000
0000
0000
0000
0000
0000
0000
0100
0000
0000
0000
0000
0000
0000
0000
0001
0000
0000
0000
0000
0000
0000
0000
0020
0030
0000
0000
0000
0000
0000
0000
0000
0000
0000
0000
0000
0000
0000
0000
1000
0000
0000
0000
0000
0000
0000
0000
,
0100
0001
0100
1000
0010
0001
0010
1000
,
0100
0000
0000
0000
0000
0000
0000
0000
0010
0000
0000
0000
0000
0000
0000
0000
0001
0000
0000
0000
0000
0000
0000
0000
0100
0000
0000
0000
0000
0000
0000
0000
0010
0000
0000
0000
0000
0000
0000
0000
1000
0000
0000
0000
0000
0000
0000
0000
0100
0000
0000
0000
0000
0000
0000
0000
0020
0030
0000
0000
0000
0000
0000
0000
,
0000
0000
0000
0000
0000
0000
0000
0000
0001
0000
0000
0000
0000
0000
0000
0000
0010
0000
0000
0000
0000
0000
0000
0000
1000
0000
0000
0000
0000
0000
0000
0000
0100
0000
0000
0000
0000
0000
0000
0000
0020
0030
0000
0000
0000
0000
0000
0000
0000
0000
0000
0000
0000
0000
0000
0000
0010
0000
0000
0000
0000
0000
0000
0000
,
0001
0010
0100
1000
0010
1000
0100
0010
,
0001
0000
0100
0000
0010
0000
1000
0000
1000
0000
0100
0000
0010
0000
0000
1001
,
0000
0100
0100
0010
0002
0000
0000
0000
,
0000
0000
0000
0000
,
0000
0000
0000
0000
,
0000
0000
0003
0000
,
1000
2000
0000
0000
0000
0000
0000
0000
,
0000
0000
0000
0000
,
0000
3001
0000
0100
0000
0010
0000
0001
,
0000
0010
0000
1000
0000
0100
0000
0010
,
0000
0001
0000
0100
0000
0010
0000
0001
,
0000
1000
0000
0100
0000
0010
0000
0100
,
0000
0010
0000
0001
0000
0100
0000
2000
,
0000
0000
0000
0000
,
0000
0000
0000
0000
,
0000
0000
0000
0000
3001
0010
0100
1000
,
0001
0010
0100
1000
0010
0000
0020
0000
,
0000
0000
0000
0000
,
0000
0000
0000
0031
,
1000
0010
0001
0010
,
1000
0100
0010
0001
,
0100
0010
1000
0100
,
0010
0001
0100
0010
,
1000
0100
0020
0000
,
0000
0000
0000
0000
,
0000
0030
1001
0110
,
1000
0200
0000
0000
,
0000
0000
0000
0310
,
0001
0110
1000
0200
,
0000
0000
0000
0000
,
0000
0310
0001
0100
,
0010
1000
0100
0010
,
0001
0100
0010
1000
,
0100
0001
0010
1000
,
0100
0000
0001
1000
0001
1000
0001
0100
,
0001
0100
0010
0000
0001
0000
0100
0000
,
0000
0100
1000
0000
0000
0000
0000
0100
,
0010
0000
0000
0000
0000
1000
0001
0000
,
0000
0100
1000
0000
0000
0010
0100
0000
,
0000
0001
1000
0000
0000
0010
0001
0000
,
0000
0010
0100
0000
0000
0000
0000
1000
,
0001
0000
0000
0000
0000
0010
1000
0000
,
0000
0001
0100
0000
0000
0010
1000
0000
,
0000
0100
0001
0000
0000
1000
0010
0000
,
0000
0001
0100
0000
0000
0000
0000
1000
,
0010
0000
0000
0000
0000
0001
0100
0000
,
0000
1000
0001
0000
0000
0100
0010
0000
,
0000
1000
0100
0000
0000
0001
0010
0000
,
0000
1000
0100
0000
0000
0000
0000
0100
,
0010
0000
0000
0000
0000
0001
1000
0000
,
0000
0100
0010
0100
0001
0010
0001
1000
,
0100
0001
0100
0000
1100
0000
0010
0000
,
0001
0000
0100
1000
0010
0000
0100
0000
,
0100
1000
0001
0000
1000
0000
0001
0010
,
0100
0000
0010
0000
0001
1000
0100
0000
,
0010
1000
0100
0000
0100
0000
0001
0000
,
0100
0000
1000
0010
0001
0000
1000
0000
,
1000
0010
0100
0000
0010
0000
0100
0001
,
1000
0000
0001
0000
0100
0010
1000
0000
,
0001
0010
1000
0000
0011
0000
0100
0000
,
1000
0000
0010
0001
0100
0000
0010
0000
,
0010
0001
1000
0000
0001
0000
1000
0100
,
0010
0000
0100
0000
1000
0001
0010
0000
,
0100
0001
0010
0000
0010
0000
1000
0000
,
0010
0000
0001
0100
1000
0000
0001
0000
,
0001
0100
0010
0000
0100
0000
0010
1000
,
0001
0100
1000
0100
0010
0100
0001
0010
,
1000
0100
0010
0000
0000
0000
1001
0000
,
0000
0000
0100
0010
0001
0100
0010
1000
,
0100
1000
0010
0000
0100
0000
0010
0000
0001
0000
0100
0000
0001
0100
1000
0000
,
0010
0000
0001
0000
0100
0000
0010
0000
0001
1000
0010
0000
0000
0000
0000
0000
,
0000
0110
0000
1000
,
0100
0010
0001
0100
,
1001
0100
0010
0100
0000
0000
1010
0110
,
0011
1000
0001
1100
,
0010
0000
0001
0000
0100
0010
0100
0000
,
1100
0000
0011
0000
1000
0100
0001
0000
,
1100
0011
0101
1010
0000
0100
0010
0100
,
0000
1001
0000
1100
0110
0011
1000
0000
,
0100
0010
1001
1001
,
0100
0010
0100
0001
,
0010
1000
0100
0010
,
0001
0100
0010
1000
,
0100
0000
0100
0000
0001
0000
0100
0001
,
1000
0000
0010
0100
1000
0000
0100
0000
,
0001
0010
1000
0001
,
0100
1000
0001
0010
,
1000
0000
1000
0000
0100
0000
1000
0100
,
0010
0000
0001
1000
0010
0000
0010
0000
,
1000
0100
0001
1000
,
0010
0001
1000
0100
,
0001
0000
0001
0000
0010
0000
0001
0010
,
0100
0000
1000
0001
0100
0000
0001
0000
,
0010
0001
0001
0100
,
0010
0000
1000
0000
0100
0000
1000
0100
,
0010
0100
0001
0010
0100
1000
0001
0010
,
0100
0010
1000
0001
0100
0010
0100
0000
,
0200
0010
0010
0010
,
0310
0000
0110
0002
,
1000
1000
1000
1003
,
0000
1001
0020
0100
,
0100
0100
0130
0000
,
0110
2000
0001
0001
,
0001
3001
0010
0010
,
2000
0000
0000
0000
,
0000
0000
0000
3000
,
0002
0000
0000
0000
,
0000
0000
0000
0003
,
0200
0000
0000
0000
,
0000
0000
0000
0300
,
0020
0000
0000
0000
,
0000
0000
0030
0100
,
0100
0000
0000
0000
1000
0001
0100
0010
,
0100
1000
0001
0100
0010
0001
0010
0010
,
0100
1000
0001
0010
0100
0100
0010
1000
,
0001
0100
0010
0100
0001
1000
0010
0100
,
0001
0001
0010
1000
0100
0010
0010
0001
,
1000
0010
0001
1000
0100
0000
0000
0000
;

//---------------dance-single - ----------------
#NOTES:
     dance-single:
     :
     Challenge:
     17:
     0.578486,0.976590,0.188032,0.147739,0.020146,603.000000,575.000000,28.000000,22.000000,100.000000,0.000000,0.578486,0.976590,0.188032,0.147739,0.020146,603.000000,575.000000,28.000000,22.000000,100.000000,0.000000:
0000
0000
0000
0000
,
0000
0000
0000
0000
,
0000
0000
0000
0000
,
0000
0000
0000
0000
,
MMMM
0000
0001
0000
2000
0000
0000
3100
,
0000
0010
0100
0010
,
0020
0000
0000
0031
0000
0000
0100
0000
,
0100
0010
0010
MMMM
,
1000
0001
0100
0010
0100
1000
0001
0100
,
0010
0001
0010
0010
0100
1000
0001
0010
,
0100
0000
0100
0000
0010
0000
1000
MMMM
0001
0000
0100
0000
0010
0000
0100
0000
,
0001
1000
0010
0100
0001
0001
0010
1000
,
0100
0010
0010
0001
1000
0010
0001
1000
,
0020
0030
0000
0000
0000
0000
0000
0000
0000
0000
0000
0000
0000
0000
0000
0000
MMMM
0000
0000
0000
0000
0000
0000
0000
0010
0000
0000
0000
0000
0000
0000
0000
1000
0000
0000
0000
0000
0000
0000
0000
0010
0000
0000
0000
0000
0000
0000
0000
0001
0000
0000
0000
0000
0000
0000
0000
0010
0000
0000
0000
0000
0000
0000
0000
,
1000
0100
0010
0001
0100
0010
1000
0100
,
0010
0000
0000
0000
0000
0000
0000
0000
MMMM
0000
0000
0000
0000
0000
0000
0000
0020
0030
0000
0000
0000
0000
0000
0000
0000
0000
0000
0000
0000
0000
0000
0000
0001
0000
0000
0000
0000
0000
0000
0000
1000
0000
0000
0000
0000
0000
0000
0000
0100
0000
0000
0000
0000
0000
0000
0000
MMMM
0000
0000
0000
0000
0000
0000
0000
,
0010
0001
0100
0010
1000
0100
0010
0001
,
0100
0000
0000
0000
0000
0000
0000
0000
0010
0000
0000
0000
0000
0000
0000
0000
1000
0000
0000
0000
0000
0000
0000
0000
0100
0000
0000
0000
0000
0000
0000
0000
0001
0000
0000
0000
0000
0000
0000
0000
0020
0030
0000
0000
0000
0000
0000
0000
0000
0000
0000
0000
0000
0000
0000
0000
MMMM
0000
0000
0000
0000
0000
0000
0000
,
0100
0001
0100
1000
0010
0001
0010
1000
,
0100
0000
0000
0000
0000
0000
0000
0000
0010
0000
0000
0000
0000
0000
0000
0000
0001
0000
0000
0000
0000
0000
0000
0000
0100
0000
0000
0000
0000
0000
0000
0000
0010
0000
0000
0000
0000
0000
0000
0000
1000
0000
0000
0000
0000
0000
0000
0000
0100
0000
0000
0000
0000
0000
0000
0000
0020
0030
0000
0000
0000
0000
0000
0000
,
0000
0000
0000
0000
0000
0000
0000
0000
MMMM
0000
0000
0000
0000
0000
0000
0000
0010
0000
0000
0000
0000
0000
0000
0000
1000
0000
0000
0000
0000
0000
0000
0000
0100
0000
0000
0000
0000
0000
0000
0000
0020
0030
0000
0000
0000
0000
0000
0000
0000
0000
0000
0000
0000
0000
0000
0000
0010
0000
0000
0000
0000
0000
0000
0000
,
0001
0010
0100
1000
0010
1000
0100
0010
,
0001
0000
0100
0000
0010
0000
1000
0000
MMMM
0000
0100
0000
0010
0000
0000
1001
,
0000
0100
0100
0010
0002
0000
0000
0000
,
0000
0000
0000
0000
,
0000
0000
0000
0000
,
0000
0000
0003
MMMM
,
1000
2000
0000
0000
0000
0000
0000
0000
,
0000
0000
0000
0000
,
0000
3001
0000
0100
0000
0010
0000
0001
,
0000
0010
0000
1000
0000
0100
0000
0010
,
0000
0001
0000
0100
0000
0010
0000
0001
,
0000
1000
0000
0100
0000
0010
0000
0100
,
0000
0010
0000
0001
0000
0100
0000
2000
,
0000
0000
0000
0000
,
0000
0000
0000
0000
,
0000
0000
0000
0000
3001
0010
0100
1000
,
0001
0010
0100
MMMM
0010
0000
0020
0000
,
0000
0000
0000
0000
,
0000
0000
0000
0031
,
1000
0010
0001
0010
,
1000
0100
0010
0001
,
0100
0010
1000
0100
,
0010
0001
0100
0010
,
1000
0100
0020
0000
,
0000
0000
0000
0000
,
0000
0030
1001
0110
,
1000
0200
0000
0000
,
0000
0000
0000
0310
,
0001
0110
1000
0200
,
0000
0000
0000
0000
,
0000
0310
0001
0100
,
0010
1000
0100
0010
,
0001
0100
0010
1000
,
0100
0001
0010
1000
,
0100
0000
0001
1000
0001
1000
0001
0100
,
0001
0100
0010
0000
MMMM
0000
0100
0000
,
0000
0100
1000
0000
0000
0000
0000
0100
,
0010
0000
0000
0000
0000
1000
0001
0000
,
0000
0100
1000
0000
0000
0010
0100
0000
,
0000
0001
1000
0000
0000
0010
0001
0000
,
0000
0010
0100
0000
0000
0000
0000
1000
,
0001
0000
0000
0000
0000
0010
1000
0000
,
0000
0001
0100
0000
0000
0010
1000
0000
,
0000
0100
0001
0000
0000
1000
0010
0000
,
0000
0001
0100
0000
0000
0000
0000
1000
,
0010
0000
0000
0000
0000
0001
0100
0000
,
0000
1000
0001
0000
0000
0100
0010
0000
,
0000
1000
0100
0000
0000
0001
0010
0000
,
0000
1000
0100
0000
0000
0000
0000
0100
,
0010
0000
0000
0000
0000
0001
1000
0000
,
0000
0100
0010
0100
0001
0010
0001
1000
,
0100
0001
0100
0000
1100
0000
0010
0000
,
0001
0000
0100
1000
0010
0000
0100
0000
,
0100
1000
0001
0000
1000
0000
0001
0010
,
0100
0000
0010
0000
0001
1000
0100
0000
,
0010
1000
0100
0000
0100
0000
0001
0000
,
0100
0000
1000
0010
0001
0000
1000
0000
,
1000
0010
0100
0000
0010
0000
0100
0001
,
1000
0000
0001
0000
0100
0010
1000
0000
,
0001
0010
1000
0000
0011
0000
0100
0000
,
1000
0000
0010
0001
0100
0000
0010
0000
,
0010
0001
1000
0000
0001
0000
1000
0100
,
0010
0000
0100
0000
1000
0001
0010
0000
,
0100
0001
0010
0000
0010
0000
1000
0000
,
0010
0000
0001
0100
1000
0000
0001
0000
,
0001
0100
0010
0000
0100
0000
0010
1000
,
0001
0100
1000
0100
0010
0100
0001
0010
,
1000
0100
0010
0000
MMMM
0000
1001
0000
,
0000
0000
0100
0010
0001
0100
0010
1000
,
0100
1000
0010
0000
0100
0000
0010
0000
0001
0000
0100
0000
0001
0100
1000
0000
,
0010
0000
0001
0000
0100
0000
0010
0000
0001
1000
0010
0000
0000
0000
0000
0000
,
MMMM
0110
0000
1000
,
0100
0000
0010
0000
0001
0000
0100
MMMM
,
1001
0100
0010
0100
0000
0000
1010
0110
,
0011
1000
0001
1100
,
0010
0000
0001
0000
0100
0010
0100
0000
,
1100
0000
0011
0000
1000
0100
0001
0000
,
1100
0011
0101
1010
0000
0100
0010
0100
,
0000
1001
0000
1100
0110
0011
1000
0000
,
0100
0010
1001
1001
,
0100
0010
MMMM
0001
,
0010
1000
0100
0010
,
0001
0100
0010
1000
,
0100
0000
0100
0000
0001
0000
0100
0001
,
1000
0000
0010
0100
1000
0000
0100
0000
,
0001
0010
1000
0001
,
0100
1000
0001
0010
,
1000
0000
1000
0000
0100
0000
1000
0100
,
0010
0000
0001
1000
0010
0000
0010
0000
,
1000
0100
0001
1000
,
0010
0001
1000
0100
,
0001
0000
0001
0000
0010
0000
0001
0010
,
0100
0000
1000
0001
0100
0000
0001
0000
,
0010
0001
0001
0100
,
0010
0000
1000
0000
0100
0000
1000
0100
,
0010
0100
0001
0010
0100
1000
0001
0010
,
0100
0010
1000
0001
0100
0010
0100
0000
,
0200
0010
0010
0010
,
0310
MMMM
0110
0002
,
1000
1000
1000
1003
,
MMMM
1001
0020
0100
,
0100
0100
0130
MMMM
,
0110
2000
0001
0001
,
0001
3001
0010
0010
,
2000
0000
0000
0000
,
0000
0000
3000
MMMM
,
0002
0000
0000
0000
,
0000
0000
0003
MMMM
,
0200
0000
0000
0000
,
0000
0000
0300
MMMM
,
0020
0000
0000
0000
,
0000
0030
MMMM
0100
,
0100
0000
MMMM
0000
1000
0001
0100
0010
,
0100
1000
0001
0100
0010
0001
0010
0010
,
0100
0000
1000
0000
0001
0000
0010
0000
0100
0000
0100
0000
0010
0000
1000
MMMM
,
0001
0100
0010
0100
0001
1000
0010
0100
,
0001
0001
0010
1000
0100
0010
0010
0001
,
1000
0010
0001
1000
0010
0000
0000
0000
;

//---------------dance-single - ----------------
#NOTES:
     dance-single:
     :
     Beginner:
     5:
     0.136227,0.232521,0.020146,0.060439,0.000000,142.000000,139.000000,3.000000,9.000000,0.000000,0.000000,0.136227,0.232521,0.020146,0.060439,0.000000,142.000000,139.000000,3.000000,9.000000,0.000000,0.000000:
// measure 0
0000
0000
0000
0000
,  // measure 1
0000
0000
0000
0000
,  // measure 2
0000
0000
0000
0000
,  // measure 3
0000
0000
0000
0000
,  // measure 4
0000
0010
0000
0000
,  // measure 5
0000
0000
0000
0100
,  // measure 6
0000
0000
0000
0000
,  // measure 7
0000
0001
0000
0000
,  // measure 8
0001
0000
0000
0000
,  // measure 9
0000
0000
0000
0000
,  // measure 10
0000
0000
0000
0000
0000
0001
0000
0000
,  // measure 11
0000
0000
0000
0000
,  // measure 12
0000
0000
0000
0001
,  // measure 13
0001
0100
0000
0000
,  // measure 14
0000
0100
0000
1000
,  // measure 15
0000
0100
0000
0000
,  // measure 16
0100
0000
0000
0000
0000
0000
0000
0100
,  // measure 17
0000
0000
0000
0000
0000
0000
0000
0100
,  // measure 18
0000
0000
0010
0000
,  // measure 19
0000
0000
0000
1001
0000
0000
0000
0100
,  // measure 20
0000
0000
0000
0000
0000
0000
0000
0001
,  // measure 21
0000
0000
0000
0001
0000
0000
0100
0000
,  // measure 22
0000
0100
0000
0100
,  // measure 23
0000
0000
0002
0000
,  // measure 24
0000
0000
0000
0000
,  // measure 25
0000
0000
0000
0000
,  // measure 26
0000
0000
0000
0003
,  // measure 27
0000
2000
0000
0000
0000
0000
0000
0000
,  // measure 28
0000
0000
0000
0000
,  // measure 29
0000
3000
0000
0000
0000
0000
0000
0001
,  // measure 30
0000
0000
0000
0000
,  // measure 31
0000
0000
0000
0000
0000
0000
0000
1000
,  // measure 32
0000
0000
0000
0000
,  // measure 33
0000
0000
0000
0000
0000
0000
0000
0020
,  // measure 34
0000
0000
0000
0000
,  // measure 35
0000
0000
0000
0000
,  // measure 36
0000
0000
0000
0000
0030
0000
0000
0100
,  // measure 37
0000
0000
0001
0002
,  // measure 38
0000
0000
0000
0000
,  // measure 39
0000
0000
0000
0003
,  // measure 40
0000
0000
0100
0000
,  // measure 41
0000
0000
0000
0000
,  // measure 42
0000
0000
0010
0000
,  // measure 43
0000
0000
0000
0000
,  // measure 44
0000
0000
0200
0000
,  // measure 45
0000
0000
0000
0000
,  // measure 46
0000
0000
0300
0000
,  // measure 47
0000
0001
0000
0000
,  // measure 48
0000
0000
0000
0000
,  // measure 49
0000
0000
0000
0100
,  // measure 50
0000
0000
0000
0000
,  // measure 51
0000
0000
0000
0000
,  // measure 52
0000
0010
0000
0000
,  // measure 53
0000
0000
0000
0000
,  // measure 54
0000
0100
0000
0000
,  // measure 55
0000
0000
0000
0000
,  // measure 56
0000
1000
0000
1000
,  // measure 57
0000
1000
0000
0000
,  // measure 58
0100
0000
0000
0010
,  // measure 59
0000
0010
0000
0000
,  // measure 60
0000
0001
0000
0100
,  // measure 61
0000
1000
0000
0000
,  // measure 62
0010
0000
0000
0100
,  // measure 63
0000
0010
0000
0100
,  // measure 64
0000
0000
0000
0000
,  // measure 65
0000
1001
0000
0000
,  // measure 66
0100
0000
0000
0001
,  // measure 67
0000
0010
0000
0000
,  // measure 68
0000
0100
0000
1000
,  // measure 69
0000
0001
0000
0000
,  // measure 70
0100
0000
0000
0010
,  // measure 71
0000
1000
0000
1000
,  // measure 72
0000
0000
0000
0000
,  // measure 73
0000
0001
0000
0000
,  // measure 74
0000
1000
0000
0000
,  // measure 75
0000
0001
0000
0000
,  // measure 76
0000
1000
0000
0000
,  // measure 77
0000
0001
0000
0000
,  // measure 78
0000
1000
0000
0000
,  // measure 79
0000
0001
0000
0000
,  // measure 80
0000
0000
0000
0000
,  // measure 81
0000
0100
0000
0000
,  // measure 82
0000
0010
0000
0000
,  // measure 83
0000
0100
0000
0000
,  // measure 84
0000
0010
0000
0000
,  // measure 85
0000
0100
0000
0000
,  // measure 86
0000
0010
0000
0000
,  // measure 87
0000
0100
0000
0100
,  // measure 88
0000
1000
0000
0000
,  // measure 89
0000
0000
0000
0001
,  // measure 90
0000
0000
0100
0000
,  // measure 91
0000
1000
0000
0010
,  // measure 92
0000
0000
0000
0100
,  // measure 93
0000
0001
0000
0010
,  // measure 94
0000
0000
0000
0000
,  // measure 95
0010
0000
0000
0000
,  // measure 96
0010
0000
0001
0001
,  // measure 97
0000
0000
1000
1000
,  // measure 98
0000
0000
0000
0100
0000
0000
0000
0001
,  // measure 99
0000
0000
0000
0010
0000
0000
1000
0000
,  // measure 100
0000
0001
0000
0100
,  // measure 101
0000
0010
0000
1000
,  // measure 102
0000
0000
0000
0000
,  // measure 103
0000
0000
0000
0001
,  // measure 104
0000
0000
0100
0000
,  // measure 105
0000
0010
0000
1000
,  // measure 106
0000
0000
0000
0110
,  // measure 107
0000
0001
0000
0100
,  // measure 108
0000
0000
0010
0000
,  // measure 109
0000
1000
0000
0100
,  // measure 110
0000
0000
0000
0010
,  // measure 111
0000
0001
0000
0100
,  // measure 112
0000
0000
0010
0000
,  // measure 113
0000
1000
0000
0100
,  // measure 114
0000
0000
0000
0010
,  // measure 115
0000
0010
0000
0000
,  // measure 116
0001
0000
0000
0100
,  // measure 117
0000
0100
0000
1000
,  // measure 118
0000
0000
0100
0000
,  // measure 119
0000
0100
0100
0000
,  // measure 120
0000
0010
0000
0000
,  // measure 121
0010
0010
0000
0000
,  // measure 122
1000
0000
0000
1000
,  // measure 123
1000
0000
0000
0000
,  // measure 124
0000
0000
0001
0000
,  // measure 125
0002
0000
0000
0000
,  // measure 126
0003
0000
0000
0000
,  // measure 127
0020
0000
0000
0000
,  // measure 128
0030
0000
0000
0000
,  // measure 129
0200
0000
0000
0000
,  // measure 130
0300
0000
0000
0000
,  // measure 131
2000
0000
0000
0000
,  // measure 132
3000
0000
0000
0001
,  // measure 133
0000
0000
0001
0000
,  // measure 134
0000
0000
0000
0000
,  // measure 135
0000
0000
0000
0000
,  // measure 136
0000
0001
0000
0000
0000
0000
0000
0000
,  // measure 137
0000
0000
0000
0000
,  // measure 138
0000
0001
0001
0000
;

//---------------dance-single - ----------------
#NOTES:
     dance-single:
     :
     Easy:
     7:
     0.218731,0.465043,0.087300,0.134308,0.010073,228.000000,215.000000,13.000000,20.000000,0.000000,0.000000,0.218731,0.465043,0.087300,0.134308,0.010073,228.000000,215.000000,13.000000,20.000000,0.000000,0.000000:
0000
0000
0000
0000
,
0000
0000
0000
0000
,
0000
0000
0000
0000
,
0000
0000
0000
0000
,
0000
0000
0010
0000
0010
0000
0000
0001
,
0000
0100
0100
1000
,
1000
0000
0000
0001
0000
0000
0010
0000
,
0010
0000
0000
0000
,
0200
0000
0000
0000
,
0000
0000
0000
0000
,
0000
0000
0000
0000
,
0000
0000
0000
0000
,
0000
0000
0000
0300
,
0010
0100
1000
0100
,
0001
0010
0100
1000
,
0010
1001
0001
1000
,
0100
0000
0001
0000
0010
0000
0000
0100
,
0000
1000
0000
0010
0000
0100
0000
0010
,
0000
1001
0000
0100
0000
1001
0000
0000
,
0000
0010
0000
1000
0000
0100
0000
0010
,
0000
1000
0000
0001
0000
0110
0000
0010
,
0000
0001
0000
0100
0000
0000
0100
0000
,
1000
0010
0100
0000
,
0000
0000
0000
1000
2000
0000
0000
0000
,
0000
0000
0000
0000
,
0000
0000
0000
0000
,
0000
0000
0000
3000
,
0001
0002
0000
0000
0000
0000
0000
0000
,
0000
0000
0000
0000
,
0000
0000
0000
0000
0000
0000
0000
0203
,
0000
0000
0000
0000
,
0000
0000
0000
0000
,
0320
0000
0000
0000
,
0000
0000
0000
0000
,
0002
0030
0000
0000
0000
0000
0000
0000
,
0000
0000
0000
0000
,
0000
0000
0003
0100
,
0000
0100
0000
0100
0001
0000
0002
0000
,
0000
0000
0000
0000
,
0000
0000
0000
0000
,
0000
0000
2003
0000
,
0000
0000
0000
0000
,
0000
0000
3020
0000
,
0000
0000
0000
0000
,
0000
0000
0230
0000
,
0000
0000
0000
0000
,
0000
0000
0000
0000
,
0000
0320
0000
0000
,
0000
0000
0000
0000
,
0000
0000
0000
2030
,
0000
0000
0000
0000
,
0000
0000
0000
0000
,
0000
3002
0000
0000
,
0000
0000
0000
0000
,
0000
0000
0000
0000
,
0000
0000
0000
0000
,
0000
1003
0000
0100
,
0000
0010
0000
0001
,
0001
0000
1000
1000
,
0000
0010
0000
0100
,
0000
0001
0000
0010
,
0000
0100
0000
0010
,
0010
0000
0100
0100
,
0000
1001
0000
1001
,
0000
0000
0000
0000
,
0000
0110
0000
0001
,
0100
0000
0100
1000
,
0000
0010
0000
0010
,
0000
0100
0000
0001
,
0000
0010
0000
0100
,
1000
0000
1000
0010
,
0000
0010
0000
0001
,
0000
0000
0100
0000
,
0000
1000
0000
0000
,
0010
0000
0000
0100
,
0000
0001
0000
0010
,
0000
0000
0100
0000
,
0000
1000
0000
0000
,
0010
0000
0000
0001
,
0000
0100
0000
1000
,
0000
0000
0001
0000
,
0000
0100
0000
0000
,
1000
0000
0000
0001
,
0000
0010
0000
1000
,
0000
0000
0001
0000
,
0000
0100
0000
0000
,
1000
0000
0000
0010
,
0000
0001
0000
0100
,
0000
1000
0000
0110
,
0000
0001
1000
0100
,
0010
0100
0010
0001
,
0100
0010
1000
0000
,
0000
0110
0000
0001
,
0000
1000
0100
0010
,
0110
0000
0000
0100
0000
0000
0001
0000
,
1000
0000
0010
0000
,
0000
0010
0000
0000
,
0000
0001
0000
0000
,
0000
1001
0000
0100
0000
0000
0000
0010
,
0000
0000
0000
1000
0000
0000
0001
0000
,
0000
0100
0000
0001
,
0000
0010
0000
0100
,
0000
0100
0000
0001
,
0000
0010
0000
0100
,
0000
0100
0000
0010
,
0000
0010
0010
0000
,
0000
1000
0000
0100
,
0000
0010
0000
0001
,
0000
0100
0000
0001
,
0000
1000
1000
0000
,
0000
0100
0000
0001
,
0000
0010
0000
0100
,
0000
1000
0000
0010
,
0000
0100
0100
0000
,
0000
0010
0000
0001
,
0000
0100
0000
0010
,
0000
1000
0000
0001
,
0000
0100
0100
0100
,
0000
0000
0000
0000
0000
0000
0000
0000
0000
0000
0000
0000
0000
0000
0000
0000
0000
0000
0000
0000
0000
0000
0000
0000
0000
0000
0000
0000
0000
0000
0000
0000
0000
0000
0000
0000
0000
0000
0000
0000
0000
0000
0000
0000
0000
0000
0000
0000
0000
0000
0000
0000
0000
0000
0000
0000
0000
0000
0000
0000
0000
0000
0000
0000
0000
0000
0000
0000
0000
0000
0000
0000
0000
0000
0000
0000
0000
0000
0000
0000
0000
0000
0000
0000
0000
0000
0000
0000
0000
0000
0000
0000
0000
0000
0000
0000
0000
0100
0000
0000
0000
0000
0000
0000
0000
0000
0000
0000
0000
0000
0000
0000
0000
0000
0000
0000
0000
0000
0000
0000
0000
0000
0000
0000
0000
0000
0000
0000
0000
0000
0000
0000
0000
0000
0000
0000
0000
0000
0000
0000
0000
0000
0000
0000
0000
0000
0000
0000
0000
0000
0000
0000
0000
0000
0000
0000
0000
0000
0000
0000
0000
0000
0000
0000
0000
0000
0000
0000
0100
0000
0000
0000
0000
0000
0000
0000
0000
0000
0000
0000
0000
0000
0000
0000
0000
0000
0000
0000
0000
0000
0000
0000
,
0000
0100
0100
0000
,
0000
0001
0000
0000
0000
0000
0000
0000
0000
0000
0000
0000
0000
0000
0000
0000
0000
0000
0000
0000
0000
0000
0000
0000
0000
0000
0000
0000
0000
0000
0000
0000
0000
0000
0000
0000
0000
0000
0000
0000
0000
0000
0000
0000
0000
0000
0000
0000
1000
0000
0000
0000
0000
0000
0000
0000
0000
0000
0000
0000
0000
0000
0000
0000
0000
0000
0000
0000
0000
0000
0000
0000
0000
0000
0000
0000
0000
0000
0000
0000
0000
0000
0000
0000
0000
0000
0000
0000
0000
0000
0000
0000
0000
0000
0000
0000
0100
0000
0000
0000
0000
0000
0000
0000
0000
0000
0000
0000
0000
0000
0000
0000
0000
0000
0000
0000
0000
0000
0000
0000
0000
0000
0000
0000
0000
0000
0000
0000
0000
0000
0000
0000
0000
0000
0000
0000
0000
0000
0000
0000
0000
0000
0000
0000
0000
0000
0000
0000
0000
0000
0000
0000
0000
0000
0000
0000
0000
0000
0000
0000
0000
0000
0000
0000
0000
0000
0000
0000
0001
0000
0000
0000
0000
0000
0000
0000
0000
0000
0000
0000
0000
0000
0000
0000
0000
0000
0000
0000
0000
0000
0000
0000
,
0000
0000
0010
0000
0000
0000
0000
0100
,
0000
0100
0000
0000
0000
0000
0000
0000
0000
0000
0000
0000
0000
0000
0000
0000
0000
0000
0000
0000
0000
0000
0000
0000
0000
0000
0000
0000
0000
0000
0000
0000
0000
0000
0000
0000
0000
0000
0000
0000
0000
0000
0000
0000
0000
0000
0000
0000
0000
0000
0000
0000
0000
0000
0000
0000
0000
0000
0000
0000
0000
0000
0000
0000
0000
0000
0000
0000
0000
0000
0000
0000
1000
0000
0000
0000
0000
0000
0000
0000
0000
0000
0000
0000
0000
0000
0000
0000
0000
0000
0000
0000
0000
0000
0000
0000
0000
0000
0000
0000
0000
0000
0000
0000
0000
0000
0000
0000
0000
0000
0000
0000
0000
0000
0000
0000
0000
0000
0000
0000
0000
0000
0000
0000
0000
0000
0000
0000
0000
0000
0000
0000
0000
0000
0000
0000
0000
0000
0000
0000
0000
0000
0000
0000
0010
0000
0000
0000
0000
0000
0000
0000
0000
0000
0000
0000
0000
0000
0000
0000
0000
0000
0000
0000
0000
0000
0000
0000
0000
0000
0000
0000
0000
0000
0000
0000
0000
0000
0000
0000
0000
0000
0000
0000
0000
0000
0000
0000
0000
0000
0000
0000
,
0001
0000
0000
0000
1000
1000
0000
0000
,
0100
0100
0010
0000
,
2002
0000
0000
0000
,
3003
0000
0000
0000
,
0200
0000
0000
0000
,
0300
0000
0000
0000
,
2002
0000
0000
0000
,
3003
0000
0000
0000
,
0020
0000
0000
0000
,
0030
0000
0000
0000
,
0000
0000
0200
0000
,
0000
0000
0000
0000
,
0000
0000
0000
0000
,
0000
0000
0000
0000
,
0000
0000
0000
0000
,
0000
0300
0100
0000
;

//---------------dance-single - ----------------
#NOTES:
     dance-single:
     :
     Medium:
     12:
     0.357836,0.790573,0.201463,0.248471,0.000000,373.000000,343.000000,30.000000,37.000000,0.000000,0.000000,0.357836,0.790573,0.201463,0.248471,0.000000,373.000000,343.000000,30.000000,37.000000,0.000000,0.000000:
0000
0000
0000
0000
,
0000
0000
0000
0000
,
0000
0000
0000
0000
,
0000
0000
0000
0000
,
0000
0000
0001
0000
0010
0000
0000
1001
,
0000
0100
0100
0001
,
1000
0000
0000
0110
0000
0000
0001
0000
,
0100
0020
0000
0030
,
2000
0000
0000
0000
,
0000
0000
0000
0000
,
0000
0000
0000
0000
0000
3002
0000
0000
,
0000
0000
0000
0000
,
0000
0000
0000
0103
,
0110
0000
1000
1000
1000
0000
0001
0001
,
0001
0010
1000
0101
,
1100
0000
0010
0000
0100
0100
0100
0000
,
0100
0000
0001
0000
0010
0100
0000
0001
,
0000
0010
0000
0100
1000
0000
0000
0010
,
0010
0010
0000
0100
0100
0100
0000
1000
,
0000
0001
0000
0011
0000
1010
0000
0100
,
0000
0010
0010
0010
0010
0010
0000
0100
,
0000
0100
0000
0000
1001
0000
0010
0000
,
0100
0000
0001
0001
0001
0000
0000
0000
,
0000
0000
0000
1000
2000
0000
0000
0000
,
0000
0000
0000
0000
,
0000
0000
0000
0000
,
0000
0000
0000
3000
,
0010
0020
0000
0000
0000
0000
0000
0000
,
0000
0000
0000
0000
,
0000
2030
0000
3200
0000
0320
0000
0032
,
0000
0000
0000
0000
0000
0000
0000
0003
,
0000
0000
0000
1000
0000
0001
0000
1000
,
0000
0000
0000
0000
0000
0000
0000
0010
,
0000
0000
0000
0001
0000
0000
0000
0200
,
0000
0000
0000
0000
,
0000
0000
0000
0000
,
0000
0000
0000
0000
0301
0000
1000
0001
,
0010
0000
0100
1000
0001
0000
0002
0000
,
0000
0000
0000
0000
,
0000
0000
0000
0203
,
0320
2030
3200
0000
,
0000
0000
0010
0000
,
0310
0000
0000
0000
,
0001
0000
0000
0000
,
0100
0000
2000
0000
,
0000
0000
0000
0000
,
0000
0000
3002
0203
,
0320
2030
0000
0000
,
0000
0000
0000
3020
,
0230
0302
2003
3020
,
0000
0000
0000
0000
,
0000
2030
3200
0320
,
0230
0302
0000
0000
,
0003
1000
0000
1000
,
0000
0000
0000
0010
,
0000
0000
0000
0100
,
0000
1001
0000
0010
,
0001
0100
0000
0010
,
1000
0000
0100
0010
,
0000
0001
1000
0001
,
0100
0010
1000
0100
,
0010
0100
0000
0001
,
1000
0000
0010
0100
,
0000
0001
0100
0001
,
0010
0100
1000
0100
,
0010
0100
0000
1000
,
0001
0000
0100
0010
,
0000
1000
1000
0001
,
0010
0001
0100
0010
,
1000
0100
0000
0010
,
1000
0000
0010
0001
,
0000
0100
0010
1000
,
0100
0000
0010
0001
,
0000
0101
0000
1000
,
1100
0000
0010
0000
,
0001
1000
0000
0010
,
0100
0000
0001
1000
,
0000
0110
0000
0001
,
1000
0000
1010
0000
,
0100
0010
0000
0001
,
0010
0000
1000
1000
,
0000
0011
0000
0100
,
0010
0000
0101
0000
,
0010
1000
0000
0100
,
0001
0000
1000
0010
,
0000
1001
0000
0100
,
0010
0000
1000
0100
,
0000
0011
0000
1000
,
0100
0010
0000
1001
,
0000
0100
0100
0010
,
1000
0001
0010
0000
1000
0000
0100
0001
,
0010
0000
0001
0000
0100
1000
0000
0000
,
0010
0001
0100
1010
,
0101
1001
0110
1100
,
1001
0010
1000
0100
0000
0000
1000
1000
,
1000
0010
0001
0001
,
0010
0000
1000
0000
0100
0010
0001
0000
,
0100
0000
0100
0000
1000
0100
0010
0000
,
1001
1001
0110
0110
0000
1000
0000
0100
,
0000
0010
0010
0001
0001
0001
0001
0000
,
0000
1000
1100
0000
,
0010
0001
0100
0010
,
1000
0100
0010
0001
,
0000
0010
0010
0000
,
0100
0100
0000
0010
,
0000
0010
0000
1000
,
0100
1000
0010
0100
,
0000
0010
1000
0000
,
0001
0100
0000
0001
,
0010
1000
1000
0100
,
0010
0100
0010
0001
,
0000
0010
1000
0000
,
0100
1000
0000
0010
,
0000
0100
0000
1000
,
0001
0010
0100
0001
,
0000
0100
1000
0000
,
0010
0000
1000
0000
0100
0000
0001
1000
,
0001
0000
1000
0001
1000
0000
0100
0000
,
0100
0100
0100
0100
,
0100
0000
0000
0001
,
0001
0001
0001
0001
,
0000
0000
1000
1000
,
1000
1000
1000
0000
,
0000
0010
0010
0010
,
0010
0010
2000
0000
,
3002
0000
0000
0000
,
0000
0000
0000
0000
,
0023
0000
0000
0000
,
0000
0000
0000
0000
,
0230
0000
0000
0000
,
0000
0000
0000
0000
,
2300
0000
0000
0000
,
0000
0000
0000
3001
,
0000
0000
2000
0000
,
0000
0000
0000
0000
,
0000
0000
0000
0000
,
0000
3002
0000
0000
0000
0000
0000
0000
,
0000
0000
0000
0000
,
0000
0103
0110
0000
;
