#VERSION:0.83;
#TITLE:Stay Tonight;
#SUBTITLE:;
#ARTIST:Kasino;
#TITLETRANSLIT:;
#SUBTITLETRANSLIT:;
#ARTISTTRANSLIT:;
#GENRE:;
#ORIGIN:;
#CREDIT:;
#BANNER:Stay Tonight.png;
#BACKGROUND:Stay Tonight-bg.png;
#PREVIEWVID:;
#JACKET:Stay Tonight-jacket.png;
#CDIMAGE:;
#DISCIMAGE:;
#LYRICSPATH:;
#CDTITLE:;
#MUSIC:Stay Tonight.ogg;
#OFFSET:0.000000;
#SAMPLESTART:72.349998;
#SAMPLELENGTH:15.000000;
#SELECTABLE:YES;
#DISPLAYBPM:133.000000;
#BPMS:0.000=32.240,
4.000=133.000,
172.000=135.000,
176.000=133.000;
#STOPS:;
#DELAYS:;
#WARPS:;
#TIMESIGNATURES:0.000=4=4;
#TICKCOUNTS:0.000=4;
#COMBOS:0.000=1;
#SPEEDS:0.000=1.000=0.000=0;
#SCROLLS:0.000=1.000;
#FAKES:;
#LABELS:0.000=Song Start;
#BGCHANGES:;
#KEYSOUNDS:;
#ATTACKS:
;

//---------------dance-single - ----------------
#NOTEDATA:;
#CHARTNAME:;
#STEPSTYPE:dance-single;
#DESCRIPTION:;
#CHARTSTYLE:;
#DIFFICULTY:Easy;
#METER:4;
#RADARVALUES:0.164977,0.236582,0.035643,0.185345,0.000000,162.000000,157.000000,5.000000,26.000000,0.000000,0.000000,0.000000,0.000000,0.000000,0.164977,0.236582,0.035643,0.185345,0.000000,162.000000,157.000000,5.000000,26.000000,0.000000,0.000000,0.000000,0.000000,0.000000;
#CREDIT:kater15;
#DISPLAYBPM:133.000000;
#NOTES:
0000
0000
0000
0000
,
0000
0000
0000
0000
,
0000
0000
0000
0000
,
0000
0000
0000
0000
,
0000
0000
0000
0000
,
1000
0000
0000
0100
,
0001
0000
0000
0100
,
0010
0000
0000
1000
,
0100
0000
0010
0001
,
0100
0000
0000
0100
,
1000
0000
0000
0001
,
1000
0000
0000
0010
,
1000
1000
1000
0100
,
0001
0000
0000
0100
,
0010
0000
0000
0001
,
0100
0000
0000
0010
,
0100
0000
0100
1000
,
0010
0000
0000
1000
,
0001
0000
0000
0010
,
0100
0000
0001
0001
,
1000
0100
0010
0100
,
1001
0000
1000
0000
,
0100
0000
0000
0100
,
0110
0000
1000
0000
,
0100
0001
0010
0100
,
1001
0000
0100
0000
,
0010
0000
0000
0100
,
0010
0000
0000
1000
,
0100
0000
1000
0001
,
0020
0000
0000
0030
,
0200
0000
0000
0300
,
0002
0000
0000
0003
,
0100
1000
0100
0001
,
2000
0000
0000
3000
,
0002
0000
0000
0003
,
0200
0000
0000
0000
,
0020
0000
0000
0330
,
1000
0100
1000
0000
,
0001
0100
0001
0020
,
0000
0030
1000
1000
,
0200
0300
0020
0030
,
1000
0100
1000
0000
,
0001
0100
0001
0020
,
0000
0030
1000
1000
,
0200
0300
0020
0030
,
0001
0010
0001
0000
,
1000
0010
1000
0200
,
0000
0300
0001
0001
,
0020
0030
0200
0300
,
0001
0010
0001
0000
,
1000
0010
1000
0200
,
0000
0300
0001
0001
,
0020
0030
0200
0300
,
1000
0000
0000
0100
,
0001
0000
0000
0100
,
0010
0000
0000
1000
,
0100
0000
0010
0001
,
0100
0000
0000
0100
,
1000
0000
0000
0001
,
1000
0000
0000
0010
,
1000
1000
1000
0100
,
0001
0000
0000
0100
,
0010
0000
0000
0001
,
0100
0000
0000
0010
,
0100
0000
0100
1000
,
0010
0000
0000
1000
,
0001
0000
0000
0010
,
0100
0000
0001
0001
,
1000
0100
0010
0100
,
2002
0000
3003
0000
,
0200
0000
0300
0000
,
0020
0000
0030
0000
,
2000
0000
3000
0000
,
0220
0000
0000
0330
;

//---------------dance-single - ----------------
#NOTEDATA:;
#CHARTNAME:;
#STEPSTYPE:dance-single;
#DESCRIPTION:;
#CHARTSTYLE:;
#DIFFICULTY:Beginner;
#METER:2;
#RADARVALUES:0.115077,0.156117,0.028515,0.000000,0.000000,113.000000,109.000000,4.000000,0.000000,0.000000,0.000000,0.000000,0.000000,0.000000,0.115077,0.156117,0.028515,0.000000,0.000000,113.000000,109.000000,4.000000,0.000000,0.000000,0.000000,0.000000,0.000000,0.000000;
#CREDIT:kater15;
#DISPLAYBPM:133.000000;
#NOTES:
0000
0000
0000
0000
,
0000
0000
0000
0000
,
0000
0000
0000
0000
,
0000
0000
0000
0000
,
0000
0000
0000
0000
,
0001
0000
0000
0000
,
0001
0000
0000
0000
,
0001
0000
0000
0000
,
0001
0000
0000
1000
,
1000
0000
0000
0000
,
1000
0000
0000
0000
,
1000
0000
0000
0000
,
1000
1000
1000
0000
,
0010
0000
0000
0000
,
0010
0000
0000
0000
,
0010
0000
0000
0000
,
0010
0000
0000
0100
,
0100
0000
0000
0000
,
0100
0000
0000
0000
,
0100
0000
0001
0000
,
1001
0000
0000
0000
,
0001
0000
0010
0000
,
0100
0000
1000
0000
,
0110
0000
0000
0000
,
0100
0000
0010
0000
,
1001
0000
0000
0000
,
0100
0000
0010
0000
,
0010
0000
0001
0000
,
0100
0000
0001
0001
,
0001
0000
0000
0000
,
1000
0000
0000
0000
,
0001
0000
0000
0000
,
0100
0000
0010
0000
,
1000
0000
0000
0000
,
0001
0000
0000
0000
,
0100
0000
0000
0000
,
0010
0000
0000
0000
,
1000
0000
1000
0000
,
0001
0000
0001
0000
,
0100
0000
1000
1000
,
1000
0000
0001
0000
,
1000
0000
1000
0000
,
0001
0000
0001
0000
,
0100
0000
1000
1000
,
1000
0000
0001
0000
,
0001
0000
0001
0000
,
1000
0000
1000
0000
,
0010
0000
0001
0001
,
0001
0000
1000
0000
,
0001
0000
0001
0000
,
1000
0000
1000
0000
,
0010
0000
0001
0001
,
0001
0000
1000
0000
,
0001
0000
0000
0000
,
0001
0000
0000
0000
,
0001
0000
0000
0000
,
0001
0000
0000
1000
,
1000
0000
0000
0000
,
1000
0000
0000
0000
,
1000
0000
0000
0000
,
1000
1000
1000
0000
,
0010
0000
0000
0000
,
0010
0000
0000
0000
,
0010
0000
0000
0000
,
0010
0000
0000
0100
,
0100
0000
0000
0000
,
0100
0000
0000
0000
,
0100
0000
0001
0001
,
0001
0000
1000
0000
,
0001
0000
0000
0000
,
0010
0000
0000
0000
,
0100
0000
0000
0000
,
1000
0000
0000
0000
,
0110
0000
0000
0000
;

//---------------dance-single - ----------------
#NOTEDATA:;
#CHARTNAME:;
#STEPSTYPE:dance-single;
#DESCRIPTION:;
#CHARTSTYLE:;
#DIFFICULTY:Medium;
#METER:7;
#RADARVALUES:0.271907,0.368017,0.285146,0.092672,0.000000,267.000000,227.000000,40.000000,13.000000,0.000000,0.000000,0.000000,0.000000,0.000000,0.271907,0.368017,0.285146,0.092672,0.000000,267.000000,227.000000,40.000000,13.000000,0.000000,0.000000,0.000000,0.000000,0.000000;
#CREDIT:kater15;
#DISPLAYBPM:133.000000;
#NOTES:
0000
0000
0000
0000
,
0000
0000
0000
0000
,
0000
0000
0000
0000
,
0000
0000
0000
0000
,
0000
0000
0000
0000
,
1100
0000
0000
0000
0000
0000
1000
0100
,
1000
0000
0000
0010
,
0100
0000
0000
0000
0000
0000
0001
0100
,
0001
0000
0000
0000
0000
0000
1000
0001
,
0000
0000
0000
0001
,
0010
0000
0000
0000
0000
0000
0100
0001
,
0100
0000
0000
0010
,
0101
0000
1100
0000
0101
0000
0100
1000
,
0001
0000
0000
0000
0000
0000
0100
0010
,
1000
0000
0000
1000
,
0001
0000
0000
0000
0000
0000
0001
0100
,
0010
0000
0000
0000
0000
0000
0100
0010
,
0000
0000
0000
0100
,
0001
0000
0000
0000
0000
0000
0010
0100
,
1000
0000
0000
0000
1000
0001
1000
0001
,
0100
1001
0110
1001
,
0100
0000
0100
0100
,
0001
0000
0010
0100
0010
0000
1000
0000
,
1010
0000
0000
0000
0001
0001
0001
0000
,
0100
0010
1000
0100
,
0011
0000
0000
0000
1000
0001
1000
0000
,
0100
0100
0000
0001
,
0101
0000
0000
1100
0000
0000
0011
0000
,
1010
0000
0100
0010
,
0002
0000
0100
1000
,
0203
0000
0010
0001
,
0320
0000
1000
0001
,
1030
0000
0100
1000
0001
0000
0010
0001
,
2000
0000
0010
0001
,
3020
0000
0100
1000
,
0230
0000
0001
1000
,
0002
0000
0000
0303
,
0100
0010
1001
0110
,
0100
0000
0010
0000
1100
0000
0100
0001
,
0010
0000
0010
0000
0001
0100
0001
0100
,
0010
1000
0101
1100
,
0100
0010
1001
0110
,
0100
0000
0010
0000
1100
0000
0100
0001
,
0010
0000
0010
0000
0001
0100
0001
0100
,
0010
1000
0101
1100
,
0001
1000
0110
1001
,
0001
0000
1000
0000
0101
0000
0001
0010
,
1000
0000
1000
0000
0010
0001
0010
0001
,
1000
0100
0011
1010
,
0001
1000
0110
1001
,
0001
0000
1000
0000
0101
0000
0001
0010
,
1000
0000
1000
0000
0010
0001
0010
0001
,
1000
0100
0011
1010
,
1000
0000
0000
0000
0000
0000
1000
0100
,
1000
0000
0000
0010
,
0100
0000
0000
0000
0000
0000
0001
0100
,
0001
0000
0000
0000
0000
0000
1000
0001
,
0000
0000
0000
0001
,
0010
0000
0000
0000
0000
0000
0100
0001
,
0100
0000
0000
0010
,
0101
0000
1100
0000
0101
0000
0100
1000
,
0001
0000
0000
0000
0000
0000
0100
0010
,
1000
0000
0000
1000
,
0001
0000
0000
0000
0000
0000
0001
0100
,
0010
0000
0000
0000
0000
0000
0100
0010
,
0000
0000
0000
0100
,
0001
0000
0000
0000
0000
0000
0010
0100
,
1000
0000
0000
0000
1000
0001
1000
0001
,
0100
1001
0110
1001
,
0200
0000
0000
0000
,
0002
0000
0300
0000
,
0020
0000
0003
0000
,
2000
0000
0000
3030
,
2002
0000
0000
3003
;

//---------------dance-single - ----------------
#NOTEDATA:;
#CHARTNAME:;
#STEPSTYPE:dance-single;
#DESCRIPTION:;
#CHARTSTYLE:;
#DIFFICULTY:Hard;
#METER:11;
#RADARVALUES:0.450123,0.420590,0.163959,0.057029,0.231681,442.000000,419.000000,23.000000,8.000000,0.000000,0.000000,0.000000,0.000000,0.000000,0.450123,0.420590,0.163959,0.057029,0.231681,442.000000,419.000000,23.000000,8.000000,0.000000,0.000000,0.000000,0.000000,0.000000;
#CREDIT:kater15;
#DISPLAYBPM:133.000000;
#NOTES:
// measure 0
0000
0000
0000
0000
,  // measure 1
0000
0000
0000
0000
,  // measure 2
0000
0000
0000
0000
,  // measure 3
0000
0000
0000
0000
1000
0100
1000
0010
,  // measure 4
0001
0000
0010
1000
0100
0010
0001
0000
,  // measure 5
1001
0000
0000
0100
0000
0000
0010
0000
0000
1000
0000
0000
0100
0000
0010
0000
,  // measure 6
0001
0000
0000
0100
0000
0000
0010
0000
0000
1000
0000
0000
0100
0000
0010
0000
,  // measure 7
0100
0000
0000
0001
0000
0000
0010
0000
0000
0001
0000
0000
0100
0000
1000
0000
,  // measure 8
0010
0000
0000
0100
0000
0000
0001
0000
0000
0010
0000
0000
0100
0000
0001
0000
,  // measure 9
1000
0000
0000
0010
0000
0000
0100
0000
0000
1000
0000
0000
0010
0000
0001
0000
,  // measure 10
0010
0000
0000
0100
0000
0000
1000
0000
0000
0001
0000
0000
0001
0000
1000
0000
,  // measure 11
0100
0000
0000
0100
0000
0000
0010
0000
0000
0100
0000
0000
0001
0000
0100
0000
,  // measure 12
0010
0001
0010
0001
0100
1000
0100
1000
,  // measure 13
0010
0000
0000
0100
0000
0000
1001
0000
0000
1000
0000
0000
0010
0000
0010
0000
,  // measure 14
0100
0000
0000
0001
0000
0000
1100
0000
0000
0010
0000
0000
1000
0000
0001
0000
,  // measure 15
0001
0000
0000
0100
0000
0000
0011
0000
0000
0001
0000
0000
1000
0000
0010
0000
,  // measure 16
0001
0000
0000
0100
0000
0000
0100
0000
0000
1001
0000
0000
0010
0000
0001
0000
,  // measure 17
1000
0000
0000
0100
0000
0000
0010
0000
0000
1100
0000
0000
0001
0000
0010
0000
,  // measure 18
1000
0000
0000
0100
0000
0000
1000
0000
0000
0101
0000
0000
0010
0000
0001
0000
,  // measure 19
0100
0000
0000
0010
0000
0000
0100
0000
1000
0000
0100
0000
1000
0000
0010
0000
,  // measure 20
0001
0000
0010
1000
0100
0010
0001
0000
,  // measure 21
1001
0000
0100
0000
1000
0100
1000
0010
,  // measure 22
0100
0001
0010
0200
0000
0000
0001
0000
,  // measure 23
0301
0000
1010
0000
0010
0001
0010
0100
,  // measure 24
0001
0010
0100
0000
0101
0000
1100
0000
,  // measure 25
0101
0000
1000
0000
0100
0100
0010
1000
,  // measure 26
0100
0010
0001
0100
0000
0010
0100
0000
,  // measure 27
0001
0000
0001
1000
0000
1000
0100
0010
,  // measure 28
0001
0000
0100
0000
0010
1000
0100
0010
,  // measure 29
0002
0000
0000
0000
1003
0000
1000
0010
,  // measure 30
2000
0000
0000
0000
3010
0000
0010
0100
,  // measure 31
0020
0000
0000
0000
0130
0000
0100
0010
,  // measure 32
0100
0000
0001
1000
0010
0100
0001
0010
,  // measure 33
0200
0000
0000
0000
1300
0000
1000
0001
,  // measure 34
2000
0000
0000
0000
3010
0000
0010
0100
,  // measure 35
0020
0000
0000
0000
0000
0000
0100
0000
0000
0100
0000
0000
0100
0000
0000
0000
,  // measure 36
0001
0000
0000
0001
0000
0000
0001
0000
0000
0001
0000
0000
0031
0000
0000
0000
,  // measure 37
1000
0100
1000
0000
0010
0001
0100
0010
,  // measure 38
0001
0100
0001
0000
0010
1000
0100
0001
,  // measure 39
0000
1001
0000
1000
0001
0010
0001
0100
,  // measure 40
1000
0000
0100
0001
0010
0100
1000
0000
,  // measure 41
1000
0100
1000
0000
0010
0001
0100
0010
,  // measure 42
0001
0100
0001
0000
0010
1000
0100
0001
,  // measure 43
0000
1001
0000
1000
0001
0010
0001
0100
,  // measure 44
1000
0000
0100
0001
0010
0100
1000
0000
,  // measure 45
0001
0010
0001
0000
0100
1000
0010
0100
,  // measure 46
1000
0010
1000
0000
0100
0001
0010
1000
,  // measure 47
0000
1001
0000
0001
1000
0100
1000
0010
,  // measure 48
0001
0000
0010
1000
0100
0010
0001
0000
,  // measure 49
0001
0010
0001
0000
0100
1000
0010
0100
,  // measure 50
1000
0010
1000
0000
0100
0001
0010
1000
,  // measure 51
0000
1001
0000
0001
1000
0100
1000
0010
,  // measure 52
0001
0000
0010
1000
0100
0010
0001
0000
,  // measure 53
1001
0000
0000
0100
0000
0000
0010
0000
0000
1000
0000
0000
0100
0000
0010
0000
,  // measure 54
0001
0000
0000
0100
0000
0000
0010
0000
0000
1000
0000
0000
0100
0000
0010
0000
,  // measure 55
0100
0000
0000
0001
0000
0000
0010
0000
0000
0001
0000
0000
0100
0000
1000
0000
,  // measure 56
0010
0000
0000
0100
0000
0000
0001
0000
0000
0010
0000
0000
0100
0000
0001
0000
,  // measure 57
1000
0000
0000
0010
0000
0000
0100
0000
0000
1000
0000
0000
0010
0000
0001
0000
,  // measure 58
0010
0000
0000
0100
0000
0000
1000
0000
0000
0001
0000
0000
0001
0000
1000
0000
,  // measure 59
0100
0000
0000
0100
0000
0000
0010
0000
0000
0100
0000
0000
0001
0000
0100
0000
,  // measure 60
0010
0001
0010
0001
0100
1000
0100
1000
,  // measure 61
0010
0000
0000
0100
0000
0000
1001
0000
0000
1000
0000
0000
0010
0000
0010
0000
,  // measure 62
0100
0000
0000
0001
0000
0000
1100
0000
0000
0010
0000
0000
1000
0000
0001
0000
,  // measure 63
0001
0000
0000
0100
0000
0000
0011
0000
0000
0001
0000
0000
1000
0000
0010
0000
,  // measure 64
0001
0000
0000
0100
0000
0000
0100
0000
0000
1001
0000
0000
0010
0000
0001
0000
,  // measure 65
1000
0000
0000
0100
0000
0000
0010
0000
0000
1100
0000
0000
0001
0000
0010
0000
,  // measure 66
1000
0000
0000
0100
0000
0000
1000
0000
0000
0101
0000
0000
0010
0000
0001
0000
,  // measure 67
0100
0000
0000
0010
0000
0000
0100
0000
1000
0000
0100
0000
1000
0000
0010
0000
,  // measure 68
0001
0000
0010
1000
0100
0010
0001
0000
,  // measure 69
0001
0000
0000
1000
0000
0000
0001
0000
0000
1000
0000
0000
0001
0000
1000
0000
,  // measure 70
0010
0000
0000
0100
0000
0000
0010
0000
0000
0100
0000
0000
0010
0000
1000
0000
,  // measure 71
0100
0000
0000
0001
0000
0000
0100
0000
0000
0001
0000
0000
0100
0000
0010
0000
,  // measure 72
0001
0000
0000
0010
0000
0000
0001
0000
0000
0010
0000
0000
0001
0000
1000
0000
,  // measure 73
0020
0000
0000
0030
;
