#VERSION:0.83;
#TITLE:Silence;
#SUBTITLE:;
#ARTIST:Gigi D`Agostino;
#TITLETRANSLIT:;
#SUBTITLETRANSLIT:;
#ARTISTTRANSLIT:;
#GENRE:;
#ORIGIN:;
#CREDIT:;
#BANNER:Silence.png;
#BACKGROUND:Silence-bg.png;
#PREVIEWVID:;
#JACKET:Silence-jacket.png;
#CDIMAGE:;
#DISCIMAGE:;
#LYRICSPATH:;
#CDTITLE:cdtitle.png;
#MUSIC:Silence.ogg;
#OFFSET:1.350000;
#SAMPLESTART:99.279999;
#SAMPLELENGTH:15.000000;
#SELECTABLE:YES;
#DISPLAYBPM:138.000000;
#BPMS:0.000=138.031;
#STOPS:;
#DELAYS:;
#WARPS:;
#TIMESIGNATURES:0.000=4=4;
#TICKCOUNTS:0.000=4;
#COMBOS:0.000=1;
#SPEEDS:0.000=1.000=0.000=0;
#SCROLLS:0.000=1.000;
#FAKES:;
#LABELS:0.000=Song Start;
#BGCHANGES:;
#KEYSOUNDS:;
#ATTACKS:
;

//---------------dance-single - ----------------
#NOTEDATA:;
#CHARTNAME:;
#STEPSTYPE:dance-single;
#DESCRIPTION:;
#CHARTSTYLE:;
#DIFFICULTY:Easy;
#METER:5;
#RADARVALUES:0.175175,0.287153,0.069848,0.186262,0.000000,158.000000,149.000000,9.000000,24.000000,0.000000,0.000000,0.000000,0.000000,0.000000,0.175175,0.287153,0.069848,0.186262,0.000000,158.000000,149.000000,9.000000,24.000000,0.000000,0.000000,0.000000,0.000000,0.000000;
#CREDIT:kater15;
#DISPLAYBPM:138.000000;
#NOTES:
0000
0000
0000
0000
,
0000
0000
0000
0000
,
0000
0000
0000
0000
,
0000
0000
0000
0000
,
0000
0000
0000
0000
,
0000
0000
0000
0000
,
0000
0000
0000
0000
,
0000
0000
0000
0000
,
0000
0000
0000
0000
,
0000
0000
0000
0000
,
2000
0000
0000
0000
,
0000
0000
3010
0000
,
0002
0000
0000
0000
,
0000
0000
0013
0000
,
0200
0000
0000
0000
,
0000
0000
0301
0000
,
0020
0000
0000
0000
,
0000
0000
1030
0000
,
0100
0000
0000
0000
,
0001
1000
0100
0010
,
0100
0000
0000
0000
,
0002
0000
1000
0000
,
0010
0000
1000
0003
,
0100
0100
0001
1000
,
0020
0000
0031
0000
,
2000
0000
3001
0000
,
0200
0000
0301
0000
,
0010
0001
0010
1000
,
0100
0000
0000
0000
,
0020
0000
0001
0000
,
1000
0000
0100
0030
,
0100
1000
0010
0100
,
0200
0000
0310
0000
,
0002
0000
1003
0000
,
1000
0100
0000
0100
,
0001
1000
0010
0010
,
0100
1001
0000
1001
,
0010
0001
0010
0010
,
0100
0001
0000
1000
,
0000
0100
0000
0100
,
0000
0010
0000
0001
,
0000
0100
1000
0010
,
0110
0001
0100
0000
,
1000
0100
0010
0001
,
1000
0000
0100
0000
,
0010
0000
1000
0001
,
2002
0000
0000
0000
,
3003
0000
0100
0100
,
0001
1000
0010
0001
,
0200
0000
0001
0000
,
0300
0010
1000
0001
,
0200
0000
0001
0300
,
0010
1000
0010
0001
,
0100
0000
0010
0100
,
0220
0000
0000
0000
,
0330
0000
1000
0100
,
0010
1000
0100
0001
,
2000
0000
0001
3000
,
1001
0100
0010
0000
,
0001
1000
0010
0100
,
1000
0000
0100
0000
,
0010
0000
0100
0100
,
2002
0000
0000
0000
,
3003
0000
0010
0001
,
0100
0100
0010
1000
,
0200
0000
1000
0300
,
0110
0001
1000
0000
,
0100
0001
0010
1000
,
0001
0000
0100
0000
,
0010
0000
1000
0001
,
0220
0000
0000
0000
,
0330
0000
1000
0000
,
0100
0000
0010
0000
,
0002
0000
0000
0000
,
0003
0000
0000
0000
;

//---------------dance-single - ----------------
#NOTEDATA:;
#CHARTNAME:;
#STEPSTYPE:dance-single;
#DESCRIPTION:;
#CHARTSTYLE:;
#DIFFICULTY:Beginner;
#METER:1;
#RADARVALUES:0.089805,0.143092,0.007761,0.046565,0.000000,81.000000,80.000000,1.000000,6.000000,0.000000,0.000000,0.000000,0.000000,0.000000,0.089805,0.143092,0.007761,0.046565,0.000000,81.000000,80.000000,1.000000,6.000000,0.000000,0.000000,0.000000,0.000000,0.000000;
#CREDIT:kater15;
#DISPLAYBPM:138.000000;
#NOTES:
0000
0000
0000
0000
,
0000
0000
0000
0000
,
0000
0000
0000
0000
,
0000
0000
0000
0000
,
0000
0000
0000
0000
,
0000
0000
0000
0000
,
0000
0000
0000
0000
,
0000
0000
0000
0000
,
0000
0000
0000
0000
,
0000
0000
0000
0000
,
1000
0000
0000
0000
,
0000
0000
1000
0000
,
0100
0000
0000
0000
,
0000
0000
0100
0000
,
0010
0000
0000
0000
,
0001
0000
0000
0000
,
0100
0000
0000
0000
,
1000
1000
0000
0001
,
0001
0000
0000
0000
,
0100
0000
0000
0000
,
0000
0000
0000
0000
,
0001
0000
0000
0000
,
0000
0000
0000
0000
,
0010
0000
0100
0000
,
0100
0000
0000
0000
,
0000
0000
0000
0000
,
0010
0000
0000
0000
,
0010
0000
0000
0000
,
0000
0000
0000
0000
,
0100
0000
0000
0000
,
0000
0000
0000
0000
,
0001
0000
1000
0000
,
0001
0000
0000
0000
,
0010
0000
0010
0000
,
1001
0000
0000
0000
,
0100
0000
0010
0000
,
0001
0000
0000
0000
,
0100
0000
0010
0000
,
1000
0000
0020
0000
,
0030
0000
0100
0000
,
0001
0000
0001
0000
,
0010
0000
0000
0000
,
1000
0000
1000
0000
,
0100
0000
0000
0000
,
0001
0000
0001
0000
,
0100
0000
0000
0000
,
0020
0000
0000
0030
,
0010
0000
0000
0000
,
0010
0000
0001
0000
,
0100
0000
0000
0000
,
0010
0000
0010
0000
,
0001
0000
0000
0000
,
0100
0000
0100
0000
,
0001
0000
0000
0000
,
2000
0000
0000
3000
,
1000
0000
0000
0000
,
0001
0000
0010
0000
,
1000
0000
0000
0000
,
0100
0000
0100
0000
,
0001
0000
0000
0000
,
0010
0000
0010
0000
,
0001
0000
0000
0000
,
2000
0000
0000
3000
,
1000
0000
0000
0000
,
1000
0000
0010
0000
,
0001
0000
0000
0000
,
1000
0000
1000
0000
,
0010
0000
0000
0000
,
0001
0000
0001
0000
,
0010
0000
0000
0000
,
0200
0000
0000
0300
,
0100
0000
0000
0000
,
0010
0000
1000
0000
,
0200
0000
0000
0300
;

//---------------dance-single - ----------------
#NOTEDATA:;
#CHARTNAME:;
#STEPSTYPE:dance-single;
#DESCRIPTION:;
#CHARTSTYLE:;
#DIFFICULTY:Medium;
#METER:6;
#RADARVALUES:0.290479,0.400657,0.178501,0.085370,0.000000,262.000000,239.000000,23.000000,11.000000,0.000000,0.000000,0.000000,0.000000,0.000000,0.290479,0.400657,0.178501,0.085370,0.000000,262.000000,239.000000,23.000000,11.000000,0.000000,0.000000,0.000000,0.000000,0.000000;
#CREDIT:kater15;
#DISPLAYBPM:138.000000;
#NOTES:
0000
0000
0000
0000
,
0000
0000
0000
0000
,
0000
0000
0000
0000
,
0000
0000
0000
0000
,
0000
0000
0000
0000
,
0000
0000
0000
0000
,
0000
0000
0000
0000
,
0000
0000
0000
0000
,
0000
0000
0000
0000
,
0000
0000
0000
0000
,
0010
0000
0010
0000
,
0010
0000
0010
0001
,
0100
0000
0100
0000
,
0100
0000
0100
1000
,
0001
0000
0001
0000
,
0001
0000
0001
0100
,
1000
0000
1000
0000
,
1000
1100
0000
0001
,
0011
0100
0000
0000
,
0001
1000
0000
0100
0000
0001
0000
0010
,
0000
0100
0000
1000
0000
1001
0000
0010
,
0100
0010
0000
0001
0000
0010
0000
0100
,
0000
1000
0000
0010
0000
0011
0000
0100
,
1000
0100
0000
0010
0000
0100
0000
0001
,
0000
0200
0000
0001
0000
1000
0000
0301
,
0000
0020
0000
1000
0000
0001
0000
1030
,
0000
0000
0000
0000
,
0100
0010
0000
1000
0000
1000
0000
0001
,
0000
0010
0000
0100
0000
0110
0000
1000
,
0010
1000
0000
0100
0000
0100
0000
0001
,
0000
1000
0000
0100
0000
1001
0000
0010
,
0001
0010
0000
0100
0000
0100
0000
1000
,
0000
0010
0000
0000
0100
0000
0001
0000
,
0010
0000
0000
0001
1000
0000
0000
0100
,
0010
0000
0100
0000
0001
0010
0100
0000
,
0002
1003
0020
1030
,
0100
0000
0000
0010
0001
0000
0010
0000
,
0200
0301
0020
0031
,
1000
0000
0000
0100
1000
0000
0000
0010
,
1000
0000
0000
0100
0001
0000
0010
0000
,
1100
0000
0010
0001
0000
0010
1000
0000
,
0100
0000
0010
0010
0001
0010
0100
0000
,
1001
0100
0010
0000
,
1000
0100
0010
0100
0100
0000
0000
0000
,
0110
1000
0001
0000
,
0100
1000
0001
1000
1000
0000
0000
0000
,
2000
0100
0010
0000
,
3100
0000
0101
1100
,
0100
0000
0010
0000
1000
0100
0010
1000
,
0001
0000
0000
0000
0010
1000
0001
0000
,
1001
0010
0100
0000
,
0001
0010
0100
0010
0010
0000
0000
0000
,
0110
0001
1000
0000
,
0010
0001
1000
0001
0001
0000
0000
0000
,
0002
0010
0100
0000
,
0013
0000
1010
0011
,
0010
0000
0100
0000
0001
0010
0100
0001
,
1000
0000
0000
0000
0100
0001
1000
0000
,
0110
0001
1000
0000
,
0100
0001
1000
0001
0001
0000
0000
0000
,
1001
0100
0010
0000
,
0001
0100
0010
0100
0100
0000
0000
0000
,
0200
0001
1000
0000
,
0301
0000
0011
0101
,
0001
0000
1000
0000
0100
0001
1000
0100
,
0010
0000
0000
0000
1000
0100
0010
0000
,
0110
1000
0001
0000
,
0010
1000
0001
1000
1000
0000
0000
0000
,
1001
0010
0100
0000
,
1000
0010
0100
0010
0010
0000
0000
0000
,
0020
1000
0001
0000
,
1030
0000
1100
0000
,
0001
0000
0101
0000
,
2000
0000
0000
3000
;

//---------------dance-single - ----------------
#NOTEDATA:;
#CHARTNAME:;
#STEPSTYPE:dance-single;
#DESCRIPTION:;
#CHARTSTYLE:;
#DIFFICULTY:Hard;
#METER:8;
#RADARVALUES:0.355893,0.429275,0.139696,0.139696,0.000000,321.000000,303.000000,18.000000,18.000000,0.000000,0.000000,0.000000,0.000000,0.000000,0.355893,0.429275,0.139696,0.139696,0.000000,321.000000,303.000000,18.000000,18.000000,0.000000,0.000000,0.000000,0.000000,0.000000;
#CREDIT:kater15;
#DISPLAYBPM:138.000000;
#NOTES:
0000
0000
0000
0000
,
0000
0000
0000
0000
,
0000
0000
0000
0000
,
0000
0000
0000
0000
,
0000
0000
0000
0000
,
0000
0000
0000
0000
,
0000
0000
0000
0000
,
0000
0000
0000
0000
,
0000
0000
0000
0000
,
0000
0000
0000
0000
,
1000
0100
1000
0010
1000
0001
1000
0000
,
0100
1000
0100
0010
0100
0001
0100
0000
,
0010
1000
0010
0100
0010
0001
0010
0000
,
0001
1000
0001
0100
0001
0010
0001
0000
,
0100
1000
0100
0001
0100
1000
0100
0000
,
0010
0001
0010
1000
0010
0001
0010
0000
,
1000
0100
1000
0010
1000
0100
1000
0000
,
0001
0010
0001
0100
0001
0010
0001
0000
,
0000
0000
0000
0000
,
1000
0100
0010
0002
0000
0100
0000
1000
,
0000
0010
0000
0010
0000
0103
0000
1000
,
0100
0010
0001
2000
0000
0100
0000
0100
,
0000
0001
0000
0010
0000
3100
0000
0010
,
0100
0001
0010
0200
0000
0001
0000
1000
,
0000
0010
0000
0001
0000
0301
0000
0020
,
0000
1000
0000
0001
0000
0100
0000
0001
,
0000
0000
0030
0000
,
0100
0001
1000
0020
0000
0001
0000
0100
,
0000
1000
0000
1000
0000
0031
0000
0100
,
0001
1000
0010
0200
0000
0001
0000
0001
,
0000
0010
0000
1000
0000
0301
0000
1000
,
0001
0010
1000
0002
0000
0010
0000
0100
,
0000
1003
0000
0000
1000
0100
0010
0000
,
1010
0000
0011
0000
,
0110
0000
1000
0000
0010
0001
1000
0000
,
0100
0100
0001
0010
0100
0100
1000
0010
,
0002
0000
0000
0000
1000
1000
1003
0000
,
0010
0010
1000
0100
0010
0010
0001
0100
,
1000
0000
0001
0010
0200
0000
0000
0000
,
0301
0000
1001
0000
0010
1000
0010
0100
,
0001
0001
0100
0010
0010
1000
0100
0000
,
0000
0000
0000
0000
0010
0001
0010
0100
,
1000
0000
1000
0100
0001
0000
1000
0010
,
0001
0000
0000
0000
0100
0010
1000
0010
,
0001
0000
0100
1000
0001
0000
0100
0001
,
1000
0000
0000
0000
0010
0010
0010
0000
,
2002
0000
0000
3003
,
1001
0000
1100
0101
,
0001
0010
0001
0100
0010
1000
0100
0000
,
0000
0000
0000
0000
1000
0010
1000
0001
,
0100
0000
0100
0001
0010
0000
0100
1000
,
0010
0000
0000
0000
0001
1000
0100
1000
,
0010
0000
0001
0100
0010
0000
0001
0010
,
0100
0000
0000
0000
1000
1000
1000
0000
,
0220
0000
0000
0330
,
0110
0000
0101
0011
,
0010
1000
0010
0001
1000
0100
0001
0000
,
0000
0000
0000
0000
0100
1000
0100
0010
,
0001
0000
0001
0010
1000
0000
0001
0100
,
1000
0000
0000
0000
0010
0100
0001
0100
,
1000
0000
0010
0001
1000
0000
0010
1000
,
0001
0000
0000
0000
0100
0100
0100
0000
,
2002
0000
0000
3003
,
1001
0000
0011
1010
,
1000
0100
1000
0010
0100
0001
0010
0000
,
0000
0000
0000
0000
0001
0100
0001
1000
,
0010
0000
0010
1000
0100
0000
0010
0001
,
0100
0000
0000
0000
1000
0001
0010
0001
,
0100
0000
1000
0010
0100
0000
1000
0100
,
0010
0000
0000
0000
0001
0001
0001
0000
,
0220
0000
0000
0330
,
0110
0000
1000
0000
,
0001
0000
0010
0000
,
0200
0000
0000
0300
;

//---------------dance-single - ----------------
#NOTEDATA:;
#CHARTNAME:;
#STEPSTYPE:dance-single;
#DESCRIPTION:;
#CHARTSTYLE:;
#DIFFICULTY:Challenge;
#METER:11;
#RADARVALUES:0.451241,0.515130,0.124174,0.116414,0.116414,407.000000,391.000000,16.000000,15.000000,0.000000,0.000000,0.000000,0.000000,0.000000,0.451241,0.515130,0.124174,0.116414,0.116414,407.000000,391.000000,16.000000,15.000000,0.000000,0.000000,0.000000,0.000000,0.000000;
#CREDIT:kater15;
#DISPLAYBPM:138.000000;
#NOTES:
// measure 0
0000
0000
0000
0000
,  // measure 1
0000
0000
0000
0000
,  // measure 2
0000
0000
0000
0000
,  // measure 3
0000
0000
0000
0000
,  // measure 4
0000
0000
0000
0000
,  // measure 5
0000
0000
0000
0000
,  // measure 6
0000
0000
0000
0000
,  // measure 7
0000
0000
0000
0000
,  // measure 8
0000
0000
0000
0000
,  // measure 9
0000
0000
0000
0000
,  // measure 10
1000
0100
1000
0100
1000
0100
1000
0100
,  // measure 11
0010
0001
0010
0001
0010
0001
0010
0001
,  // measure 12
1000
0010
1000
0010
1000
0010
1000
0010
,  // measure 13
0100
0001
0100
0001
0100
0001
0100
0001
,  // measure 14
0010
0100
0010
0100
0010
0100
0010
0100
,  // measure 15
0001
1000
0001
1000
0001
1000
0001
1000
,  // measure 16
0100
0010
0100
0010
0100
0010
0100
0010
,  // measure 17
1000
0001
1000
0001
1000
0001
1000
0001
,  // measure 18
0200
0010
0000
0300
,  // measure 19
1000
0100
0010
0001
0000
1000
0100
1000
,  // measure 20
0010
0100
0000
0010
0001
1000
0000
0010
,  // measure 21
0001
0100
0010
0100
0000
1000
0100
0010
,  // measure 22
0100
0100
0000
0011
0000
0101
0000
1000
,  // measure 23
0001
0100
0010
1000
0100
0010
0010
0100
,  // measure 24
0002
1000
0010
0103
2000
0010
0001
3100
,  // measure 25
0020
1000
0100
1030
0002
0100
0010
0103
,  // measure 26
2000
0000
3000
0000
,  // measure 27
0100
0001
1000
0010
0000
0100
0001
0100
,  // measure 28
1000
0001
0000
1000
0010
0100
0000
1000
,  // measure 29
0010
0001
1000
0001
0000
0100
0001
1000
,  // measure 30
0001
0001
0000
1010
0000
0011
0000
0100
,  // measure 31
0010
0001
1000
0100
0001
1000
1000
0001
,  // measure 32
0010
0000
1001
0110
,  // measure 33
0002
0000
2000
0000
,  // measure 34
3003
0100
0000
0100
,  // measure 35
1000
0100
0010
0000
0001
0001
1000
0001
,  // measure 36
0010
0100
0001
0000
0100
0001
0001
0000
,  // measure 37
1000
1000
0010
0100
0010
0010
0001
0100
,  // measure 38
0010
0000
1000
0100
0020
0000
0000
0000
,  // measure 39
1030
0000
0001
1000
0010
0100
0010
0001
,  // measure 40
0100
0000
0001
0001
0000
1000
1000
0000
,  // measure 41
0010
0000
0000
0000
1000
0000
0100
0000
1000
0000
0010
0000
0100
0000
0001
1000
,  // measure 42
0001
0000
0000
0000
0010
0000
0100
1000
0100
0000
0000
0000
1000
0000
0010
0000
,  // measure 43
0001
0000
0000
0000
1000
0000
0001
0000
0010
0000
0000
0000
0000
0000
0100
0001
,  // measure 44
0100
0000
0000
0000
0010
0000
1000
0001
1000
0000
0000
0000
0100
0000
0001
0000
,  // measure 45
0010
0000
1000
0100
0010
0000
0100
0010
0001
0000
0100
0000
0010
0000
0000
0000
,  // measure 46
2000
0000
0001
0001
,  // measure 47
3010
0000
1100
0101
,  // measure 48
0010
1000
0010
0100
0100
0001
0010
0100
,  // measure 49
1000
0000
0000
0000
0000
0000
0000
0000
1000
0010
1000
0010
1000
0000
1000
0001
,  // measure 50
1000
0000
0000
0000
0100
0000
0010
0001
0010
0000
0000
0000
0001
0000
0100
0000
,  // measure 51
1000
0000
0000
0000
0001
0000
1000
0000
0100
0000
0000
0000
0000
0000
0010
1000
,  // measure 52
0010
0000
0000
0000
0100
0000
0001
1000
0001
0000
0000
0000
0010
0000
1000
0000
,  // measure 53
0100
0000
0001
0010
0100
0000
0010
0100
1000
0000
0010
0000
0100
0000
0000
0000
,  // measure 54
0002
0000
1000
1000
,  // measure 55
0103
0000
0011
1010
,  // measure 56
0100
0001
0100
0010
0010
1000
0100
0010
,  // measure 57
0001
0000
0000
0000
0000
0000
0000
0000
0001
0100
0001
0100
0001
0000
0010
0100
,  // measure 58
0010
0000
0000
0000
1000
0000
0001
0100
0001
0000
0000
0000
0100
0000
1000
0000
,  // measure 59
0010
0000
0000
0000
0100
0000
0010
0000
1000
0000
0000
0000
0000
0000
0001
0010
,  // measure 60
0001
0000
0000
0000
1000
0000
0100
0010
0100
0000
0000
0000
0001
0000
0010
0000
,  // measure 61
1000
0000
0100
0001
1000
0000
0001
1000
0010
0000
0001
0000
1000
0000
0000
0000
,  // measure 62
0200
0000
0010
0010
,  // measure 63
1300
0000
0101
0011
,  // measure 64
1000
0100
1000
0001
0001
0010
1000
0001
,  // measure 65
0100
0000
0000
0000
0000
0000
0000
0000
0100
1000
0100
1000
0100
0000
0100
0010
,  // measure 66
0100
0000
0000
0000
0001
0000
1000
0010
1000
0000
0000
0000
0010
0000
0001
0000
,  // measure 67
0100
0000
0000
0000
0010
0000
0100
0000
0001
0000
0000
0000
0000
0000
1000
0100
,  // measure 68
1000
0000
0000
0000
0001
0000
0010
0100
0010
0000
0000
0000
1000
0000
0100
0000
,  // measure 69
0001
0000
0010
1000
0001
0000
1000
0001
0100
0000
1000
0000
0001
0000
0000
0000
,  // measure 70
0020
0000
0100
0100
,  // measure 71
0031
0000
1010
0000
,  // measure 72
0011
0000
0101
0000
,  // measure 73
2200
0000
0000
3300
;
