#TITLE:Shine;
#SUBTITLE:;
#ARTIST:Spektrem;
#TITLETRANSLIT:;
#SUBTITLETRANSLIT:;
#ARTISTTRANSLIT:;
#GENRE:;
#CREDIT:;
#BANNER:Shine.png;
#BACKGROUND:Shine-bg.png;
#LYRICSPATH:;
#CDTITLE:;
#MUSIC:Shine.mp3;
#OFFSET:0.410000;
#SAMPLESTART:38.893997;
#SAMPLELENGTH:16.000000;
#SELECTABLE:YES;
#DISPLAYBPM:128.000000;
#BPMS:0.000000=127.860001
,108.000000=128.259995
,164.000000=127.860001
;
#STOPS:
;
#BGCHANGES:;
#KEYSOUNDS:;
#ATTACKS:;

//---------------dance-single - ----------------
#NOTES:
     dance-single:
     :
     Easy:
     3:
     0.144692,0.212516,0.027130,0.162778,0.000000,112.000000,109.000000,3.000000,18.000000,0.000000,0.000000,0.144692,0.212516,0.027130,0.162778,0.000000,112.000000,109.000000,3.000000,18.000000,0.000000,0.000000:
0000
0000
0000
0000
,
0000
0000
0000
0000
,
0000
0000
0000
0000
,
0002
0000
0003
0000
,
2000
0000
3000
0000
,
0020
0000
0030
0100
,
0010
0000
0000
0010
,
0020
0000
0030
0000
,
0200
0000
0300
0000
,
0100
0000
1001
0000
,
0010
0000
0100
0000
,
0020
0000
0030
0000
,
0200
0000
0300
0000
,
2000
0000
3000
0000
,
0010
0000
0100
1000
,
0020
0000
0030
0000
,
0100
0000
0100
1000
,
0020
0000
0030
0000
,
1000
0100
0010
0001
,
1001
0000
0100
0000
,
0100
0000
0100
0000
,
0100
0000
0100
0000
,
0100
0000
0100
0000
,
0100
0000
0100
0000
,
0100
0000
0100
0000
,
0100
0000
0100
0000
,
0100
0000
0000
0000
,
1000
0000
0001
0000
,
0010
0010
0010
0010
,
0100
0000
0010
0000
,
1000
1000
1000
1000
,
0001
0000
1000
0000
,
0001
0001
0001
0001
,
0100
0000
0001
0000
,
0200
0000
0000
0300
,
1000
0000
0100
0000
,
0010
0010
0010
0010
,
0001
0000
0010
0000
,
0100
0100
0100
0100
,
0010
0000
0100
0000
,
1000
1000
1000
1000
,
0200
0000
0000
0300
,
0002
0000
0000
0003
,
1000
1000
0001
0000
,
0001
0001
1000
0000
,
1000
1000
0001
0000
,
0001
0000
1000
0000
,
0010
0010
0100
0000
,
0100
0100
0010
0000
,
0010
0010
0100
0000
,
0100
0000
0010
0000
,
2002
0000
0000
0000
,
0000
0000
0000
3003
,
0020
0000
0000
0000
,
0000
0000
0000
0030
,
0002
0000
0000
0000
,
0000
0000
0000
0003
,
0200
0000
0000
0000
,
0000
0000
0000
0300
;

//---------------dance-single - ----------------
#NOTES:
     dance-single:
     :
     Beginner:
     1:
     0.065886,0.105806,0.009043,0.280340,0.000000,51.000000,50.000000,1.000000,31.000000,0.000000,0.000000,0.065886,0.105806,0.009043,0.280340,0.000000,51.000000,50.000000,1.000000,31.000000,0.000000,0.000000:
0000
0000
0000
0000
,
0000
0000
0000
0000
,
0000
0000
0000
0000
,
0002
0000
0003
0000
,
2000
0000
3000
0000
,
0002
0000
0003
0000
,
1000
0000
1000
0000
,
0020
0000
0030
0000
,
0200
0000
0300
0000
,
0020
0000
0030
0000
,
0100
0000
0010
0000
,
2000
0000
3000
0000
,
0200
0000
0300
0000
,
0020
0000
0030
0000
,
0001
0000
0100
0000
,
0002
0000
0003
0000
,
0020
0000
0030
0000
,
0200
0000
0300
0000
,
1000
0000
0001
0000
,
0100
0000
0000
0000
,
0100
0000
0000
0000
,
0100
0000
0000
0000
,
0100
0000
0000
0000
,
0100
0000
0000
0000
,
0100
0000
0000
0000
,
0100
0000
0000
0000
,
0100
0000
0000
0000
,
0200
0000
0000
0000
,
0000
0000
0300
0000
,
2000
0000
0000
0000
,
0000
0000
3000
0000
,
0020
0000
0000
0000
,
0000
0000
0030
0000
,
0002
0000
0000
0000
,
0000
0000
0003
0000
,
2000
0000
0000
0000
,
0000
0000
3000
0000
,
0200
0000
0000
0000
,
0000
0000
0300
0000
,
0020
0000
0000
0000
,
0000
0000
0030
0000
,
0002
0000
0000
0000
,
0000
0000
0003
0000
,
0200
0000
0300
0000
,
0020
0000
0030
0000
,
0200
0000
0300
0000
,
0010
0000
0100
0000
,
0002
0000
0003
0000
,
2000
0000
3000
0000
,
0002
0000
0003
0000
,
1000
0000
0001
0000
,
0200
0000
0000
0000
,
0000
0000
0300
0000
,
2000
0000
0000
0000
,
0000
0000
3000
0000
,
0002
0000
0000
0000
,
0000
0000
0003
0000
,
0220
0000
0000
0000
,
0000
0000
0330
0000
;

//---------------dance-single - ----------------
#NOTES:
     dance-single:
     :
     Medium:
     5:
     0.222205,0.265645,0.099475,0.198951,0.000000,172.000000,161.000000,11.000000,22.000000,0.000000,0.000000,0.222205,0.265645,0.099475,0.198951,0.000000,172.000000,161.000000,11.000000,22.000000,0.000000,0.000000:
0000
0000
0000
0000
,
0000
0000
0000
0000
,
0000
0000
0000
0000
,
2000
0010
3001
0000
,
0200
0010
1300
0000
,
0020
0001
0130
0000
,
0002
1000
0013
0000
,
2000
0010
3010
0000
,
1002
0000
0103
0000
,
0210
0000
0301
0000
,
1000
0001
0010
0100
,
1000
0010
0100
0010
,
2002
3003
0100
0010
,
2000
3000
0001
0010
,
0010
0100
0001
0010
,
0200
0000
0000
0001
,
0301
0010
1001
0100
,
0020
0000
0000
0100
,
0130
1000
0001
0010
,
0100
0100
0100
0100
,
0100
0100
0100
0100
,
0100
0100
0100
0100
,
0100
0100
0100
0100
,
0001
1000
0001
1000
,
0001
1000
0001
1000
,
0002
0000
1000
2000
,
0000
0000
0000
3003
,
1000
0100
1000
0010
,
0001
0100
1000
0100
,
0001
0010
1000
0100
,
0010
0001
0100
0100
,
0010
1000
0100
1000
,
0010
0001
0100
0010
,
1000
0100
0010
0100
,
2002
0000
0000
3003
,
0010
0010
0001
0100
,
0001
0100
1000
0100
,
1000
0001
0010
1000
,
0001
0010
1000
0001
,
0100
0100
0001
0100
,
0100
1000
1000
1000
,
0200
0000
0000
0000
,
0020
0000
0000
0330
,
0010
0100
1001
0000
,
0010
0100
1001
0000
,
0010
0100
1001
0000
,
0001
1000
0100
0010
,
0001
1000
0110
0000
,
0001
1000
0110
0000
,
0001
1000
0110
0000
,
0010
0100
1000
0001
,
0020
0000
0000
0000
,
0000
0000
0000
0000
,
0002
0000
0000
0000
,
0030
0000
0000
0000
,
0200
0000
0000
0000
,
0003
0000
0000
0000
,
2000
0000
0000
0000
,
0300
0000
0000
3000
;

//---------------dance-single - ----------------
#NOTES:
     dance-single:
     :
     Hard:
     8:
     0.363021,0.425032,0.162778,0.081389,0.162778,281.000000,263.000000,18.000000,9.000000,0.000000,0.000000,0.363021,0.425032,0.162778,0.081389,0.162778,281.000000,263.000000,18.000000,9.000000,0.000000,0.000000:
0000
0000
0000
0000
,
0000
0000
0000
0000
,
0000
0000
0000
0000
,
1001
0000
0010
1000
0010
0100
0001
0100
,
1000
0000
0010
1000
0100
0010
0001
0100
,
0010
0000
0001
0100
1000
0100
0001
0100
,
0010
0000
1000
0100
1000
0100
0010
0001
,
0010
0000
1000
0001
0100
0001
0010
1000
,
0100
0000
0100
0010
0001
1000
0100
0001
,
0010
0000
1000
0100
0010
0001
0000
1100
,
0000
0101
0000
0001
0010
0100
0000
0000
,
0010
0000
0000
0001
0000
0000
0010
0000
0000
0100
0000
0000
1000
0000
0010
0000
,
0100
0000
1000
0000
0001
0000
1000
0100
,
0010
0000
0000
1000
0000
0000
0001
0000
0000
0010
0000
0000
0100
0000
1000
0000
,
0001
0000
1000
0000
0100
0000
0001
1000
,
0100
0000
0000
0010
0000
0000
1000
0000
0000
0001
0000
0000
0010
0000
0001
0000
,
0100
0000
0001
0000
0100
0000
1000
0010
,
0100
0000
0000
1000
0000
0000
0010
0000
0000
0100
0000
0000
0001
0000
0010
0000
,
1000
0000
0100
0000
1000
0000
0010
0001
,
0100
0000
0000
1000
0000
0000
0100
0000
0000
0001
0000
0000
0100
0000
1000
0000
,
0100
0000
1001
0000
0100
0000
0010
0001
,
0100
0000
0000
1000
0000
0000
0100
0000
0000
0001
0000
0000
0100
0000
1000
0000
,
0100
0000
0110
0000
1000
0000
0100
0001
,
0010
0000
0000
0001
0000
0000
0010
0000
0000
1000
0000
0000
0010
0000
0001
0000
,
0010
0000
1000
0000
0110
0000
0100
1000
,
0020
0000
0000
0000
0000
1000
0000
2000
,
0000
0000
0000
3030
,
0001
0000
0000
0100
0000
0000
0001
0000
0000
0010
0000
0000
0001
0000
0100
0000
,
0001
0000
0110
0000
0001
0000
1000
0010
,
0001
0000
0000
0100
0000
0000
0001
0000
0000
0010
0000
0000
0001
0000
0100
0000
,
0001
0000
1000
0000
0110
0000
0001
0010
,
1000
0000
0000
0010
0000
0000
1000
0000
0000
0100
0000
0000
1000
0000
0010
0000
,
1000
0000
0100
0000
1001
0000
0001
0100
,
1000
0000
0000
0010
0000
0000
1000
0000
0000
0100
0000
0000
1000
0000
0010
0000
,
0200
0000
0000
0300
,
1000
0000
0000
0010
0000
0000
1000
0000
0000
0100
0000
0000
1000
0000
0010
0000
,
1000
0000
0110
0000
1000
0000
0001
0100
,
1000
0000
0000
0010
0000
0000
1000
0000
0000
0100
0000
0000
1000
0000
0010
0000
,
1000
0000
1001
0000
0110
0000
1000
0100
,
0001
0000
0000
0100
0000
0000
0001
0000
0000
0010
0000
0000
0001
0000
0100
0000
,
0001
0000
0110
0000
1001
0000
1000
0010
,
0002
0000
0000
0000
,
2000
0000
0000
3003
,
1000
0000
0100
0000
1000
0000
0100
0000
1000
0000
0000
0100
0000
0000
0010
0000
,
0001
0000
0010
0000
0001
0000
0010
0000
0001
0000
0000
0010
0000
0000
0100
0000
,
0010
0000
0100
0000
0010
0000
0100
0000
0010
0000
0000
1000
0000
0000
0001
0000
,
0100
0000
0000
0000
1001
0000
0000
0000
0010
0000
0000
1001
0000
0000
0001
0000
,
0100
0000
0001
0000
0100
0000
0001
0000
0100
0000
0000
0001
0000
0000
1000
0000
,
0010
0000
1000
0000
0010
0000
1000
0000
0010
0000
0000
1000
0000
0000
0001
0000
,
1000
0000
0001
0000
1000
0000
0001
0000
1000
0000
0000
0100
0000
0000
0010
0000
,
0001
0000
0000
0000
0110
0000
0000
0000
1000
0000
0000
0110
0000
0000
1000
0000
,
0002
0000
0000
0000
,
0000
0000
0000
0000
,
0200
0000
0000
0000
,
0003
0000
0000
0000
,
0020
0000
0000
0000
,
0300
0000
0000
0000
,
2000
0000
0000
0000
,
0030
0000
0000
3000
;

//---------------dance-double - ----------------
#NOTES:
     dance-double:
     :
     Easy:
     3:
     0.135648,0.212516,0.027130,0.162778,0.000000,105.000000,102.000000,3.000000,18.000000,0.000000,0.000000,0.135648,0.212516,0.027130,0.162778,0.000000,105.000000,102.000000,3.000000,18.000000,0.000000,0.000000:
00000000
00000000
00000000
00000000
,
00000000
00000000
00000000
00000000
,
00000000
00000000
00000000
00000000
,
00020000
00000000
00030000
00000000
,
00002000
00000000
00003000
00000000
,
00200000
00000000
00300000
00000000
,
00001000
00000000
00000001
00000000
,
00000020
00000000
00000030
00000000
,
00000200
00000000
00000300
00000000
,
00000100
00000000
00011000
00000000
,
00100000
00000000
01000000
00000000
,
00200000
00000000
00300000
00000000
,
00002000
00000000
00003000
00000000
,
02000000
00000000
03000000
00000000
,
00100000
00000000
01000000
10000000
,
00200000
00000000
00300000
00000000
,
00010000
00000000
00000100
00001000
,
00000020
00000000
00000030
00000000
,
00000001
00000010
00000100
00001000
,
00001001
00000000
00000100
00000000
,
00000100
00000000
00000100
00000000
,
00000100
00000000
00010000
00000000
,
00010000
00000000
00010000
00000000
,
00010000
00000000
00001000
00000000
,
00001000
00000000
00001000
00000000
,
00001000
00000000
01000000
00000000
,
01000000
00000000
00000000
00000000
,
10000000
00000000
00010000
00000000
,
00100000
00100000
00100000
00000000
,
00001000
00000000
00010000
00000000
,
00001000
00001000
00001000
00000000
,
00000001
00000000
00001000
00000000
,
00000001
00000001
00000001
00000000
,
00000100
00000000
00010000
00000000
,
00000200
00000000
00000000
00000300
,
00001000
00000000
01000000
00000000
,
00100000
00100000
00100000
00000000
,
00010000
00000000
00000010
00000000
,
00000100
00000100
00000100
00000000
,
00000010
00000000
00010000
00000000
,
10000000
10000000
10000000
00000000
,
02000000
00000000
00000000
03000000
,
00200000
00000000
00000000
00300000
,
10000000
10000000
00010000
00000000
,
00010000
00010000
00001000
00000000
,
00001000
00001000
00000001
00000000
,
00000001
00000000
00001000
00000000
,
00100000
00100000
00001000
00000000
,
00000010
00000010
00010000
00000000
,
00100000
00100000
00001000
00000000
,
00010000
00000000
00001000
00000000
,
00022000
00000000
00000000
00000000
,
00000000
00000000
00000000
00033000
,
00200000
00000000
00000000
00000000
,
00000000
00000000
00000000
00300000
,
00002000
00000000
00000000
00000000
,
00000000
00000000
00000000
00003000
,
00000020
00000000
00000000
00000000
,
00000000
00000000
00000000
00000030
;

//---------------dance-double - ----------------
#NOTES:
     dance-double:
     :
     Medium:
     5:
     0.209286,0.265645,0.099475,0.198951,0.000000,162.000000,151.000000,11.000000,22.000000,0.000000,0.000000,0.209286,0.265645,0.099475,0.198951,0.000000,162.000000,151.000000,11.000000,22.000000,0.000000,0.000000:
00000000
00000000
00000000
00000000
,
00000000
00000000
00000000
00000000
,
00000000
00000000
00000000
00000000
,
20000000
00000000
30100000
00000000
,
02000000
00000000
03001000
00000000
,
00000020
00000000
00010030
00000000
,
00020000
00000000
00030100
00000000
,
00002000
00000000
00103000
00000000
,
00012000
00000000
01003000
00000000
,
02100000
00000000
03010000
00000000
,
10000000
00010000
00100000
01000000
,
10000000
00100000
01000000
00100000
,
20020000
30030000
01000000
00010000
,
00002000
00003000
00000001
00000010
,
00000010
00000100
00010000
00100000
,
02000000
00000000
00000000
00001000
,
03001000
00100000
00011000
01000000
,
00200000
00000000
00000000
01000000
,
01300000
10000000
00010000
00100000
,
01000000
01000000
01000000
01000000
,
01000000
01000000
01000000
01000000
,
01000000
01000000
01000000
01000000
,
01000000
01000000
01000000
01000000
,
00010000
00001000
00010000
00001000
,
00010000
00001000
00010000
00001000
,
00020000
00000000
00001000
00002000
,
00000000
00000000
00000000
00033000
,
00001000
00000100
00010000
00000010
,
00000001
00000100
00001000
00000000
,
00010000
00000010
00001000
01000000
,
00100000
00010000
01000000
00000000
,
00100000
10000000
01000000
10000000
,
00100000
00010000
01000000
00000000
,
00100000
00001000
00010000
00001000
,
00020200
00000000
00000000
00030300
,
00000010
00000010
00000001
00000100
,
00000001
00000100
00001000
00000000
,
00100000
00010000
00100000
10000000
,
00010000
00100000
10000000
00000000
,
01000000
01000000
00010000
00000100
,
00000100
00001000
00001000
00001000
,
02000000
00000000
00000000
00000000
,
00200000
00000000
00000000
03300000
,
00100000
01000000
10010000
00000000
,
00010000
00001000
00011000
00000000
,
00000010
00000100
00001001
00000000
,
00000001
00001000
00000100
00000010
,
00000001
00001000
00000110
00000000
,
00001000
00010000
00011000
00000000
,
00010000
10000000
01100000
00000000
,
00100000
01000000
10000000
00010000
,
00200000
00000000
00000000
00000000
,
00000000
00000000
00000000
00000000
,
00020000
00000000
00000000
00000000
,
00300000
00000000
00000000
00000000
,
00002000
00000000
00000000
00000000
,
00030000
00000000
00000000
00000000
,
00000020
00000000
00000000
00000000
,
00003000
00000000
00000000
00000030
;

//---------------dance-double - ----------------
#NOTES:
     dance-double:
     :
     Hard:
     7:
     0.322972,0.398467,0.063303,0.081389,0.090432,250.000000,243.000000,7.000000,9.000000,0.000000,0.000000,0.322972,0.398467,0.063303,0.081389,0.090432,250.000000,243.000000,7.000000,9.000000,0.000000,0.000000:
00000000
00000000
00000000
00000000
,
00000000
00000000
00000000
00000000
,
00000000
00000000
00000000
00000000
,
00011000
00000000
00100000
10000000
00100000
01000000
00010000
01000000
,
10000000
00000000
00100000
00001000
00000100
00000000
00010000
00000100
,
00000010
00000000
00000001
00000010
00001000
00000010
00000001
00000100
,
00000010
00000000
00001000
00000100
00001000
00000000
00010000
00001000
,
00010000
00000000
00001000
00010000
00000100
00010000
00100000
00001000
,
00000100
00000000
00010000
00000010
00010000
00000000
00001000
00010000
,
00001000
00000000
00001000
00000100
00010000
00100000
00000000
00011000
,
00000000
00010100
00000000
00010000
00000010
00000100
00000000
00000000
,
00000010
00000000
00000001
00000000
00000010
00000000
00001000
00000010
,
00000100
00000000
00001000
00000000
00010000
00000000
00001000
01000000
,
00100000
00000000
00000000
10000000
00000000
00000000
00010000
00000000
00000000
00100000
00000000
00000000
01000000
00000000
10000000
00000000
,
00010000
00000000
10000000
00000000
01000000
00000000
00010000
10000000
,
01000000
00000000
00100000
00000000
00001000
00000000
00100000
00010000
,
01000000
00000000
00010000
00000000
00000100
00000000
00001000
00000010
,
00000100
00000000
00000000
00001000
00000000
00000000
00000010
00000000
00000000
00000100
00000000
00000000
00000001
00000000
00000010
00000000
,
00001000
00000000
00000100
00000000
00001000
00000000
00100000
00010000
,
01000000
00000000
10000000
00000000
01000000
00000000
00010000
01000000
,
00100000
00000000
00010000
00000000
00001000
00000000
00010000
00000010
,
00000100
00000000
00000000
00000001
00000000
00000000
00001000
00000000
00000000
00000100
00000000
00000000
00000010
00000000
00000001
00000000
,
00001000
00000000
00000001
00000000
00000010
00000000
00001000
00000001
,
00000010
00000000
00000100
00000000
00010000
00000000
00000100
00001000
,
00000010
00000000
00001000
00000000
00100000
00000000
00010000
01000000
,
00020000
00000000
00000000
00000000
00000000
00001000
00000000
00002000
,
00000000
00000000
00000000
00033000
,
00000010
00000000
00000001
00000000
00000010
00000000
00001000
00000010
,
00000100
00000000
00001000
00000000
00010000
00000000
00001000
01000000
,
00100000
00000000
00000000
10000000
00000000
00000000
00010000
00000000
00000000
00100000
00000000
00000000
01000000
00000000
10000000
00000000
,
00010000
00000000
10000000
00000000
01000000
00000000
00010000
10000000
,
01000000
00000000
00100000
00000000
00001000
00000000
00100000
00010000
,
01000000
00000000
00010000
00000000
00000100
00000000
00001000
00000010
,
00000100
00000000
00000000
00001000
00000000
00000000
00000010
00000000
00000000
00000100
00000000
00000000
00000001
00000000
00000010
00000000
,
00002000
00000000
00000000
00003000
,
01000000
00000000
10000000
00000000
01000000
00000000
00010000
01000000
,
00100000
00000000
00010000
00000000
00001000
00000000
00010000
00000010
,
00000100
00000000
00000000
00000001
00000000
00000000
00001000
00000000
00000000
00000100
00000000
00000000
00000010
00000000
00000001
00000000
,
00001000
00000000
00000001
00000000
00000010
00000000
00001000
00000001
,
00000010
00000000
00000100
00000000
00010000
00000000
00000100
00001000
,
00000010
00000000
00001000
00000000
00100000
00000000
00010000
01000000
,
00200000
00000000
00000000
00000000
,
00002000
00000000
00000000
00303000
,
00100000
00000000
00000000
00000000
10000000
00000000
00000000
00000000
01000000
00000000
00000000
01000000
00000000
00000000
01000000
00000000
,
00010000
00000000
00000000
00000000
00001000
00000000
00000000
00000000
00000010
00000000
00000000
00000010
00000000
00000000
00000010
00000000
,
00000100
00000000
00000000
00000000
00010000
00000000
00000000
00000000
00001000
00000000
00000000
00001000
00000000
00000000
00001000
00000000
,
01000000
00000000
00000000
00000000
10010000
00000000
00000000
00000000
00100000
00000000
00000000
10010000
00000000
00000000
00010000
00000000
,
00100000
00000000
01000000
00000000
10000000
00000000
00000000
00000000
01000000
00000000
00000000
01000000
00000000
00000000
01000000
00000000
,
00010000
00000000
00001000
00000000
00010000
00000000
00000000
00000000
00000010
00000000
00000000
00000010
00000000
00000000
00000010
00000000
,
00000100
00000000
00001000
00000000
00010000
00000000
00000000
00000000
00001000
00000000
00000000
00001000
00000000
00000000
00001000
00000000
,
01000000
00000000
00000000
00000000
00101000
00000000
00000000
00000000
00100000
00000000
00000000
01001000
00000000
00000000
00010000
00000000
,
00002000
00000000
00000000
00000000
,
00000000
00000000
00000000
00000000
,
00000200
00000000
00000000
00000000
,
00003000
00000000
00000000
00000000
,
00020000
00000000
00000000
00000000
,
00000300
00000000
00000000
00000000
,
20000000
00000000
00000000
00000000
,
00030000
00000000
00000000
30000000
;

//---------------dance-single - ----------------
#NOTES:
     dance-single:
     :
     Challenge:
     5:
     0.175697,0.239080,0.036173,0.180865,0.000000,136.000000,132.000000,4.000000,20.000000,116.000000,0.000000,0.175697,0.239080,0.036173,0.180865,0.000000,136.000000,132.000000,4.000000,20.000000,116.000000,0.000000:
// measure 0
0000
0000
0000
0000
,  // measure 1
0000
0000
0000
0000
,  // measure 2
0000
0000
0000
0000
,  // measure 3
2000
3010
MMMM
0000
,  // measure 4
0200
0010
1300
0000
,  // measure 5
0020
0031
MMMM
0000
,  // measure 6
0002
1000
0013
0000
,  // measure 7
2000
3010
MMMM
0000
,  // measure 8
1002
0000
0103
0000
,  // measure 9
0210
0000
0301
0000
,  // measure 10
1000
0001
0010
0100
,  // measure 11
MMMM
0010
0100
0010
,  // measure 12
MMMM
0000
0100
0010
,  // measure 13
2000
3000
0001
0010
,  // measure 14
0010
0100
0001
0010
,  // measure 15
0200
0000
0000
0001
,  // measure 16
0301
0010
1001
0100
,  // measure 17
0020
0000
0000
0100
,  // measure 18
0130
1000
0001
0010
,  // measure 19
MMMM
0100
MMMM
0100
,  // measure 20
MMMM
0100
MMMM
0100
,  // measure 21
MMMM
0100
MMMM
0100
,  // measure 22
MMMM
0100
MMMM
0100
,  // measure 23
MMMM
1000
MMMM
1000
,  // measure 24
MMMM
1000
MMMM
1000
,  // measure 25
0002
0000
1000
2000
,  // measure 26
0000
0000
0000
3003
,  // measure 27
1000
0100
1000
0010
,  // measure 28
MMMM
0100
1000
0100
,  // measure 29
0001
0010
1000
0100
,  // measure 30
MMMM
0001
0100
0100
,  // measure 31
0010
1000
0100
1000
,  // measure 32
MMMM
0001
0100
0010
,  // measure 33
1000
0100
0010
0100
,  // measure 34
2002
0000
0000
3003
,  // measure 35
0010
0010
0001
0100
,  // measure 36
MMMM
0100
1000
0100
,  // measure 37
1000
0001
0010
1000
,  // measure 38
MMMM
0010
1000
0001
,  // measure 39
0100
0100
0001
0100
,  // measure 40
MMMM
1000
1000
1000
,  // measure 41
0200
0000
0000
0000
,  // measure 42
0020
0000
0000
0330
,  // measure 43
0010
0100
MMMM
0000
,  // measure 44
0010
0100
MMMM
0000
,  // measure 45
0010
0100
MMMM
0000
,  // measure 46
0001
1000
0100
0010
,  // measure 47
0001
1000
MMMM
0000
,  // measure 48
0001
1000
MMMM
0000
,  // measure 49
0001
1000
MMMM
0000
,  // measure 50
0010
0100
1000
0001
,  // measure 51
0020
0000
0000
0000
,  // measure 52
0000
0000
0000
0000
,  // measure 53
0002
0000
0000
0000
,  // measure 54
0030
0000
0000
0000
,  // measure 55
0200
0000
0000
0000
,  // measure 56
0003
0000
0000
0000
,  // measure 57
2000
0000
0000
0000
,  // measure 58
0300
0000
0000
3000
;

//---------------dance-double - ----------------
#NOTES:
     dance-double:
     :
     Challenge:
     5:
     0.164070,0.212516,0.036173,0.171821,0.000000,127.000000,123.000000,4.000000,19.000000,224.000000,0.000000,0.164070,0.212516,0.036173,0.171821,0.000000,127.000000,123.000000,4.000000,19.000000,224.000000,0.000000:
00000000
00000000
00000000
00000000
,
00000000
00000000
00000000
00000000
,
00000000
00000000
00000000
00000000
,
20000000
00000000
30100000
00000000
,
02000000
00000000
03001000
00000000
,
00000020
00000000
00010030
00000000
,
00020000
00000000
00030100
00000000
,
00002000
00000000
00103000
00000000
,
00012000
00000000
01003000
00000000
,
02100000
00000000
03010000
00000000
,
10000000
00010000
00100000
01000000
,
MMMMMMMM
00100000
01000000
00100000
,
MMMMMMMM
00000000
01000000
00010000
,
MMMMMMMM
00000000
00000001
00000010
,
MMMMMMMM
00000100
00010000
00100000
,
02000000
00000000
00000000
00001000
,
03001000
00100000
00011000
01000000
,
00200000
00000000
00000000
01000000
,
01300000
10000000
00010000
00100000
,
MMMMMMMM
01000000
MMMMMMMM
01000000
,
MMMMMMMM
01000000
MMMMMMMM
01000000
,
MMMMMMMM
01000000
MMMMMMMM
01000000
,
MMMMMMMM
01000000
MMMMMMMM
01000000
,
MMMMMMMM
00001000
MMMMMMMM
00001000
,
MMMMMMMM
00001000
MMMMMMMM
00001000
,
00020000
00000000
00001000
00002000
,
00000000
00000000
00000000
00033000
,
00001000
00000100
00010000
00000010
,
MMMMMMMM
00000100
00001000
00000000
,
00010000
00000010
00001000
01000000
,
MMMMMMMM
00010000
01000000
00000000
,
00100000
10000000
01000000
10000000
,
MMMMMMMM
00010000
01000000
00000000
,
00100000
00001000
00010000
00001000
,
00020200
00000000
00000000
00030300
,
00000010
00000010
00000001
00000100
,
MMMMMMMM
00000100
00001000
00000000
,
00100000
00010000
00100000
10000000
,
MMMMMMMM
00100000
10000000
00000000
,
01000000
01000000
00010000
00000100
,
MMMMMMMM
00001000
00001000
00001000
,
02000000
00000000
00000000
00000000
,
00200000
00000000
00000000
03300000
,
00100000
01000000
MMMMMMMM
00000000
,
00010000
00001000
MMMMMMMM
00000000
,
00000010
00000100
MMMMMMMM
00000000
,
00000001
00001000
00000100
00000010
,
00000001
00001000
MMMMMMMM
00000000
,
00001000
00010000
MMMMMMMM
00000000
,
00010000
10000000
MMMMMMMM
00000000
,
00100000
01000000
10000000
00010000
,
00200000
00000000
00000000
00000000
,
00000000
00000000
00000000
00000000
,
00020000
00000000
00000000
00000000
,
00300000
00000000
00000000
00000000
,
00002000
00000000
00000000
00000000
,
00030000
00000000
00000000
00000000
,
00000020
00000000
00000000
00000000
,
00003000
00000000
00000000
00000030
;
