#TITLE:Sonic Heroes;
#SUBTITLE:;
#ARTIST:Crush 40;
#TITLETRANSLIT:;
#SUBTITLETRANSLIT:;
#ARTISTTRANSLIT:;
#GENRE:;
#CREDIT:;
#BANNER:Sonic Heroes.png;
#BACKGROUND:Sonic Heroes-bg.png;
#LYRICSPATH:;
#CDTITLE:cdtitle.png;
#MUSIC:Sonic Heroes.ogg;
#OFFSET:0.050000;
#SAMPLESTART:48.230000;
#SAMPLELENGTH:15.000000;
#SELECTABLE:YES;
#DISPLAYBPM:188.000000;
#BPMS:0.000000=188.039993
;
#STOPS:
;
#BGCHANGES:0.000=Sonic Heroes.avi=1.000=1=0=0=StretchNoLoop==CrossFade==,
99999=-nosongbg-=1.000=0=0=0 // don't automatically add -songbackground-
;
#KEYSOUNDS:;
#ATTACKS:;

//---------------dance-single - ----------------
#NOTES:
     dance-single:
     :
     Easy:
     6:
     0.284392,0.358282,0.125073,0.239723,0.000000,191.000000,179.000000,12.000000,23.000000,0.000000,0.000000,0.284392,0.358282,0.125073,0.239723,0.000000,191.000000,179.000000,12.000000,23.000000,0.000000,0.000000:
0000
0000
0000
0000
,
0000
0000
0000
0000
,
0000
0000
0000
0000
,
0000
0000
0000
0000
,
0000
0000
0000
0000
,
1000
0100
1000
0000
,
0001
0100
1000
0000
,
2000
0000
0010
0000
,
3002
0000
0010
0000
,
0103
1000
0001
0000
,
1000
0001
0010
0000
,
0200
0000
0001
0000
,
0320
0000
1000
0000
,
0130
0000
0000
0000
,
1000
0010
0010
0000
,
0010
1000
0010
0001
,
0010
0100
0001
0010
,
0100
0010
2002
3003
,
0010
0100
0100
0010
,
1000
0001
0220
0330
,
1000
0100
0100
1000
,
0010
0001
0220
0330
,
1000
0001
0010
0010
,
0100
0001
2002
3003
,
0100
1000
0100
0010
,
0001
0100
0220
0330
,
0100
0100
0001
0010
,
0100
1000
2002
3003
,
0010
0001
0010
0100
,
0100
0001
0220
0330
,
1000
0000
0001
0000
,
0010
0000
0010
0000
,
0001
0000
1000
0000
,
0100
0000
0100
0000
,
1000
0000
0001
0000
,
0010
0000
0010
0000
,
0001
0000
1000
0000
,
0000
0100
0000
0100
0000
0000
0000
0000
,
1000
0000
0000
0100
0000
0000
1000
0000
,
0100
0001
0000
0110
,
0001
0000
0000
0100
0000
0000
0001
0000
,
0010
1000
0000
0110
,
1000
0100
1000
0010
,
0001
0100
0100
0010
,
1000
0100
0010
0001
,
0200
0000
0000
0300
,
0010
0000
0000
1000
0000
0000
0010
0000
,
1000
0100
0000
1001
,
0100
0000
0000
1000
0000
0000
0100
0000
,
0001
0010
0000
1001
,
0010
1000
0010
0001
,
0100
1000
1000
0001
,
0010
1000
0001
0100
,
2000
0000
0000
3000
,
1000
0000
0000
0010
0000
0000
1000
0000
,
0010
0000
0000
0100
0000
0000
0001
0000
,
0100
0000
0000
0010
0000
0000
0100
0000
,
0001
0000
0000
1000
0000
0000
0100
0000
,
1000
0010
1000
0001
,
0100
0010
0010
0001
,
1000
0010
0001
0100
,
0020
0000
0000
0030
,
0000
0100
1000
0010
,
0001
0100
0100
0001
,
1000
0000
0000
0001
0000
0000
1000
0000
,
0000
0220
0000
0000
,
0000
0000
0000
0000
,
0000
0000
0000
0000
,
0000
0000
0000
0330
;

//---------------dance-single - ----------------
#NOTES:
     dance-single:
     :
     Beginner:
     3:
     0.102738,0.179141,0.010423,0.177187,0.000000,69.000000,68.000000,1.000000,17.000000,0.000000,0.000000,0.102738,0.179141,0.010423,0.177187,0.000000,69.000000,68.000000,1.000000,17.000000,0.000000,0.000000:
// measure 0
0000
0000
0000
0000
,  // measure 1
0000
0000
0000
0000
,  // measure 2
0000
0000
0000
0000
,  // measure 3
0000
0000
0000
0000
,  // measure 4
0000
0000
0000
0000
,  // measure 5
0001
0000
0000
0000
,  // measure 6
1000
0000
0000
0000
,  // measure 7
0020
0000
0030
0000
,  // measure 8
0200
0000
0300
0000
,  // measure 9
0001
0000
0000
0000
,  // measure 10
1000
0000
0000
0000
,  // measure 11
0020
0000
0030
0000
,  // measure 12
0200
0000
0300
0000
,  // measure 13
1000
0000
0000
0000
,  // measure 14
0001
0000
1000
0000
,  // measure 15
0001
0000
0000
0000
,  // measure 16
0010
0000
0000
0000
,  // measure 17
0100
0000
0010
0000
,  // measure 18
0100
0000
0000
0000
,  // measure 19
1000
0000
0000
0000
,  // measure 20
0001
0000
0100
0000
,  // measure 21
1000
0000
0100
0000
,  // measure 22
0001
0000
0000
0000
,  // measure 23
1000
0000
0000
0000
,  // measure 24
0010
0000
0001
0000
,  // measure 25
1000
0000
0000
0000
,  // measure 26
0100
0000
0000
0000
,  // measure 27
0010
0000
0010
0000
,  // measure 28
0100
0000
0000
0000
,  // measure 29
1001
0000
0000
0000
,  // measure 30
2000
0000
3000
0000
,  // measure 31
1000
0000
0000
0000
,  // measure 32
0002
0000
0003
0000
,  // measure 33
0001
0000
0000
0000
,  // measure 34
0200
0000
0300
0000
,  // measure 35
0100
0000
0000
0000
,  // measure 36
0020
0000
0030
0000
,  // measure 37
0010
0000
0000
0000
,  // measure 38
2000
0000
0000
0000
,  // measure 39
0000
3000
0000
0000
,  // measure 40
0002
0000
0000
0000
,  // measure 41
0000
0003
0000
0000
,  // measure 42
1000
0000
0000
0000
,  // measure 43
0001
0000
0000
0000
,  // measure 44
1000
0000
0010
0000
,  // measure 45
0100
0000
0000
0000
,  // measure 46
0002
0000
0000
0000
,  // measure 47
0000
0003
0000
0000
,  // measure 48
2000
0000
0000
0000
,  // measure 49
0000
3000
0000
0000
,  // measure 50
0001
0000
0000
0000
,  // measure 51
1000
0000
0000
0000
,  // measure 52
0001
0000
0100
0000
,  // measure 53
0010
0000
0000
0000
,  // measure 54
0200
0000
0300
0000
,  // measure 55
0020
0000
0030
0000
,  // measure 56
0200
0000
0300
0000
,  // measure 57
0020
0000
0030
0000
,  // measure 58
0100
0000
0000
0000
,  // measure 59
0010
0000
0000
0000
,  // measure 60
0100
0000
1000
0000
,  // measure 61
0001
0000
0000
0000
,  // measure 62
1000
0000
1000
0000
,  // measure 63
0001
0000
1000
0000
,  // measure 64
0000
0000
1000
0000
,  // measure 65
0000
0200
0000
0000
,  // measure 66
0000
0000
0000
0000
,  // measure 67
0000
0000
0000
0000
,  // measure 68
0000
0000
0000
0300
;

//---------------dance-single - ----------------
#NOTES:
     dance-single:
     :
     Medium:
     9:
     0.403509,0.501595,0.521137,0.166764,0.000000,271.000000,221.000000,50.000000,16.000000,0.000000,0.000000,0.403509,0.501595,0.521137,0.166764,0.000000,271.000000,221.000000,50.000000,16.000000,0.000000,0.000000:
0000
0000
0000
0000
,
0000
0000
0000
0000
,
0000
0000
0000
0000
,
0000
0000
0000
0000
,
0000
0000
0000
0000
,
1000
0000
1000
0001
0000
0001
0100
0000
,
0100
0000
0100
0010
0000
0010
1000
0000
,
1001
0000
0100
0000
0001
0000
0010
1000
,
0000
0100
0001
0010
,
0100
0000
0100
0010
0000
0010
1000
0000
,
1000
0000
1000
0001
0000
0001
0100
0000
,
0110
0000
1000
0000
0010
0000
0001
0100
,
0000
1000
0010
0001
,
1000
0010
0000
0010
0000
0202
0000
0303
,
1000
0000
1000
0000
1000
0000
0000
0001
,
0000
0001
0000
0001
0000
0000
0110
0000
,
1000
0000
0001
0010
0000
0100
0000
0010
,
0000
1000
0000
0100
0000
0000
1010
0000
,
0100
0000
0001
1000
0000
0100
0000
0010
,
0100
0010
0000
0220
0000
0330
0000
1000
,
0100
0000
0100
0010
0000
0001
0000
0100
,
0000
0100
0000
0020
0000
0030
0000
0000
,
1000
0000
0100
0010
0100
0000
0000
1000
,
0000
0100
0000
1100
0000
0000
0001
0000
,
1000
0000
0010
0001
0000
0010
0000
0100
,
0000
0100
0000
2020
0000
3030
0000
0000
,
0100
0000
0100
0001
0000
0010
0000
1000
,
0000
0100
0000
0022
0033
0000
1000
0010
,
1000
0000
0001
0100
0000
0100
0000
0001
,
0000
0010
0000
0100
0000
0000
0100
0000
,
1001
0000
1010
0000
,
1000
0100
0010
0001
,
0110
0000
0101
0000
,
0010
0100
0001
1000
,
0101
0000
1100
0000
,
0100
0010
0001
0200
,
0001
0000
0001
0000
0301
0000
0000
1000
,
0000
1001
0000
0110
0000
0000
0000
0000
,
1100
0000
0000
0101
0000
0000
1001
0000
,
0000
0110
0000
1100
,
0101
0000
0000
1100
0000
0000
0110
0000
,
0000
0110
0000
1001
,
0010
0000
0100
0001
0100
0000
0010
0000
,
1000
0000
0100
1000
0100
0000
0010
0000
,
1000
0000
0001
0010
0001
0000
0100
0000
,
2000
0000
0000
3000
,
0101
0000
0000
0011
0000
0000
0110
0000
,
0000
1001
0000
0101
,
0011
0000
0000
0101
0000
0000
1001
0000
,
0000
1001
0000
0110
,
1000
0000
0001
0010
0001
0000
1000
0000
,
0100
0000
0001
0100
0001
0000
1000
0000
,
0100
0000
0010
1000
0010
0000
0001
0000
,
0200
0000
0000
0300
,
0110
0000
0000
0110
0000
0000
1001
0000
,
1001
0000
0000
0110
0000
0000
1100
0000
,
0101
0000
0000
1100
0000
0000
0011
0000
,
1010
0000
0000
0110
0000
0000
1100
0000
,
0010
0000
0100
0001
0100
0000
0010
0000
,
1000
0000
0100
1000
0100
0000
0010
0000
,
1000
0000
0001
0010
0001
0000
0100
0000
,
2000
0000
0000
3000
,
0000
0001
0000
1000
0000
0001
0000
0020
,
0000
0130
1000
0100
,
0010
0010
0000
1000
1000
0000
0001
0001
,
0000
2200
0000
0000
,
0000
0000
0000
0000
,
0000
0000
0000
0000
,
0000
0000
0000
3300
;

//---------------dance-single - ----------------
#NOTES:
     dance-single:
     :
     Hard:
     13:
     0.574740,0.716564,0.239723,0.166764,0.000000,386.000000,363.000000,23.000000,16.000000,0.000000,0.000000,0.574740,0.716564,0.239723,0.166764,0.000000,386.000000,363.000000,23.000000,16.000000,0.000000,0.000000:
0000
0000
0000
0000
,
0000
0000
0000
0000
,
0000
0000
0000
0000
,
0000
0000
0000
0000
,
0000
0000
0000
0000
,
1000
0100
1000
0010
0000
0010
0100
0000
,
0001
0010
0100
1000
0000
1000
0001
0000
,
0020
0000
1000
0000
0100
0000
1030
0200
,
0000
0001
0001
0301
,
0100
0001
0100
1000
0000
1000
0001
0000
,
0010
1000
0001
0100
0000
0100
0010
0000
,
2000
0000
0100
0000
0001
0000
3100
0002
,
0000
0010
0010
0013
,
1000
0100
0000
1100
0000
0202
0303
0000
,
1000
0100
0010
1000
0001
0100
0000
1000
,
0001
0100
0010
0200
0000
0300
0000
0000
,
0100
1000
0010
0100
0001
0010
1000
0100
,
0010
1000
0001
0010
0200
0000
0300
0000
,
1000
0100
1000
0010
0010
0100
0001
0010
,
0010
0001
0100
0010
2000
0000
3000
0000
,
0001
0001
1000
0010
0010
0100
0001
0010
,
0100
0001
1000
0100
0020
0000
0030
0000
,
0000
0001
0010
0100
0001
1000
0000
0001
,
0010
0001
1000
0010
0200
0000
0300
0000
,
0010
0001
0100
0010
1000
0100
0001
0010
,
0100
0001
1000
0100
0020
0000
0030
0000
,
0001
0010
0001
0100
0100
0010
1000
0100
,
0100
1000
0010
0100
0002
0000
0003
0000
,
1000
1000
0001
0100
0100
0010
1000
0100
,
0010
1000
0001
0010
0200
0000
0300
0000
,
1001
0000
1000
0100
0001
0000
1000
0100
,
0001
0000
1000
0010
0001
0010
1000
0000
,
0110
0000
0100
1000
0010
0000
0100
1000
,
0010
0000
0100
0001
0010
0001
0100
0000
,
1001
0000
0001
0010
1000
0000
0001
0010
,
1000
0000
0001
0100
1000
0100
0001
0000
,
0011
0000
1000
0100
0000
0100
0001
1000
,
0100
0010
1000
0100
0000
0000
0000
0000
,
1001
0000
1000
0001
0000
0001
0100
0000
,
1000
1000
0100
0010
0001
0010
1000
0100
,
0011
0000
0100
1000
0000
0100
0010
0000
,
1000
0100
0100
0010
1000
0100
0010
0000
,
0100
1000
0010
0001
1000
0000
0100
0010
,
1000
0001
0100
0010
0100
0000
0001
0010
,
0100
0001
1000
0100
0001
0000
1000
0100
,
1000
0010
0100
0010
1000
0000
0110
0000
,
0110
0000
0010
0100
0000
0100
1000
0000
,
0010
0010
1000
0001
0100
0001
0010
1000
,
0101
0000
1000
0010
0000
1000
0001
0000
,
0010
1000
1000
0001
0010
1000
0001
0000
,
1000
0010
0001
0100
0010
0000
1000
0001
,
0010
0100
1000
0001
1000
0000
0100
0001
,
1000
0100
0010
1000
0100
0000
0010
1000
,
0010
0001
1000
0001
0010
0000
1001
0000
,
1100
0000
1000
1000
0000
1000
0100
0000
,
0101
0000
1000
0001
0000
0010
0001
0000
,
0011
0000
0010
0010
0000
0010
0100
0000
,
0001
0010
0100
0010
1000
0010
0001
0000
,
0100
0010
0001
0100
0001
0000
1000
0010
,
1000
1000
0100
0100
1000
0000
0001
1000
,
1000
0100
1000
0001
0100
0000
1000
0010
,
1000
0001
0100
0001
0010
0000
0101
0000
,
0000
1000
0100
1000
0010
0100
0001
0010
,
0000
0000
0001
0100
1000
0010
0001
0100
,
1001
1001
0000
1100
1100
0000
0101
0101
,
0000
2002
0000
0000
,
0000
0000
0000
0000
,
0000
0000
0000
0000
,
0000
0000
0000
3003
;
