#TITLE:Pushing Me Away;
#SUBTITLE:;
#ARTIST:Linkin Park;
#TITLETRANSLIT:;
#SUBTITLETRANSLIT:;
#ARTISTTRANSLIT:;
#GENRE:;
#CREDIT:;
#BANNER:Pushing Me Away.png;
#BACKGROUND:Pushing Me Away-bg.png;
#LYRICSPATH:;
#CDTITLE:cdtitle.png;
#MUSIC:Pushing Me Away.ogg;
#OFFSET:-4.946000;
#SAMPLESTART:58.450001;
#SAMPLELENGTH:15.000000;
#SELECTABLE:YES;
#DISPLAYBPM:103.000000;
#BPMS:0.000000=103.099998
,120.000000=102.099998
,124.000000=103.099998
;
#STOPS:
;
#BGCHANGES:;
#KEYSOUNDS:;
#ATTACKS:;

//---------------dance-single - ----------------
#NOTES:
     dance-single:
     :
     Easy:
     5:
     0.170839,0.201157,0.155020,0.029528,0.000000,162.000000,141.000000,21.000000,4.000000,0.000000,0.000000,0.170839,0.201157,0.155020,0.029528,0.000000,162.000000,141.000000,21.000000,4.000000,0.000000,0.000000:
0000
0000
0000
0000
,
0000
0000
0000
0000
,
0000
0000
0000
0000
,
1000
1000
0100
0000
,
0001
0010
0100
1001
,
0100
0100
0001
0000
,
0010
0100
0001
0000
,
1000
0001
1001
0000
,
0100
0010
0110
0000
,
1000
0100
1000
0000
,
0100
0001
0010
0000
,
0001
1000
1001
0000
,
0010
0100
0110
0000
,
0001
0100
0001
0000
,
0010
1000
0100
0000
,
0020
0000
0000
0000
,
0000
0000
0000
0030
,
1000
0100
0010
0001
,
0010
0010
0100
0001
,
0020
0000
0000
0000
,
0000
0000
0000
0030
,
1000
0100
0010
0001
,
0010
0010
0100
0001
,
1001
0000
0100
0010
,
1001
0000
0100
0010
,
1001
0000
0110
0000
,
1000
0100
0010
0001
,
0110
0000
1000
0001
,
0110
0000
1000
0001
,
0110
0000
1001
0000
,
0100
1000
0001
0010
,
0200
0000
0000
0000
,
0000
0000
0000
0300
,
1000
0100
0010
0001
,
0010
0010
0100
0001
,
0020
0000
0000
0000
,
0000
0000
0000
0030
,
1000
0100
0010
0001
,
0010
0010
0100
0001
,
1001
0000
0100
0010
,
1001
0000
0100
0010
,
1001
0000
0110
0000
,
1000
0100
0010
0001
,
0110
0000
1000
0001
,
0110
0000
1000
0001
,
0110
0000
1001
0000
,
0100
1000
0001
0010
,
0100
0000
0000
0000
0000
0000
0100
0100
,
0000
0000
0000
0000
0000
0000
0001
0001
,
0000
0000
0000
0000
0000
0000
1000
1000
,
1000
0100
0010
0001
,
0100
0000
0000
0000
0000
0000
0010
0010
,
0000
0000
0000
0000
0000
0000
0100
0100
,
0100
0000
0001
0000
,
1000
0000
0010
0000
;

//---------------dance-single - ----------------
#NOTES:
     dance-single:
     :
     Beginner:
     2:
     0.083310,0.099656,0.059055,0.029528,0.000000,79.000000,71.000000,8.000000,4.000000,0.000000,0.000000,0.083310,0.099656,0.059055,0.029528,0.000000,79.000000,71.000000,8.000000,4.000000,0.000000,0.000000:
0000
0000
0000
0000
,
0000
0000
0000
0000
,
0000
0000
0000
0000
,
1000
0000
0000
0000
,
0001
0000
0000
0100
,
0100
0000
0000
0000
,
0010
0000
0000
0000
,
1000
0000
0000
0000
,
0001
0000
0000
0000
,
0100
0000
1000
0000
,
0100
0000
0010
0000
,
0001
0000
0000
0000
,
0100
0000
0000
0000
,
0001
0000
0100
0000
,
0010
0000
0100
0000
,
0020
0000
0000
0000
,
0000
0000
0030
0000
,
1000
0000
0100
0000
,
0001
0000
0000
0010
,
0020
0000
0000
0000
,
0000
0000
0030
0000
,
1000
0000
0100
0000
,
0001
0000
0000
0000
,
1001
0000
0000
0000
,
1001
0000
0000
0000
,
1000
0000
0001
0000
,
1000
0000
0000
0000
,
0110
0000
0000
0000
,
0110
0000
0000
0000
,
0010
0000
0100
0000
,
0010
0000
0001
0000
,
0020
0000
0000
0000
,
0000
0000
0030
0000
,
1000
0000
0100
0000
,
0001
0000
0000
0010
,
0020
0000
0000
0000
,
0000
0000
0030
0000
,
1000
0000
0100
0000
,
0001
0000
0000
0000
,
1001
0000
0000
0000
,
1001
0000
0000
0000
,
1000
0000
0001
0000
,
1000
0000
0000
0000
,
0110
0000
0000
0000
,
0110
0000
0000
0000
,
0100
0000
0010
0000
,
0100
0000
1000
0000
,
0100
0000
0000
0100
,
0100
0000
0000
0010
,
0010
0000
0000
1000
,
1000
0000
0100
0000
,
0001
0000
0000
0010
,
0010
0000
0000
0100
,
0100
0000
0000
0000
,
1000
0000
0000
0000
;

//---------------dance-single - ----------------
#NOTES:
     dance-single:
     :
     Medium:
     7:
     0.202476,0.241389,0.081201,0.184548,0.014764,192.000000,181.000000,11.000000,25.000000,0.000000,0.000000,0.202476,0.241389,0.081201,0.184548,0.014764,192.000000,181.000000,11.000000,25.000000,0.000000,0.000000:
0000
0000
0000
0000
,
0000
0000
0000
0000
,
0000
0000
0000
0000
,
2001
0100
3100
0000
,
0210
0010
0301
1010
,
0012
1000
0103
0000
,
0210
0010
1300
0000
,
0011
0000
0001
0010
2000
0000
0000
0000
,
3000
0000
0010
0001
0200
0000
0000
0000
,
0300
0000
0010
0000
0100
0000
1000
0001
,
0010
0100
1001
0000
,
0000
0000
1000
0100
0002
0000
0000
0000
,
0003
0000
0010
1000
0200
0000
0000
0000
,
0300
0000
0001
0000
0001
0000
0100
0010
,
0100
1000
1000
0000
,
0020
0000
1000
0000
,
0001
0000
1000
0030
,
0001
0000
0000
0001
0000
0000
0001
0000
0000
0000
0100
0000
0000
0000
0010
0000
,
0000
1100
0000
0001
0000
1000
0000
0100
,
0020
0000
1000
0000
,
0001
0000
1000
0030
,
1000
0000
0000
1000
0000
0000
1000
0000
0000
0000
0010
0000
0000
0000
0101
0000
,
0000
0010
0000
0100
0000
1000
0000
0000
,
0001
0000
0000
0000
1000
0100
1000
0000
,
0100
0000
0000
0000
0010
0001
0010
0000
,
0200
0300
0020
0030
,
1000
0100
0001
0000
1000
0010
0001
0000
,
1000
0000
0000
0000
0001
0010
0001
0000
,
0010
0000
0000
0000
0100
1000
0100
0000
,
0020
0030
0200
0300
,
0001
0010
1000
0000
0001
0100
1000
0000
,
0020
1000
1000
0000
,
0001
0000
0001
0030
,
0001
0000
0000
0001
0000
0000
0001
0000
0000
0000
0100
0000
0000
0000
0010
0000
,
0000
1100
0000
0001
0000
1000
0000
0100
,
0020
1000
1000
0000
,
0001
0000
1000
0030
,
1000
0000
0000
1000
0000
0000
1000
0000
0000
0000
0010
0000
0000
0000
0101
0000
,
0000
0010
0000
0100
0000
1000
0000
0000
,
0001
0000
0000
0000
1000
0100
1000
0000
,
0100
0000
0000
0000
0010
0001
0010
0000
,
0200
0300
0020
0030
,
1000
0100
0001
0000
1000
0010
0001
0000
,
1000
0000
0000
0000
0001
0010
0001
0000
,
0010
0000
0000
0000
0100
1000
0100
0000
,
0020
0030
0200
0300
,
0001
0010
1000
0000
0001
0100
1000
0000
,
0002
0000
0000
0000
0003
0000
1000
1000
,
2000
0000
0000
0000
3000
0000
0010
0010
,
0020
0000
0000
0000
0030
0000
0100
0100
,
1000
0100
0001
0000
1000
0010
0001
0000
,
0200
0000
0000
0000
0300
0000
0010
0010
,
0020
0000
0000
0000
0030
0000
1000
1000
,
1000
0000
0100
0000
,
0001
0000
1000
0000
;

//---------------dance-single - ----------------
#NOTES:
     dance-single:
     :
     Challenge:
     13:
     0.533608,0.565825,0.538881,0.088583,0.298968,506.000000,433.000000,73.000000,12.000000,0.000000,0.000000,0.533608,0.565825,0.538881,0.088583,0.298968,506.000000,433.000000,73.000000,12.000000,0.000000,0.000000:
// measure 0
0000
0000
0000
0000
,  // measure 1
0000
0000
0000
0000
,  // measure 2
0000
0000
0000
0000
,  // measure 3
1001
0000
0000
0000
0010
0000
1000
0000
0100
0000
0010
0000
0001
0100
1000
0000
,  // measure 4
0110
0000
0000
0000
0001
0000
0100
0000
1000
0000
0001
0000
0010
0001
0100
0000
,  // measure 5
1010
0000
0000
0000
0100
0000
0010
0000
1000
0000
0001
0000
0100
1000
0010
0000
,  // measure 6
0101
0000
0000
0000
0010
0000
1000
0000
0001
0000
0100
0000
0010
0001
1000
0000
,  // measure 7
0010
0000
1002
0000
0103
0100
0010
0001
,  // measure 8
1000
0100
1020
0000
0031
0001
1000
0010
,  // measure 9
0100
0001
0210
0000
0301
0001
1000
0100
,  // measure 10
1000
0000
0010
0000
0100
1000
0001
0000
0020
0000
0000
0000
0230
0000
0000
0000
,  // measure 11
0301
0010
0021
0000
1030
1000
0001
0100
,  // measure 12
0010
1000
0201
0000
0310
0010
1000
0100
,  // measure 13
0001
0001
0020
1000
0130
0100
0010
1000
,  // measure 14
0100
0000
0010
0000
0010
0000
1000
0000
0001
0000
0010
1000
0100
0000
0010
0000
,  // measure 15
1002
0000
1000
1000
1000
0000
0000
0010
,  // measure 16
0010
0010
0000
0000
1000
1000
1003
0000
,  // measure 17
0100
0000
0001
0100
0000
0001
0100
0000
0010
0000
1010
0000
0100
0000
0001
0000
,  // measure 18
1000
0000
0110
0000
0001
0000
1000
0000
0100
0000
0011
0000
0100
1000
0001
0000
,  // measure 19
0120
0000
0100
0100
0100
0000
0000
0001
,  // measure 20
0001
0001
0000
0000
0100
0100
0130
0000
,  // measure 21
0010
0000
1000
0010
0000
1000
0010
0000
0100
0000
0101
0000
0010
0000
1000
0000
,  // measure 22
0001
0000
0110
0000
1000
0000
0001
0000
0010
0000
1100
0000
0010
0001
1000
0000
,  // measure 23
1001
0000
1001
0000
0010
0100
0000
1000
0010
1000
0001
1000
0100
0000
0010
0000
,  // measure 24
0110
0000
0110
0000
0001
1000
0000
0100
0001
0100
0010
0100
1000
0000
0001
0000
,  // measure 25
0100
0001
1000
0001
0100
0000
0000
0000
0010
1000
0001
1000
0010
0000
0000
0000
,  // measure 26
0110
0000
1001
0000
0100
0000
1100
0000
0001
0000
0110
0000
0100
1000
0001
0000
,  // measure 27
1001
0000
1001
0000
0100
0010
0000
0001
0100
0001
1000
0001
0010
0000
0100
0000
,  // measure 28
0110
0000
0110
0000
1000
0001
0000
0010
1000
0010
0100
0010
0001
0000
1000
0000
,  // measure 29
0010
1000
0001
1000
0010
0000
0000
0000
0100
0001
1000
0001
0100
0000
0000
0000
,  // measure 30
0110
0000
1001
0000
0010
0000
0011
0000
1000
0000
0110
0000
0010
0001
1000
0000
,  // measure 31
1002
0000
1000
1000
1000
0000
0000
0010
,  // measure 32
0010
0010
0000
0000
1000
1000
1003
0000
,  // measure 33
0100
0000
0001
0100
0000
0001
0100
0000
0010
0000
1010
0000
0100
0000
0001
0000
,  // measure 34
1000
0000
0110
0000
0001
0000
1000
0000
0100
0000
0011
0000
0100
1000
0001
0000
,  // measure 35
0120
0000
0100
0100
0100
0000
0000
0001
,  // measure 36
0001
0001
0000
0000
0100
0100
0130
0000
,  // measure 37
0010
0000
1000
0010
0000
1000
0010
0000
0100
0000
0101
0000
0010
0000
1000
0000
,  // measure 38
0001
0000
0110
0000
1000
0000
0001
0000
0010
0000
1100
0000
0010
0001
1000
0000
,  // measure 39
1001
0000
1001
0000
0010
0100
0000
1000
0010
1000
0001
1000
0100
0000
0010
0000
,  // measure 40
0110
0000
0110
0000
0001
1000
0000
0100
0001
0100
0010
0100
1000
0000
0001
0000
,  // measure 41
0100
0001
1000
0001
0100
0000
0000
0000
0010
1000
0001
1000
0010
0000
0000
0000
,  // measure 42
0110
0000
1001
0000
0100
0000
1100
0000
0001
0000
0110
0000
0100
1000
0001
0000
,  // measure 43
1001
0000
1001
0000
0100
0010
0000
0001
0100
0001
1000
0001
0010
0000
0100
0000
,  // measure 44
0110
0000
0110
0000
1000
0001
0000
0010
1000
0010
0100
0010
0001
0000
1000
0000
,  // measure 45
0010
1000
0001
1000
0010
0000
0000
0000
0100
0001
1000
0001
0100
0000
0000
0000
,  // measure 46
0110
0000
1001
0000
0010
0000
0011
0000
1000
0000
0110
0000
0010
0001
1000
0000
,  // measure 47
0100
0000
0100
0000
0010
1000
0100
0010
0001
0000
0100
0000
1010
0000
1010
0000
,  // measure 48
0001
0000
0100
0000
0010
1000
0001
0100
1000
0000
0010
0000
1001
0000
1001
0000
,  // measure 49
0010
0000
0100
0000
0001
1000
0010
0001
0100
0000
0001
0000
1001
0000
1001
0000
,  // measure 50
0110
0000
1001
0000
0010
0000
0011
0000
1000
0000
0110
0000
0010
0001
1000
0000
,  // measure 51
0100
0000
0100
0000
0010
1000
0100
0010
0001
0000
0100
0000
1010
0000
1010
0000
,  // measure 52
0001
0000
0100
0000
0010
1000
0001
0100
1000
0000
0010
0000
1001
0000
1001
0000
,  // measure 53
0010
0001
0100
1001
,  // measure 54
0100
1000
0010
1001
;

//---------------dance-single - ----------------
#NOTES:
     dance-single:
     :
     Hard:
     10:
     0.318477,0.343536,0.199312,0.125493,0.044292,302.000000,275.000000,27.000000,17.000000,0.000000,0.000000,0.318477,0.343536,0.199312,0.125493,0.044292,302.000000,275.000000,27.000000,17.000000,0.000000,0.000000:
0000
0000
0000
0000
,
0000
0000
0000
0000
,
0000
0000
0000
0000
,
1000
0000
0001
0010
0100
1000
0010
0100
,
0010
0000
1000
0100
0100
0010
1000
0001
,
0010
0000
0100
0001
0010
0100
0100
1000
,
0001
0000
0100
0010
1000
0100
0100
0010
,
0100
0000
0001
1000
0010
0000
1000
0100
,
1000
0010
0100
0100
0001
0000
0101
0000
,
1100
0000
0100
0001
0001
1000
1000
0010
,
0001
0100
0010
1000
0100
0000
1010
0000
,
0011
0000
1000
0001
0010
0000
1000
0100
,
1000
0010
0001
0001
1000
0000
0110
0000
,
1010
0000
1000
0100
1000
0000
0010
0001
,
0010
0100
1000
0001
0010
0100
0000
1000
,
0002
0000
1000
0000
1000
0000
0000
0100
,
0000
0100
0000
0000
0010
0000
0013
0000
,
0100
0000
0000
1001
0000
0000
0010
0000
1000
0000
0100
0000
0000
0000
0010
0000
,
1000
0001
0000
0100
0100
0001
0010
0100
,
2000
0000
0001
0000
0001
0000
0000
0010
,
0000
0010
0000
0000
0100
0000
3100
0000
,
0001
0000
0000
0110
0000
0000
1000
0000
0010
0000
0001
0000
0000
0000
1000
0000
,
0010
0100
0000
0001
0001
0100
1000
0001
,
0210
0000
0001
0000
0010
0010
0310
0000
,
0120
0000
1000
0000
0100
0100
0130
0000
,
1001
0000
0000
0100
0000
0000
0000
0000
1001
0000
0000
0010
0000
0000
0000
0000
,
1000
0100
1000
0010
0100
0001
0010
0100
,
2001
0000
0010
0000
0100
0100
3100
0000
,
1002
0000
0100
0000
0010
0010
0013
0000
,
0110
0000
0000
1000
0000
0000
0000
0000
0110
0000
0000
0001
0000
0000
0000
0000
,
0100
1000
0100
0001
1000
0010
0001
1000
,
0002
0000
1000
0000
1000
0000
0000
0100
,
0000
0100
0000
0000
0010
0000
0013
0000
,
0100
0000
0000
1001
0000
0000
0010
0000
1000
0000
0100
0000
0000
0000
0010
0000
,
1000
0001
0000
0100
0100
0001
0010
0100
,
2000
0000
0001
0000
0001
0000
0000
0010
,
0000
0010
0000
0000
0100
0000
3100
0000
,
0001
0000
0000
0110
0000
0000
1000
0000
0010
0000
0001
0000
0000
0000
1000
0000
,
0010
0100
0000
0001
0001
0100
1000
0001
,
0210
0000
0001
0000
0010
0010
0310
0000
,
0120
0000
1000
0000
0100
0100
0130
0000
,
1001
0000
0000
0100
0000
0000
0000
0000
1001
0000
0000
0010
0000
0000
0000
0000
,
1000
0100
1000
0010
0100
0001
0010
0100
,
2001
0000
0010
0000
0100
0100
3100
0000
,
1002
0000
0100
0000
0010
0010
0013
0000
,
0110
0000
0000
1000
0000
0000
0000
0000
0110
0000
0000
0001
0000
0000
0000
0000
,
0100
1000
0100
0001
1000
0010
0001
1000
,
0200
0000
0000
0000
0000
0000
0010
0001
,
0320
0000
0000
0000
0000
0000
1000
0100
,
2030
0000
0000
0000
0000
0000
0100
0001
,
3100
1000
0100
0001
1000
0010
0001
1000
,
0020
0000
0000
0000
0000
0000
0100
1000
,
0230
0000
0000
0000
0000
0000
0001
0010
,
0301
0010
0000
1000
,
0010
0000
0100
1001
;
