#TITLE:Pretty G;
#SUBTITLE:;
#ARTIST:Zonlu;
#TITLETRANSLIT:;
#SUBTITLETRANSLIT:;
#ARTISTTRANSLIT:;
#GENRE:;
#CREDIT:;
#BANNER:Pretty G.png;
#BACKGROUND:Pretty G-bg.png;
#LYRICSPATH:;
#CDTITLE:;
#MUSIC:Pretty G.ogg;
#OFFSET:0.292000;
#SAMPLESTART:6.765000;
#SAMPLELENGTH:15.000000;
#SELECTABLE:YES;
#DISPLAYBPM:170.000000;
#BPMS:0.000000=170.039993
;
#STOPS:
;
#BGCHANGES:;
#KEYSOUNDS:;
#ATTACKS:;

//---------------dance-single - ----------------
#NOTES:
     dance-single:
     :
     Easy:
     5:
     0.262062,0.344651,0.177885,0.122296,0.000000,165.000000,149.000000,16.000000,11.000000,0.000000,0.000000,0.262062,0.344651,0.177885,0.122296,0.000000,165.000000,149.000000,16.000000,11.000000,0.000000,0.000000:
0000
0000
0000
0000
,
0000
0000
0000
0000
,
0000
0000
0000
0000
,
0000
0000
0000
0000
,
0000
0000
0000
0000
,
1000
0000
0010
0000
,
0001
0000
0100
0000
,
1000
0000
0100
0000
,
0001
0000
0100
0010
,
1001
0000
0000
0000
,
0100
0000
0010
0000
,
0100
0000
1000
0000
,
0002
0000
0200
0000
,
0303
1000
0100
0010
,
0010
1000
0100
1000
,
0010
0000
0100
0001
,
2000
0000
0010
3010
,
0100
0001
0110
1000
,
0100
0000
0001
0000
,
1000
0000
0001
0000
,
0200
0000
1000
1300
,
0000
0001
0010
0100
,
0100
0001
0010
0001
,
0100
0000
0010
1000
,
0002
0000
0100
0103
,
0010
1000
0110
0001
,
0010
0000
1000
0000
,
0001
0000
1000
0000
,
0020
0000
0001
0031
,
0100
0100
1001
0000
,
0010
0010
1001
0000
,
0100
0100
1001
0000
,
0001
0010
1000
0100
,
0001
0001
0110
0000
,
1000
1000
0110
0000
,
0001
0001
0110
0000
,
0100
1000
0010
0001
,
0200
0000
0301
0010
,
0100
0000
0000
0001
0000
0000
0000
0000
,
0100
0000
0000
1000
0000
0000
0000
0000
,
0100
0000
0000
0001
0000
0000
0000
0000
,
0020
0000
1030
0100
,
0010
0000
0000
1000
0000
0000
0000
0000
,
0010
0000
0000
0001
0000
0000
0000
0000
,
0010
0000
0000
1000
0000
0000
0000
0000
,
0200
0000
0301
0010
,
0100
0000
0000
0001
0000
0000
0000
0000
,
0100
0000
0000
1000
0000
0000
0000
0000
,
0100
0000
0000
0001
0000
0000
0000
0000
,
0020
0000
1030
0100
,
0010
0000
0000
1000
0000
0000
0000
0000
,
0010
0000
0000
0001
0000
0000
0000
0000
,
0010
0000
0100
0010
,
1001
0000
0100
0000
,
1001
0000
0010
0000
,
1001
0000
0100
0000
,
1000
0100
0010
0001
,
0110
0000
1000
0000
,
0110
0000
0001
0000
,
0110
0000
1000
0000
,
0100
1000
0001
0010
,
0200
0000
0000
0300
,
1001
0000
0000
0000
;

//---------------dance-single - ----------------
#NOTES:
     dance-single:
     :
     Beginner:
     3:
     0.125472,0.206791,0.111178,0.189002,0.000000,79.000000,69.000000,10.000000,17.000000,0.000000,0.000000,0.125472,0.206791,0.111178,0.189002,0.000000,79.000000,69.000000,10.000000,17.000000,0.000000,0.000000:
0000
0000
0000
0000
,
0000
0000
0000
0000
,
0000
0000
0000
0000
,
0000
0000
0000
0000
,
0000
0000
0000
0000
,
0100
0000
0000
0000
,
1000
0000
0000
0000
,
0100
0000
0000
0000
,
0001
0000
1000
0000
,
0010
0000
0000
0000
,
1000
0000
0000
0000
,
0010
0000
0000
0000
,
0002
0000
0000
0000
,
0003
0000
0001
0000
,
1000
0000
0001
0000
,
0010
0000
0000
1000
,
2000
0000
0000
0000
,
3000
0000
1000
0000
,
0001
0000
1000
0000
,
0100
0000
0000
0001
,
0002
0000
0000
0000
,
0003
0000
0010
0000
,
0100
0000
0010
0000
,
1000
0000
0000
0100
,
0200
0000
0000
0000
,
0300
0000
0100
0000
,
0010
0000
0100
0000
,
0001
0000
0000
0010
,
0020
0000
0000
0000
,
0030
0000
1001
0000
,
0000
0000
1000
0000
,
0000
0000
1001
0000
,
0000
0000
0001
0000
,
0000
0000
0110
0000
,
0000
0000
0100
0000
,
0000
0000
0110
0000
,
0000
0000
0010
0000
,
0100
0000
0010
0000
,
0002
0000
0003
0000
,
2000
0000
3000
0000
,
0002
0000
0003
0000
,
0010
0000
0100
0000
,
2000
0000
3000
0000
,
0002
0000
0003
0000
,
2000
0000
3000
0000
,
0100
0000
0010
0000
,
0002
0000
0003
0000
,
2000
0000
3000
0000
,
0002
0000
0003
0000
,
0010
0000
0100
0000
,
2000
0000
3000
0000
,
0002
0000
0003
0000
,
2000
0000
3000
0000
,
1001
0000
0000
0000
,
1001
0000
0000
0000
,
1001
0000
0000
0000
,
0000
0000
0000
0000
,
0110
0000
0000
0000
,
0110
0000
0000
0000
,
0110
0000
0000
0000
,
0000
0000
0000
0000
,
0010
0000
0000
0000
,
0010
0000
0000
0000
;

//---------------dance-single - ----------------
#NOTES:
     dance-single:
     :
     Medium:
     8:
     0.384358,0.448047,0.122296,0.077824,0.000000,242.000000,231.000000,11.000000,7.000000,0.000000,0.000000,0.384358,0.448047,0.122296,0.077824,0.000000,242.000000,231.000000,11.000000,7.000000,0.000000,0.000000:
0000
0000
0000
0000
,
0000
0000
0000
0000
,
0000
0000
0000
0000
,
0000
0000
0000
0000
,
0000
0000
0000
0000
,
0100
0000
1000
0000
,
0010
0001
0100
0011
,
1000
0000
0001
0000
,
0100
0000
0010
0000
1000
0100
0001
0000
,
0100
0000
0001
0000
,
0010
0100
0001
1100
,
0010
0000
0100
0000
,
0001
0000
0000
0000
1000
0001
0100
0000
,
1000
0000
1000
0000
0101
0000
1000
0001
,
1000
0000
0010
0100
0010
0000
0000
0100
,
0000
0100
0000
0001
1000
0000
0010
0000
,
1001
0000
0000
0000
1000
1000
1000
0000
,
0001
0000
0001
0000
1010
0000
0001
1000
,
0001
0000
0100
0010
0100
0000
0000
0010
,
0000
0010
0000
1000
0001
0000
0100
0000
,
1001
0000
0000
0000
0001
0001
0001
0000
,
0100
0000
0100
0000
0011
0000
0100
0010
,
0100
0000
1000
0001
1000
0000
0000
0001
,
0000
0001
0000
0010
0100
0000
1000
0000
,
0110
0000
0000
0000
0100
0100
0100
0000
,
0010
0000
0010
0000
1100
0000
0010
0100
,
0010
0000
0001
1000
0001
0000
0000
1000
,
0000
1000
0000
0100
0010
0000
0001
0000
,
0110
0000
0000
0000
0010
0010
0010
0000
,
0010
0000
0001
0100
1000
0000
0000
0000
,
0010
0000
0001
0100
1000
0000
0000
0000
,
0010
0000
0001
0100
1000
0000
0000
0000
,
0010
0000
1000
0100
2000
0000
3000
0000
,
0100
0000
1000
0010
0001
0000
0000
0000
,
0100
0000
1000
0010
0001
0000
0000
0000
,
0100
0000
1000
0010
0001
0000
0000
0000
,
0100
0000
0001
0010
0002
0000
0003
0000
,
2000
0000
3100
0000
0010
0000
1000
0010
,
1000
0000
0010
1000
0000
0000
0000
0000
,
0001
0000
0100
0001
0000
0000
0000
0000
,
0010
0000
1000
0010
0000
0000
0100
0000
,
0002
0000
0013
0000
0100
0000
0001
0100
,
0001
0000
0100
0001
0000
0000
0000
0000
,
1000
0000
0010
1000
0000
0000
0000
0000
,
0100
0000
0001
0100
0000
0000
0010
0000
,
0200
0000
0301
0000
1000
0000
0100
1000
,
0100
0000
1000
0100
0000
0000
0000
0000
,
0010
0000
0001
0010
0000
0000
0000
0000
,
1000
0000
0100
1000
0000
0000
0001
0000
,
0020
0000
1030
0000
0001
0000
0010
0001
,
0010
0000
0001
0010
0000
0000
0000
0000
,
0100
0000
1000
0100
0000
0000
0000
0000
,
0001
0000
0010
0001
0000
0000
1000
0000
,
0001
0001
0000
1000
1000
0000
0100
0000
,
0010
0010
0000
0100
0100
0000
0001
0000
,
1000
1000
0000
0001
0001
0000
0010
0000
,
0000
0100
0000
1000
0000
0010
0000
0001
,
1000
1000
0000
0001
0001
0000
0010
0000
,
0100
0100
0000
0010
0010
0000
1000
0000
,
0001
0001
0000
1000
1000
0000
0100
0000
,
0000
0010
0000
0001
0000
0100
0000
1000
,
0020
0000
0100
1030
,
1100
0000
0000
0000
;

//---------------dance-single - ----------------
#NOTES:
     dance-single:
     :
     Hard:
     12:
     0.578125,0.551442,0.166767,0.044471,0.055589,364.000000,349.000000,15.000000,4.000000,0.000000,0.000000,0.578125,0.551442,0.166767,0.044471,0.055589,364.000000,349.000000,15.000000,4.000000,0.000000,0.000000:
0000
0000
0000
0000
,
0000
0000
0000
0000
,
0000
0000
0000
0000
,
0000
0000
0000
0000
,
0000
0000
0000
0000
,
1000
0001
0100
0001
1000
0000
0010
0000
,
0100
0001
0010
0100
1000
0000
0100
0000
,
0010
1000
0100
1000
0010
0000
0001
0000
,
0100
0000
0010
0000
1000
0000
0100
0000
0001
1000
0001
1000
0001
0000
0000
0000
,
0100
0010
0001
0010
0100
0000
1000
0000
,
0001
0010
1000
0001
0100
0000
0001
0000
,
1000
0100
0001
0100
1000
0000
0010
0000
,
0001
0000
1000
0000
0100
0000
0001
0000
0010
0100
0010
0100
0010
0000
0000
0000
,
0000
0000
0001
0100
1000
0000
0010
0100
,
0001
0000
1000
0100
0010
0000
0001
1000
,
0000
0110
0000
0001
0010
0100
1000
0001
,
0010
0000
0100
0000
1000
0100
0001
0000
,
1100
0000
1000
0010
0001
0000
0100
0010
,
1000
0000
0001
0010
0100
0000
1000
0001
,
0000
0110
0000
1000
0100
0010
0001
1000
,
0100
0000
0000
0000
0010
0000
0000
0000
0001
0100
0001
0100
0001
0000
0000
0000
,
0011
0000
0010
0001
0100
0000
1000
0001
,
0010
0000
0100
0001
1000
0000
0010
0100
,
0000
1001
0000
0010
1000
0001
0100
0010
,
1000
0000
0001
0000
0100
0001
0010
0000
,
0101
0000
0100
1000
0010
0000
0001
1000
,
0100
0000
0010
1000
0001
0000
0100
0010
,
0000
1001
0000
0100
0001
1000
0010
0100
,
0001
0000
0000
0000
1000
0000
0000
0000
0010
1000
0010
1000
0010
0000
0000
0000
,
1000
0100
0001
0100
1000
0000
1000
0000
,
1000
0100
0001
0100
1000
0000
1000
0000
,
1000
0100
0001
0100
1000
0000
1000
0000
,
1000
0100
0001
0100
1000
0000
0000
0000
,
0001
0010
1000
0010
0001
0000
0001
0000
,
0001
0010
1000
0010
0001
0000
0001
0000
,
0001
0010
1000
0010
0001
0000
0001
0000
,
0001
0010
1000
0010
0001
0000
0000
0000
,
0210
0000
0301
1000
0010
0001
0100
0010
,
1000
0000
0010
0001
0000
0001
1000
0010
,
0100
0000
0010
0001
0000
0010
1000
0100
,
1000
0000
0010
0100
0001
0000
1100
0000
,
0120
0000
1030
0001
0100
1000
0010
0100
,
0001
0000
0100
1000
0000
1000
0001
0100
,
0010
0000
0100
1000
0000
0100
0001
0010
,
0001
0000
0100
0010
1000
0000
0011
0000
,
2001
0000
3100
0010
0001
0100
1000
0001
,
0010
0000
0001
0100
0000
0100
0010
0001
,
1000
0000
0001
0100
0000
0001
0010
1000
,
0010
0000
0001
1000
0100
0000
1010
0000
,
1002
0000
0013
0100
1000
0010
0001
1000
,
0100
0000
1000
0010
0000
0010
0100
1000
,
0001
0000
1000
0010
0000
1000
0100
0001
,
0100
0000
0000
0000
1000
0000
0001
0000
0100
1000
0100
1000
0100
0000
0000
0000
,
0100
1000
0100
1000
0001
0000
0100
0000
,
1000
1000
0001
0100
0100
0000
0100
0000
,
0001
1000
1000
0010
0100
0000
1000
0000
,
0001
0001
0001
0010
1000
0000
0001
0000
,
0100
0001
0100
0100
0100
0000
1000
0000
,
1000
0010
1000
0100
0010
0000
1000
0000
,
1000
0100
0001
0010
1000
0000
0001
0000
,
1000
0010
0100
1000
0010
0000
0001
0000
,
0110
0000
1000
0100
0001
0000
1000
0010
,
0001
0000
0000
0000
;

//---------------dance-single - ----------------
#NOTES:
     dance-single:
     :
     Challenge:
     15:
     0.806833,0.861628,0.233473,0.166767,0.283503,508.000000,487.000000,21.000000,15.000000,0.000000,0.000000,0.806833,0.861628,0.233473,0.166767,0.283503,508.000000,487.000000,21.000000,15.000000,0.000000,0.000000:
// measure 0
0000
0000
0000
0000
,  // measure 1
0000
0000
0000
0000
,  // measure 2
0000
0000
0000
0000
,  // measure 3
0000
0000
0000
0000
,  // measure 4
0000
0000
0000
0000
,  // measure 5
1001
0100
0010
1000
0100
0001
0011
0000
,  // measure 6
1100
0010
1000
0100
0010
0001
0110
0000
,  // measure 7
1100
0100
0010
1000
0100
0010
0101
0000
,  // measure 8
1100
0000
1000
0000
0010
0000
0100
0000
0001
1000
0010
0100
0001
0000
0100
0000
,  // measure 9
0010
1000
0001
0010
1000
0100
0101
0000
,  // measure 10
1010
0001
0010
1000
0001
0100
1001
0000
,  // measure 11
1010
1000
0001
0010
1000
0001
1100
0000
,  // measure 12
1010
0000
0010
0000
0001
0000
1000
0000
0100
0010
0001
1000
0100
0010
0100
0001
,  // measure 13
1000
0100
0010
1000
1000
0001
0010
0100
,  // measure 14
0001
1000
0100
0010
1000
0100
0001
0010
,  // measure 15
0100
0001
1000
0010
0100
0010
1000
0100
,  // measure 16
0001
0000
0010
0000
0100
0000
0001
0000
1000
0100
1000
0001
1000
0010
0100
0000
,  // measure 17
0100
0001
1000
0100
0100
0010
1000
0001
,  // measure 18
0010
0100
0001
1000
0100
0001
0010
1000
,  // measure 19
0001
0010
0100
1000
0001
1000
0100
0001
,  // measure 20
0010
0000
1000
0000
0001
0000
0010
0000
0100
0001
0100
0010
0100
1000
0001
0000
,  // measure 21
0001
0010
0100
0001
0001
1000
0100
0010
,  // measure 22
1000
0001
0010
0100
0001
0010
1000
0100
,  // measure 23
0010
1000
0001
0100
0010
0100
0001
0010
,  // measure 24
1000
0000
0100
0000
0010
0000
1000
0000
0001
0010
0001
1000
0001
0100
0010
0000
,  // measure 25
0010
1000
0001
0010
0010
0100
0001
1000
,  // measure 26
0100
0010
1000
0001
0010
1000
0100
0001
,  // measure 27
1000
0100
0010
0001
1000
0001
0010
1000
,  // measure 28
0100
0000
0001
0000
1000
0000
0100
0000
0010
1000
0010
0100
0010
0001
1000
0100
,  // measure 29
1000
0000
0001
1000
0001
0000
0010
0000
0100
0000
1000
0000
0010
0000
0100
0000
,  // measure 30
1000
0000
0001
1000
0001
0000
0010
0000
0100
0000
1000
0000
0010
0000
0100
0000
,  // measure 31
1000
0000
0001
1000
0001
0000
0010
0000
0100
0000
1000
0000
0010
0000
0100
0000
,  // measure 32
0100
0000
0010
0100
0010
0000
1000
0000
0001
0000
0100
0000
1000
0000
0001
0000
,  // measure 33
0001
0000
1000
0001
1000
0000
0100
0000
0010
0000
0001
0000
0100
0000
0010
0000
,  // measure 34
0001
0000
1000
0001
1000
0000
0100
0000
0010
0000
0001
0000
0100
0000
0010
0000
,  // measure 35
0001
0000
1000
0001
1000
0000
0100
0000
0010
0000
0001
0000
0100
0000
0010
0000
,  // measure 36
0010
0000
0100
0010
0100
0000
0001
0000
1000
0000
0010
1000
0001
0100
1000
0000
,  // measure 37
0002
0000
1003
0100
0010
0100
0100
0001
,  // measure 38
0010
1000
0100
0000
0010
0000
0002
0000
0000
0000
1000
0000
1003
0000
0001
0000
,  // measure 39
0010
1000
0100
0000
0010
0000
0002
0000
0000
0000
1000
0000
1003
0000
0001
0000
,  // measure 40
0010
1000
0100
0000
0010
0000
0002
0000
0000
0000
1000
0000
1003
0000
0001
0000
,  // measure 41
2000
0000
3001
0010
0100
0010
0010
1000
,  // measure 42
0100
0001
0010
0000
0100
0000
2000
0000
0000
0000
0001
0000
3001
0000
1000
0000
,  // measure 43
0100
0001
0010
0000
0100
0000
2000
0000
0000
0000
0001
0000
3001
0000
1000
0000
,  // measure 44
0100
0001
0010
0000
0100
0000
2000
0000
0000
0000
0001
0000
3001
0000
1000
0000
,  // measure 45
0002
0000
1003
0100
0010
0100
0100
0001
,  // measure 46
0010
1000
0100
0000
0010
0000
0002
0000
0000
0000
1000
0000
1003
0000
0001
0000
,  // measure 47
0010
1000
0100
0000
0010
0000
0002
0000
0000
0000
1000
0000
1003
0000
0001
0000
,  // measure 48
0010
1000
0100
0000
0010
0000
0002
0000
0000
0000
1000
0000
1003
0000
0001
0000
,  // measure 49
2000
0000
3001
0010
0100
0010
0010
1000
,  // measure 50
0100
0001
0010
0000
0100
0000
2000
0000
0000
0000
0001
0000
3001
0000
1000
0000
,  // measure 51
0100
0001
0010
0000
0100
0000
2000
0000
0000
0000
0001
0000
3001
0000
1000
0000
,  // measure 52
0100
0001
0010
0000
0100
0000
1000
0000
0100
1000
0001
0010
0001
0100
1000
0000
,  // measure 53
0010
0001
0100
0010
1000
0100
0011
0001
,  // measure 54
1000
0010
0001
1000
0100
0001
1010
0010
,  // measure 55
0001
0100
1000
0001
0010
1000
0101
0100
,  // measure 56
0100
1000
0010
0100
0001
0010
1100
1000
,  // measure 57
0010
0001
0100
0010
1000
0100
0011
0001
,  // measure 58
1000
0010
0001
1000
0100
0001
1010
0010
,  // measure 59
0001
0100
1000
0001
0010
1000
0101
0100
,  // measure 60
0100
1000
0010
0100
0001
0010
1100
1000
,  // measure 61
0100
0000
1000
0001
0010
0001
1000
0001
0100
0001
1000
0001
0010
0001
1000
0001
,  // measure 62
0100
0000
0000
0000
;
