#TITLE:Pokemon Theme (Brazilian Version);
#SUBTITLE:-Full Song-;
#ARTIST:Jana Bianchi;
#TITLETRANSLIT:;
#SUBTITLETRANSLIT:;
#ARTISTTRANSLIT:;
#GENRE:;
#CREDIT:;
#BANNER:Pokemon Theme.png;
#BACKGROUND:Pokemon Theme-bg.png;
#LYRICSPATH:;
#CDTITLE:;
#MUSIC:Pokemon Theme.ogg;
#OFFSET:-0.392000;
#SAMPLESTART:32.720001;
#SAMPLELENGTH:15.000000;
#SELECTABLE:YES;
#DISPLAYBPM:145.000000;
#BPMS:0.000000=145.429993
,152.000000=143.029999
,164.000000=145.429993
,296.000000=143.429993
,312.000000=145.429993
;
#STOPS:
;
#BGCHANGES:;
#KEYSOUNDS:;
#ATTACKS:;

//---------------dance-single - ----------------
#NOTES:
     dance-single:
     :
     Hard:
     11:
     0.430825,0.541006,0.427914,0.254711,0.010188,592.000000,508.000000,84.000000,50.000000,0.000000,0.000000,0.430825,0.541006,0.427914,0.254711,0.010188,592.000000,508.000000,84.000000,50.000000,0.000000,0.000000:
0000
0000
0000
0000
,
0000
0000
0000
0000
,
0000
0000
0000
0000
,
0000
0000
0000
0000
,
0000
0010
1000
0001
0010
0000
0010
0000
,
0100
0000
1000
0001
0000
0010
1000
0100
,
0010
0000
1000
0100
0010
0001
0200
0000
,
0000
0000
0000
0310
0000
0010
0000
0001
,
1000
0010
0100
0001
0010
0000
1001
0000
,
0100
0000
0010
1000
0000
0001
0001
0000
,
1001
0000
0000
0110
0000
0000
2002
0000
,
0000
0000
0000
3003
0000
1000
0100
0010
,
0000
0000
0100
1000
0002
0000
1003
0100
,
0020
0000
1030
0001
0000
0010
0010
1000
,
0001
0000
0010
2000
0000
0001
0000
0020
,
0000
3030
0000
1001
0000
0110
0000
1001
,
1001
0100
0001
0100
0010
1000
0100
0010
,
0100
0000
0000
0000
1000
0000
1000
0000
0000
0000
0000
0000
0100
0000
0001
0010
,
0002
0000
0000
1000
0000
0000
0020
0000
,
0000
0000
0000
0033
0000
0100
0100
0100
,
0000
0000
1000
0100
0010
0001
0000
0100
,
0000
0100
0000
0002
0000
0000
0000
0003
,
0110
0000
0000
1000
0100
1000
0010
0001
,
0000
0110
0000
1001
0000
0010
0010
0010
,
0000
0000
0200
0000
0000
0301
0010
0100
,
0000
0100
0000
1002
0000
0100
0103
1000
,
0100
0000
0100
0010
0000
0010
0002
0000
,
0000
0000
0000
0000
0000
1000
1000
1003
,
0000
0000
1000
0100
0010
0001
0000
0100
,
0000
0100
0000
0002
0000
0000
0000
0003
,
0110
0000
0000
1000
0100
1000
0010
0001
,
0000
0110
0000
1001
0000
0010
0010
0010
,
0000
0110
0000
1000
0000
1001
0000
0010
,
0000
0110
0000
1001
0000
0000
0100
0000
,
1001
0000
0000
0110
0000
0000
2002
0000
,
3003
0000
1000
0100
0010
0001
0000
1001
,
0000
0000
0100
1000
0001
0010
0000
0110
,
0000
2002
0000
0000
0000
0000
0000
0000
,
0000
0000
0000
0000
,
0000
0000
0000
0000
,
0000
0000
0000
3003
,
0000
0010
1000
0001
0010
0000
0010
0000
,
0100
0000
1000
0001
0000
0010
1000
0100
,
0010
0000
1000
0001
0000
0001
0200
0000
,
0000
0000
0000
0310
0000
0010
0000
0001
,
1000
0010
0100
0001
0010
0000
1001
0000
,
0100
0000
0010
1000
0000
0001
0001
0000
,
1001
0000
0000
0110
0000
0000
2002
0000
,
0000
0000
0000
3003
0000
1000
0100
0010
,
0000
0000
0100
1000
0002
0000
1003
0100
,
0020
0000
1030
0001
0000
0010
0010
1000
,
0001
0000
0010
2000
0100
0000
0100
0001
,
0000
3001
0000
1001
0000
0110
0000
1001
,
1001
0100
0001
0100
0010
0000
0100
0010
,
0100
0000
0000
0000
1000
0000
1000
0000
0000
0000
0000
0000
0100
0000
0001
0010
,
0002
0000
0000
1000
0000
0000
0020
0000
,
0000
0000
0000
0033
0000
0100
0100
0100
,
0000
0000
1000
0100
0010
0001
0000
0100
,
0000
0100
0000
0002
0000
0000
0000
0003
,
0110
0000
0000
1000
0100
1000
0010
0001
,
0000
0110
0000
1001
0000
0010
0010
0010
,
0000
0000
0200
0000
0000
0301
0010
0100
,
0000
0100
0000
1002
0000
0100
0103
1000
,
0100
0000
0100
0010
0000
0010
0002
0000
,
0000
0000
0000
0000
0000
1000
1000
1003
,
0000
0000
1000
0100
0010
0001
0000
0100
,
0000
0100
0000
0002
0000
0000
0000
0003
,
0110
0000
0000
1000
0100
1000
0010
0001
,
0000
0110
0000
1001
0000
0010
0010
0010
,
0000
0110
0000
1000
0000
1001
0000
0010
,
0000
0110
0000
1001
0000
0000
0100
0000
,
1001
0000
0000
0110
0000
0000
2002
0000
,
3003
0000
1000
0100
0010
0001
0000
1001
,
0000
0000
0100
1000
0001
0010
0000
0110
,
0000
1001
0100
0010
0002
0000
0000
0000
,
0010
0000
0000
1000
0000
1003
0000
0000
,
1001
0000
0010
1000
0200
0000
0000
0000
,
0010
0000
0000
0001
0000
0301
0000
0000
,
1001
1001
0010
0010
,
1010
1010
0100
0100
,
0101
0101
1000
1000
,
0110
0110
0001
0001
,
1000
0100
0010
1000
0100
0001
0001
0010
,
0100
0010
1000
0100
1000
0010
0001
0100
,
0010
1000
0100
1000
0010
0100
0001
0010
,
0100
1000
0100
0100
1000
1000
0001
0001
,
0010
0010
1000
0001
0010
0100
0001
1000
,
0010
0100
1000
0010
0001
0100
1000
0000
,
1001
0000
0000
0110
0000
1000
0010
0001
,
0010
0100
1000
0001
0010
0000
0010
0000
,
0100
0000
1000
0001
0000
0010
1000
0100
,
0010
0000
1000
0100
0010
0001
0200
0000
,
0000
0000
0000
0310
0000
0010
0000
0001
,
1000
0010
0100
0001
0010
0000
1001
0000
,
0100
0000
0010
1000
0000
0001
0001
0000
,
1001
0000
0000
0110
0000
2002
3003
0000
,
0110
0000
0000
1001
0000
2001
0000
3010
,
0000
1000
0100
0010
0002
1000
1003
0100
,
0020
0000
0000
0030
0000
0100
0100
0100
,
0000
0000
1000
0100
0010
0001
0000
0100
,
0000
0100
0000
0002
0000
0000
0000
0003
,
0110
0000
0000
1000
0100
1000
0010
0001
,
0000
0110
0000
1001
0000
0010
0010
0010
,
0000
0000
0000
0000
0200
0000
0000
0000
0000
0000
0301
0000
0000
0010
0000
0000
,
0100
0000
0000
0100
0000
0000
1002
0000
0000
0000
0100
0000
0103
0000
1000
0000
,
0100
0000
0100
0010
0000
0010
0002
0000
,
0000
0000
0000
0000
0000
1000
1000
1003
,
0000
0000
1000
0100
0010
0001
0000
0100
,
0000
0100
0000
0002
0000
0000
0000
0003
,
0110
0000
0000
1000
0100
1000
0010
0001
,
0000
0110
0000
1001
0000
0010
0010
0010
,
0000
0110
0000
1000
0000
1001
0000
0010
,
0000
0110
0000
1001
0000
0000
0100
0000
,
1001
0000
0000
0110
0000
0000
2002
0000
,
3003
0000
1000
0100
0010
0001
0000
1001
,
0000
0000
0100
1000
0001
0010
0000
0110
,
0000
0100
0010
2000
0002
0000
0000
0000
,
0000
0000
0000
0000
,
3003
0000
0000
0000
;

//---------------dance-single - ----------------
#NOTES:
     dance-single:
     :
     Challenge:
     12:
     0.406082,0.510950,0.366784,0.254711,0.010188,558.000000,486.000000,72.000000,50.000000,188.000000,0.000000,0.406082,0.510950,0.366784,0.254711,0.010188,558.000000,486.000000,72.000000,50.000000,188.000000,0.000000:
0000
0000
0000
0000
,
0000
0000
0000
0000
,
0000
0000
0000
0000
,
0000
0000
0000
0000
,
MMMM
0010
1000
0001
0010
0000
0010
0000
,
0100
0000
1000
0001
0000
0010
1000
0100
,
MMMM
0000
1000
0100
0010
0001
0200
0000
,
0000
0000
0000
0310
0000
0010
0000
0001
,
MMMM
0010
0100
0001
0010
0000
1001
0000
,
0100
0000
0010
1000
0000
0001
0001
0000
,
1001
0000
0000
0110
0000
0000
2002
0000
,
0000
0000
0000
3003
0000
1000
0100
0010
,
MMMM
0000
0100
1000
0002
0000
1003
0100
,
0020
0000
1030
0001
0000
0010
0010
1000
,
MMMM
0000
0010
2000
0000
0001
0000
0020
,
0000
3030
0000
1001
0000
0110
0000
1001
,
MMMM
0100
0001
0100
0010
1000
0100
0010
,
0100
0000
0000
0000
1000
0000
1000
0000
0000
0000
0000
0000
0100
0000
0001
0010
,
0002
0000
0000
1000
0000
0000
0020
0000
,
0000
0000
0000
0033
0000
0100
0100
0100
,
MMMM
0000
1000
0100
0010
0001
0000
0100
,
0000
0100
0000
0002
0000
0000
0000
0003
,
MMMM
0000
0000
1000
0100
1000
0010
0001
,
0000
0110
0000
1001
0000
0010
0010
0010
,
MMMM
0000
0200
0000
0000
0301
0010
0100
,
0000
0100
0000
1002
0000
0100
0103
1000
,
0100
0000
0100
0010
0000
0010
0002
0000
,
0000
0000
0000
0000
0000
1000
1000
1003
,
MMMM
0000
1000
0100
0010
0001
0000
0100
,
0000
0100
0000
0002
0000
0000
0000
0003
,
MMMM
0000
0000
1000
0100
1000
0010
0001
,
0000
0110
0000
1001
0000
0010
0010
0010
,
MMMM
0110
0000
1000
0000
1001
0000
0010
,
MMMM
0110
0000
1001
0000
0000
0100
0000
,
1001
0000
0000
0110
0000
0000
2002
0000
,
3003
0000
1000
0100
0010
0001
0000
1001
,
MMMM
0000
0100
1000
0001
0010
0000
0110
,
MMMM
2002
0000
0000
0000
0000
0000
0000
,
0000
0000
0000
0000
,
0000
0000
0000
0000
,
0000
0000
0000
3003
,
MMMM
0010
1000
0001
0010
0000
0010
0000
,
0100
0000
1000
0001
0000
0010
1000
0100
,
0010
0000
1000
0001
0000
0001
0200
0000
,
0000
0000
0000
0310
0000
0010
0000
0001
,
MMMM
0010
0100
0001
0010
0000
1001
0000
,
0100
0000
0010
1000
0000
0001
0001
0000
,
1001
0000
0000
0110
0000
0000
2002
0000
,
0000
0000
0000
3003
0000
1000
0100
0010
,
MMMM
0000
0100
1000
0002
0000
1003
0100
,
0020
0000
1030
0001
0000
0010
0010
1000
,
0001
0000
0010
2000
0100
0000
0100
0001
,
0000
3001
0000
1001
0000
0110
0000
1001
,
MMMM
0100
0001
0100
0010
0000
0100
0010
,
0100
0000
0000
0000
1000
0000
1000
0000
0000
0000
0000
0000
0100
0000
0001
0010
,
0002
0000
0000
1000
0000
0000
0020
0000
,
0000
0000
0000
0033
0000
0100
0100
0100
,
MMMM
0000
1000
0100
0010
0001
0000
0100
,
0000
0100
0000
0002
0000
0000
0000
0003
,
MMMM
0000
0000
1000
0100
1000
0010
0001
,
0000
0110
0000
1001
0000
0010
0010
0010
,
MMMM
0000
0200
0000
0000
0301
0010
0100
,
0000
0100
0000
1002
0000
0100
0103
1000
,
0100
0000
0100
0010
0000
0010
0002
0000
,
0000
0000
0000
0000
0000
1000
1000
1003
,
MMMM
0000
1000
0100
0010
0001
0000
0100
,
0000
0100
0000
0002
0000
0000
0000
0003
,
MMMM
0000
0000
1000
0100
1000
0010
0001
,
0000
0110
0000
1001
0000
0010
0010
0010
,
MMMM
0110
0000
1000
0000
1001
0000
0010
,
MMMM
0110
0000
1001
0000
0000
0100
0000
,
1001
0000
0000
0110
0000
0000
2002
0000
,
3003
0000
1000
0100
0010
0001
0000
1001
,
MMMM
0000
0100
1000
0001
0010
0000
0110
,
MMMM
1001
0100
0010
0002
0000
0000
0000
,
0010
0000
0000
1000
0000
1003
0000
0000
,
1001
0000
0010
1000
0200
0000
0000
0000
,
0010
0000
0000
0001
0000
0301
0000
0000
,
MMMM
1001
MMMM
0010
,
MMMM
1010
MMMM
0100
,
MMMM
0101
MMMM
1000
,
MMMM
0110
MMMM
0001
,
1000
0100
0010
1000
0100
0001
0001
0010
,
0100
0010
1000
0100
1000
0010
0001
0100
,
0010
1000
0100
1000
0010
0100
0001
0010
,
0100
1000
0100
0100
1000
1000
0001
0001
,
0010
0010
1000
0001
0010
0100
0001
1000
,
0010
0100
1000
0010
0001
0100
1000
0000
,
1001
0000
0000
0110
0000
1000
0010
0001
,
MMMM
0100
1000
0001
0010
0000
0010
0000
,
0100
0000
1000
0001
0000
0010
1000
0100
,
0010
0000
1000
0100
0010
0001
0200
0000
,
0000
0000
0000
0310
0000
0010
0000
0001
,
MMMM
0010
0100
0001
0010
0000
1001
0000
,
0100
0000
0010
1000
0000
0001
0001
0000
,
1001
0000
0000
0110
0000
2002
3003
0000
,
0110
0000
0000
1001
0000
2001
0000
3010
,
0000
1000
0100
0010
0002
1000
1003
0100
,
0020
0000
0000
0030
0000
0100
0100
0100
,
MMMM
0000
1000
0100
0010
0001
0000
0100
,
0000
0100
0000
0002
0000
0000
0000
0003
,
MMMM
0000
0000
1000
0100
1000
0010
0001
,
0000
0110
0000
1001
0000
0010
0010
0010
,
MMMM
0000
0000
0000
0200
0000
0000
0000
0000
0000
0301
0000
0000
0010
0000
0000
,
0100
0000
0000
0100
0000
0000
1002
0000
0000
0000
0100
0000
0103
0000
1000
0000
,
0100
0000
0100
0010
0000
0010
0002
0000
,
0000
0000
0000
0000
0000
1000
1000
1003
,
MMMM
0000
1000
0100
0010
0001
0000
0100
,
0000
0100
0000
0002
0000
0000
0000
0003
,
MMMM
0000
0000
1000
0100
1000
0010
0001
,
0000
0110
0000
1001
0000
0010
0010
0010
,
MMMM
0110
0000
1000
0000
1001
0000
0010
,
MMMM
0110
0000
1001
0000
0000
0100
0000
,
1001
0000
0000
0110
0000
0000
2002
0000
,
3003
0000
1000
0100
0010
0001
0000
1001
,
MMMM
0000
0100
1000
0001
0010
0000
0110
,
MMMM
0100
0010
2000
0002
0000
0000
0000
,
0000
0000
0000
0000
,
3003
0000
0000
0000
;

//---------------dance-single - ----------------
#NOTES:
     dance-single:
     :
     Easy:
     5:
     0.212502,0.270503,0.096790,0.106979,0.000000,292.000000,273.000000,19.000000,21.000000,0.000000,0.000000,0.212502,0.270503,0.096790,0.106979,0.000000,292.000000,273.000000,19.000000,21.000000,0.000000,0.000000:
0000
0000
0000
0000
,
0000
0000
0000
0000
,
0000
0000
0000
0000
,
0000
0000
0000
0000
,
0010
1000
0001
0000
,
1000
0000
0001
0000
,
0010
0100
1000
0002
,
0000
0000
0000
0003
,
0100
0000
0010
0000
,
0200
0000
0000
0300
,
0001
0000
0000
0001
0000
0000
0100
0000
,
0000
0000
0001
1000
,
0000
0010
0100
0001
,
0010
0100
1000
0110
,
0100
0000
0001
0000
,
2000
0000
0000
3000
,
0001
1001
0010
0110
,
2000
0000
0000
3000
,
0100
0000
0000
0010
0000
0000
1000
0000
,
0000
0000
0000
0100
,
1001
0000
0100
0000
,
1000
0100
0020
0000
,
0030
0000
1000
0100
,
1000
0010
0010
0100
,
1001
0000
1000
0000
,
0001
0000
1000
0000
,
0100
0000
0000
0010
0000
0000
0100
0000
,
0000
0000
0000
0100
,
1001
0000
0100
0000
,
1000
0100
0020
0000
,
0030
0000
1000
0100
,
1000
0010
0010
0001
,
0100
0000
1000
0010
,
0001
0000
0100
0100
,
0010
0000
0000
1000
0000
0000
0001
0000
,
0000
0100
0100
0100
,
0000
0010
0010
0010
,
0000
2000
0000
0000
,
0000
0000
0000
0000
,
0000
0000
0000
0000
,
0000
0000
0000
3000
,
0100
0001
1000
0000
,
0001
0000
1000
0000
,
0100
0010
0001
2000
,
0000
0000
0000
3000
,
0010
0000
0100
0000
,
0020
0000
0000
0030
,
1000
0000
0000
1000
0000
0000
0010
0000
,
0000
0000
1000
0001
,
0000
0100
0010
1000
,
0100
0010
0001
0110
,
0010
0000
1000
0000
,
0002
0000
0000
0003
,
1000
1001
0100
0110
,
0002
0000
0000
0003
,
0010
0000
0000
0100
0000
0000
0001
0000
,
0000
0000
0000
0010
,
1001
0000
0010
0000
,
0001
0010
0200
0000
,
0300
0000
0001
0010
,
0001
0100
0100
0010
,
1001
0000
0001
0000
,
1000
0000
0001
0000
,
0010
0000
0000
0100
0000
0000
0010
0000
,
0000
0000
0000
0010
,
1001
0000
0010
0000
,
0001
0010
0200
0000
,
0300
0000
0001
0010
,
0001
0100
0100
1000
,
0010
0000
0001
0100
,
1000
0000
0010
0010
,
0100
0000
0000
0001
0000
0000
1000
0000
,
0000
0010
0010
0010
,
0000
0100
0100
0100
,
1001
0010
0200
0000
,
0300
0000
0000
0000
,
1001
0010
0200
0000
,
0300
0000
0000
0000
,
1000
0100
0100
0010
,
1000
0100
0000
0000
,
0010
0100
0001
0000
,
0100
0100
0010
0000
,
1000
0100
0010
0001
,
0100
0100
0010
1000
,
0100
0000
0010
0000
,
0100
0001
1000
0000
,
0010
1000
0100
0010
,
0001
0100
0100
0010
,
1000
0001
0000
1000
,
0010
1000
0001
0000
,
1000
0000
0001
0000
,
0010
0100
1000
0002
,
0000
0000
0000
0003
,
0100
0000
0010
0000
,
0200
0000
0000
0300
,
0001
0000
0000
0001
0000
0000
0000
0000
,
1000
0000
0000
1000
0000
0000
0000
0000
,
1000
0010
0100
0001
,
0110
0000
0100
1001
,
0000
0000
0100
0000
,
1000
0100
0020
0000
,
0030
0000
1000
0100
,
1000
0010
0010
0100
,
1001
0000
1000
0000
,
0001
0000
1000
0000
,
0100
0000
0000
0010
0000
0000
0100
0000
,
0000
0000
0000
0100
,
1001
0000
0100
0000
,
1000
0100
0020
0000
,
0030
0000
1000
0100
,
1000
0010
0010
0001
,
0100
0000
1000
0010
,
0001
0000
0100
0100
,
0010
0000
0000
1000
0000
0000
0001
0000
,
0000
0100
0100
0100
,
0000
0010
0010
0010
,
0000
2002
0000
0000
,
0000
0000
0000
0000
,
3003
0000
0000
0000
;

//---------------dance-single - ----------------
#NOTES:
     dance-single:
     :
     Beginner:
     3:
     0.115712,0.180335,0.081507,0.106979,0.000000,159.000000,143.000000,16.000000,21.000000,0.000000,0.000000,0.115712,0.180335,0.081507,0.106979,0.000000,159.000000,143.000000,16.000000,21.000000,0.000000,0.000000:
// measure 0
0000
0000
0000
0000
,  // measure 1
0000
0000
0000
0000
,  // measure 2
0000
0000
0000
0000
,  // measure 3
0000
0000
0000
0000
,  // measure 4
0010
0000
0000
0000
,  // measure 5
0010
0000
0000
0000
,  // measure 6
0010
0000
1000
0000
,  // measure 7
0001
0000
0000
0000
,  // measure 8
0100
0000
0000
0000
,  // measure 9
0100
0000
0000
0000
,  // measure 10
0001
0000
0000
0200
,  // measure 11
0000
0000
0000
0300
,  // measure 12
0000
0000
0100
0000
,  // measure 13
0010
0000
1000
0000
,  // measure 14
0100
0000
0001
0000
,  // measure 15
2000
0000
0000
3000
,  // measure 16
0000
0000
0100
0000
,  // measure 17
0001
0000
0000
0000
,  // measure 18
0100
0000
0000
1000
,  // measure 19
1000
0000
0000
0000
,  // measure 20
0110
0000
0000
0000
,  // measure 21
1000
0000
0002
0000
,  // measure 22
0003
0000
1000
0000
,  // measure 23
1000
0000
0010
0000
,  // measure 24
1001
0000
0000
0000
,  // measure 25
0001
0000
1000
0000
,  // measure 26
0200
0000
0000
0300
,  // measure 27
0000
0000
0000
0000
,  // measure 28
0110
0000
0000
0000
,  // measure 29
1000
0000
0002
0000
,  // measure 30
0003
0000
1000
0000
,  // measure 31
1000
0000
0010
0000
,  // measure 32
0110
0000
0000
0000
,  // measure 33
1001
0000
0000
0000
,  // measure 34
1000
0000
0000
0001
,  // measure 35
0000
0000
0100
0000
,  // measure 36
0000
0000
0010
0000
,  // measure 37
0002
0000
0000
0000
,  // measure 38
0000
0000
0000
0000
,  // measure 39
0000
0000
0000
0000
,  // measure 40
0003
0000
0000
0000
,  // measure 41
0100
0000
0000
0000
,  // measure 42
0100
0000
0000
0000
,  // measure 43
0100
0000
0001
0000
,  // measure 44
1000
0000
0000
0000
,  // measure 45
0010
0000
0000
0000
,  // measure 46
0010
0000
0000
0000
,  // measure 47
1000
0000
0000
0020
,  // measure 48
0000
0000
0000
0030
,  // measure 49
0000
0000
0010
0000
,  // measure 50
0100
0000
0001
0000
,  // measure 51
0010
0000
1000
0000
,  // measure 52
0002
0000
0000
0003
,  // measure 53
0000
0000
0010
0000
,  // measure 54
1000
0000
0000
0000
,  // measure 55
0010
0000
0000
0001
,  // measure 56
0001
0000
0000
0000
,  // measure 57
0110
0000
0000
0000
,  // measure 58
0001
0000
2000
0000
,  // measure 59
3000
0000
0001
0000
,  // measure 60
0001
0000
0100
0000
,  // measure 61
1001
0000
0000
0000
,  // measure 62
1000
0000
0001
0000
,  // measure 63
0020
0000
0000
0030
,  // measure 64
0000
0000
0000
0000
,  // measure 65
0110
0000
0000
0000
,  // measure 66
0001
0000
2000
0000
,  // measure 67
3000
0000
0001
0000
,  // measure 68
0001
0000
0100
0000
,  // measure 69
0110
0000
0000
0000
,  // measure 70
1001
0000
0000
0000
,  // measure 71
0001
0000
0000
1000
,  // measure 72
0000
0000
0010
0000
,  // measure 73
0000
0000
0100
0000
,  // measure 74
0000
0100
0200
0000
,  // measure 75
0300
0000
0000
0000
,  // measure 76
0000
0001
0002
0000
,  // measure 77
0003
0000
0000
0000
,  // measure 78
1000
0000
0000
0000
,  // measure 79
0001
0000
0000
0000
,  // measure 80
0010
0000
0000
0000
,  // measure 81
0100
0000
0000
0000
,  // measure 82
1000
0000
0100
0000
,  // measure 83
0010
0000
0001
0000
,  // measure 84
0100
0000
0010
0000
,  // measure 85
1000
0000
1000
0000
,  // measure 86
0010
0000
0100
0000
,  // measure 87
0001
0000
0100
0000
,  // measure 88
2000
0000
3000
0000
,  // measure 89
0010
0000
0000
0000
,  // measure 90
0010
0000
0000
0000
,  // measure 91
0010
0000
1000
0000
,  // measure 92
0001
0000
0000
0000
,  // measure 93
0100
0000
0000
0000
,  // measure 94
0100
0000
0000
0000
,  // measure 95
0001
0000
0000
1000
,  // measure 96
1000
0000
0000
1000
,  // measure 97
1000
0000
0001
0000
,  // measure 98
0100
0000
0000
2002
,  // measure 99
3003
0000
0000
0000
,  // measure 100
1000
0000
0002
0000
,  // measure 101
0003
0000
1000
0000
,  // measure 102
1000
0000
0010
0000
,  // measure 103
1001
0000
0000
0000
,  // measure 104
0001
0000
1000
0000
,  // measure 105
0200
0000
0000
0300
,  // measure 106
0000
0000
0000
0000
,  // measure 107
0110
0000
0000
0000
,  // measure 108
1000
0000
0002
0000
,  // measure 109
0003
0000
1000
0000
,  // measure 110
1000
0000
0010
0000
,  // measure 111
0110
0000
0000
0000
,  // measure 112
1001
0000
0000
0000
,  // measure 113
1000
0000
0000
0001
,  // measure 114
0000
0000
0100
0000
,  // measure 115
0000
0000
0010
0000
,  // measure 116
2002
0000
0000
0000
,  // measure 117
0000
0000
0000
0000
,  // measure 118
3003
0000
0000
0000
;

//---------------dance-single - ----------------
#NOTES:
     dance-single:
     :
     Medium:
     8:
     0.349318,0.390727,0.285276,0.066225,0.010188,480.000000,424.000000,56.000000,13.000000,0.000000,0.000000,0.349318,0.390727,0.285276,0.066225,0.010188,480.000000,424.000000,56.000000,13.000000,0.000000,0.000000:
0000
0000
0000
0000
,
0000
0000
0000
0000
,
0000
0000
0000
0000
,
0000
0000
0000
0000
,
0001
0000
0100
0000
0000
0000
0010
0000
0000
0000
0010
0000
0000
0000
0000
0101
,
0000
0000
0000
1000
0000
0001
0000
0000
0000
0000
0000
0000
0110
0000
0000
0000
,
1000
0100
0000
0100
0000
0002
0000
0003
,
0000
0000
0000
0010
0000
0010
0000
0001
,
0100
1000
0101
0011
,
1000
0000
0100
0001
0000
0001
1000
0000
,
0100
0000
0000
1001
0000
0000
0010
0000
,
0100
0000
0000
0000
0000
0000
0001
1000
,
0001
0100
0100
0010
,
0001
0000
0100
0010
0100
0000
0001
0001
,
0001
0100
0100
1001
,
0000
0000
0000
0100
0000
0100
0000
0010
,
1000
0100
1010
0100
,
0101
0000
0010
0010
0000
0000
0000
0000
,
1000
0000
0000
0011
0000
0000
0100
0000
,
0100
0000
0000
0000
0000
0010
1000
0010
,
1000
0000
0100
0000
0010
0000
0001
1000
,
0000
0100
0000
0010
0000
0001
0000
0000
,
1100
0000
0000
0001
1000
0000
1000
0001
,
0000
0100
0000
0010
0000
0100
0001
0100
,
0001
0000
0010
0000
0100
0000
1000
0001
,
0000
0010
0000
0100
0000
1000
0000
0000
,
0110
0000
0000
1000
0000
0000
2002
0000
,
0000
0000
3003
0000
0000
0010
1000
0010
,
1000
0000
0100
0000
0010
0000
0001
1000
,
0000
0100
0000
0010
0000
0001
0000
0000
,
1100
0000
0000
0001
1000
0000
1000
0001
,
0000
0100
0000
0010
0000
0100
0001
0100
,
0000
1000
0000
0010
0000
0100
0000
0001
,
0000
0110
0000
0101
0000
0000
0001
0000
,
0110
0000
0000
1000
0000
0000
1001
0000
,
0000
0000
0000
1000
0100
1000
0000
0000
,
0000
0000
0000
0001
0100
0001
0000
0000
,
0200
0000
0000
0000
,
0000
0000
0000
0000
,
0000
0000
0000
0000
,
0000
0000
0000
0300
,
0010
0000
1000
0010
1000
0000
0010
0000
,
0001
0000
1000
1000
0000
0000
0110
0000
,
0001
0010
0000
0010
0000
2000
0000
3000
,
0000
0000
0000
0100
0000
0100
0000
1000
,
0010
0001
1010
1100
,
0001
0000
0010
1000
0000
1000
0001
0000
,
0010
0000
0000
1001
0000
0000
0100
0000
,
0010
0000
0000
0000
0000
0000
1000
0001
,
1000
0010
0010
0100
,
1000
0000
0010
0100
0010
0000
1000
1000
,
1000
0010
0010
1001
,
0000
0000
0000
0010
0000
0010
0000
0100
,
0001
0010
0101
0010
,
1010
0000
0100
0100
0000
0000
0000
0000
,
0001
0000
0000
1100
0000
0000
0010
0000
,
0010
0000
0000
0000
0000
0100
0001
0100
,
0001
0000
0010
0000
0100
0000
1000
0001
,
0000
0010
0000
0100
0000
1000
0000
0000
,
0011
0000
0000
1000
0001
0000
0001
1000
,
0000
0010
0000
0100
0000
0010
1000
0010
,
1000
0000
0100
0000
0010
0000
0001
1000
,
0000
0100
0000
0010
0000
0001
0000
0000
,
0110
0000
0000
0001
0000
0000
2002
0000
,
0000
0000
3003
0000
0000
0100
0001
0100
,
0001
0000
0010
0000
0100
0000
1000
0001
,
0000
0010
0000
0100
0000
1000
0000
0000
,
0011
0000
0000
1000
0001
0000
0001
1000
,
0000
0010
0000
0100
0000
0010
1000
0010
,
0000
0001
0000
0100
0000
0010
0000
1000
,
0000
0110
0000
1010
0000
0000
1000
0000
,
0110
0000
0000
0001
0000
0000
1001
0000
,
0000
0000
0000
0001
0010
0001
0000
0000
,
0000
0000
0000
1000
0010
1000
0000
0000
,
0100
0000
1000
0010
0001
0000
0000
0000
,
0110
0000
0000
1010
0000
0011
0000
0000
,
1000
0000
0100
0001
0010
0000
0000
0000
,
1001
0000
0000
0101
0000
1100
0000
0000
,
1000
0100
1000
0010
,
0100
0001
0010
0010
,
0100
0001
1000
0010
,
0100
0100
1001
0110
,
1000
0100
0001
0000
0100
0000
0010
0000
,
1000
1000
0001
0000
0100
0000
0001
0000
,
0010
0100
0001
0000
1000
0000
0010
0000
,
0100
0010
1000
0000
0100
0000
0001
0000
,
0100
0010
0010
0000
1000
0000
0001
0000
,
0100
0010
1000
0000
0001
0000
0100
0000
,
0010
0000
0000
0010
0000
0100
0001
1000
,
0000
0100
0010
0010
,
0101
1000
0001
0110
,
1000
0100
0100
0002
,
0003
0000
0000
0010
0000
0010
0000
0001
,
0100
1000
0101
0011
,
1000
0000
0100
0001
0000
0001
1000
0000
,
0100
0000
0000
1001
0000
0010
0000
0000
,
0100
0000
0000
0110
0000
1000
0000
0100
,
0000
0000
1000
0000
0001
0000
1000
0000
0000
0000
0010
0000
0000
0010
0000
0000
,
0010
0000
0000
0202
,
0303
0000
0100
0000
0010
0000
0001
1000
,
0000
0100
0000
0010
0000
0001
0000
0000
,
1100
0000
0000
0001
1000
0000
1000
0001
,
0000
0100
0000
0010
0000
0100
0001
0100
,
0001
0000
0010
0000
0100
0000
1000
0001
,
0000
0010
0000
0100
0000
1000
0000
0000
,
0110
0000
0000
1000
0000
0000
2002
0000
,
0000
0000
3003
0000
0000
0010
1000
0010
,
1000
0000
0100
0000
0010
0000
0001
1000
,
0000
0100
0000
0010
0000
0001
0000
0000
,
1100
0000
0000
0001
1000
0000
1000
0001
,
0000
0100
0000
0010
0000
0100
0001
0100
,
0000
1000
0000
0010
0000
0100
0000
0001
,
0000
0110
0000
0101
0000
0000
0001
0000
,
0110
0000
0000
1000
0000
0000
1001
0000
,
0000
0000
0000
1000
0100
1000
0000
0000
,
0000
0000
0000
0001
0100
0001
0000
0000
,
0200
0000
0000
0000
,
0000
0000
0000
0000
,
0300
0000
0000
0000
;
