#VERSION:0.83;
#TITLE:PRECIOSO;
#SUBTITLE:;
#ARTIST:Kildson;
#TITLETRANSLIT:;
#SUBTITLETRANSLIT:;
#ARTISTTRANSLIT:;
#GENRE:;
#ORIGIN:;
#CREDIT:;
#BANNER:PRECIOSO.png;
#BACKGROUND:PRECIOSO-bg.png;
#PREVIEWVID:;
#JACKET:PRECIOSO-jacket.png;
#CDIMAGE:;
#DISCIMAGE:;
#LYRICSPATH:;
#CDTITLE:cdtitle.png;
#MUSIC:PRECIOSO.ogg;
#OFFSET:1.518000;
#SAMPLESTART:184.658005;
#SAMPLELENGTH:18.000000;
#SELECTABLE:YES;
#DISPLAYBPM:136.000000;
#BPMS:0.000=136.000;
#STOPS:;
#DELAYS:;
#WARPS:;
#TIMESIGNATURES:0.000=4=4;
#TICKCOUNTS:0.000=4;
#COMBOS:0.000=1;
#SPEEDS:0.000=1.000=0.000=0;
#SCROLLS:0.000=1.000;
#FAKES:;
#LABELS:0.000=Song Start;
#BGCHANGES:;
#KEYSOUNDS:;
#ATTACKS:
;

//---------------dance-single - ----------------
#NOTEDATA:;
#CHARTNAME:;
#STEPSTYPE:dance-single;
#DESCRIPTION:;
#CHARTSTYLE:;
#DIFFICULTY:Easy;
#METER:1;
#RADARVALUES:0.094527,0.165320,0.020297,0.142080,0.000000,163.000000,158.000000,5.000000,35.000000,0.000000,0.000000,0.000000,0.000000,0.000000,0.094527,0.165320,0.020297,0.142080,0.000000,163.000000,158.000000,5.000000,35.000000,0.000000,0.000000,0.000000,0.000000,0.000000;
#CREDIT:kater15;
#DISPLAYBPM:136.000000;
#NOTES:
0000
0000
0000
0000
,
0000
0000
0000
0000
,
0000
0000
0000
0000
,
0000
0000
0000
0000
,
0000
0000
0000
0000
,
0000
0000
0000
0000
,
0000
0000
0000
0000
,
0000
0000
0000
0000
,
0000
0000
0000
0000
,
0000
0000
0000
0000
,
1001
0000
0000
0000
,
0000
0000
0000
0000
,
1000
0000
0000
0000
,
0000
0000
0000
0000
,
0001
0000
0000
0000
,
0000
0000
0000
0000
,
0100
0000
0000
0000
,
0000
0000
0000
0000
,
0000
0000
0000
0000
,
1000
0000
0000
0000
,
0010
0000
0000
0000
,
0001
0000
0000
0000
,
1000
0000
0000
0000
,
0000
0000
0000
0000
,
1000
0000
1000
0000
,
0100
0000
0000
0000
,
0110
0000
0000
0000
,
0000
0000
0000
0000
,
1001
0000
0000
0000
,
0000
0000
0000
0000
,
0100
0000
0010
0000
,
0100
0000
0000
0000
,
1000
0000
0001
0000
,
1000
0000
0100
0000
,
0000
0000
0000
0000
,
0110
0000
0000
0000
,
0000
0000
0000
0000
,
0000
0000
1000
2000
,
0000
0002
0000
0000
,
3003
0000
0010
0020
,
0000
0200
0000
0000
,
0000
0000
0000
0330
,
0110
0000
0000
0000
,
0010
0000
1000
0000
,
0100
0000
0000
0000
,
0000
0000
0001
0002
,
0000
2000
0000
0000
,
3003
0000
0100
0200
,
0000
0020
0000
0000
,
0330
0000
0002
0000
,
1003
0000
1000
0000
,
0001
0000
0010
0000
,
1000
0000
0100
0000
,
0001
0000
0010
0000
,
0100
0000
0001
0000
,
1000
0000
0100
0000
,
0020
0000
0000
0000
,
0030
0000
0002
0000
,
1003
0000
1000
0000
,
0001
0000
1000
0000
,
0100
0000
0010
0000
,
0010
0000
1000
0000
,
0100
0000
0001
0000
,
0100
0000
0001
0000
,
0020
0000
0000
0000
,
0030
0000
1000
1000
,
2000
0000
0000
0000
,
0000
0000
0000
0000
,
0002
0000
0000
0000
,
0000
3003
0010
0010
,
0020
0000
0000
0030
,
1000
0000
0100
0000
,
0001
0000
0010
0000
,
0100
0000
1000
1000
,
2000
0000
0000
0000
,
0000
0000
0000
0000
,
0002
0000
0000
0000
,
0000
3003
0010
0010
,
0020
0000
0000
0030
,
1000
0000
0100
0000
,
0001
0000
0010
0000
,
0100
0000
1000
0000
,
0002
0000
0000
0000
,
0000
0000
0000
0000
,
0000
0000
0000
0000
,
0003
0000
0000
0000
,
2000
0000
0000
0000
,
0000
0000
0000
0000
,
0000
0000
0000
0000
,
3000
0000
0002
0000
,
1003
0000
0100
0000
,
1000
0000
0010
0000
,
0001
0000
0100
0000
,
0010
0000
1000
0000
,
1000
0000
0001
0000
,
0010
0000
0100
0000
,
2000
0000
0000
3000
,
0000
0000
0020
0000
,
0130
0000
0001
0000
,
0100
0000
0010
0000
,
1000
0000
1000
0000
,
0001
0000
0010
0000
,
0001
0000
0100
0000
,
0100
0000
0001
0000
,
0020
0000
0000
0000
,
0030
0000
1000
1000
,
2000
0000
0000
0000
,
0000
0000
0000
0000
,
0002
0000
0000
0000
,
0000
3003
0010
0010
,
0020
0000
0000
0030
,
1000
0000
0100
0000
,
0001
0000
0010
0000
,
0100
0000
1000
1000
,
2000
0000
0000
0000
,
0000
0000
0000
0000
,
0002
0000
0000
0000
,
0000
3003
0010
0010
,
0020
0000
0000
0030
,
1000
0000
0100
0000
,
0001
0000
0010
0000
,
0100
0000
1000
1000
,
2000
0000
0000
0000
,
0000
0000
0000
0000
,
0002
0000
0000
0000
,
0000
0000
3003
0000
0000
0010
0000
0020
,
0000
0000
0030
0000
,
1000
0000
0100
0000
,
0001
0000
0010
0000
,
0100
0000
1000
0000
,
0000
0000
0000
0000
,
0000
0000
0000
0000
,
2000
0000
0000
0002
,
0000
0000
0000
0000
,
0000
0000
0000
0000
,
0000
0000
0000
3003
;

//---------------dance-single - ----------------
#NOTEDATA:;
#CHARTNAME:;
#STEPSTYPE:dance-single;
#DESCRIPTION:;
#CHARTSTYLE:;
#DIFFICULTY:Medium;
#METER:3;
#RADARVALUES:0.167017,0.275534,0.064951,0.186734,0.004059,288.000000,272.000000,16.000000,46.000000,0.000000,0.000000,0.000000,0.000000,0.000000,0.167017,0.275534,0.064951,0.186734,0.004059,288.000000,272.000000,16.000000,46.000000,0.000000,0.000000,0.000000,0.000000,0.000000;
#CREDIT:kater15;
#DISPLAYBPM:136.000000;
#NOTES:
0000
0000
0000
0000
,
0000
0000
0000
0000
,
0000
0000
0000
0000
,
0000
0000
0000
0000
,
0000
0000
0000
0000
,
0000
0000
0001
1000
,
0000
0000
0000
0000
,
0000
0000
0100
0001
,
0000
0000
0000
0000
,
0000
0000
0000
0000
,
1001
0000
1000
0000
,
0100
0000
0010
0000
,
0200
0000
1300
0000
,
0001
0000
0000
0000
,
1000
0000
0000
0000
0000
0001
0000
0000
0000
0000
0000
0000
,
0000
0000
0000
0000
,
0010
0000
0000
0000
0000
0100
0000
0000
0000
0000
0000
0000
,
0000
0000
0000
0000
,
0110
0000
0000
0000
,
0100
0010
0100
0100
,
0000
0001
0000
0000
,
0000
0000
0000
0000
,
1000
0100
0010
0000
,
1000
0000
0001
0000
,
0100
0000
1000
0010
,
0020
0000
1000
0000
,
0031
0000
0000
0000
,
1000
0100
0100
1000
,
0010
0000
0001
0000
,
1000
0001
0000
0000
,
0010
1000
0100
0000
,
0000
0000
0000
0000
,
0010
0000
0100
0000
,
1000
0001
1000
0001
,
1001
0000
0000
0000
,
1000
0000
0100
0000
,
0010
0000
1000
0000
,
0100
0000
0001
0002
,
0000
2000
0000
0000
,
3003
0000
0010
0020
,
0000
0200
0000
0330
,
0100
0010
0100
0010
,
0110
0000
0001
0000
,
1000
0100
0010
0100
,
1000
0000
0001
0000
,
0100
0000
0001
0002
,
0000
2000
0000
0000
,
3003
0000
0010
0020
,
0000
0200
0000
0000
,
0330
0000
0002
0000
,
1003
0100
0100
0010
,
0200
0000
0001
0301
,
1000
0010
0001
0010
,
0200
0000
1000
1300
,
0010
1001
0100
1001
,
0010
0000
1000
0200
,
0000
0000
0000
0000
,
0300
0000
0020
0000
,
0130
1000
0001
0010
,
0020
0000
1000
1030
,
0001
0100
0110
0010
,
2000
0000
0010
3010
,
0001
0100
0010
0010
,
0001
0000
1000
0002
,
1000
0000
0100
0000
,
1003
0000
0010
0001
,
0200
0000
0000
0000
,
0000
0000
0000
0000
,
0020
0000
0000
0000
,
0330
0000
1000
0100
,
0002
0000
0000
0003
,
1000
0100
0100
0010
,
1000
0010
0001
0100
,
1001
0100
0010
0001
,
0200
0000
0000
0000
,
0000
0000
0000
0000
,
0020
0000
0000
0000
,
0330
0000
1000
0100
,
0002
0000
0000
0003
,
1000
0100
0100
0010
,
1000
0010
0001
0100
,
1001
0100
0010
0001
,
0200
0000
0000
0000
,
0000
0000
0000
0000
,
0020
0000
0000
0000
,
0330
0000
1000
0100
,
0002
0000
0000
0000
,
0000
0000
0000
0000
,
1003
0000
0100
0000
,
0010
0000
0002
0000
,
1003
0100
0100
0010
,
0200
0000
0001
0301
,
1000
0010
0001
0010
,
0200
0000
1000
1300
,
0010
1001
0100
1001
,
0010
0000
1000
0200
,
0000
0000
0000
0000
,
0300
0000
0020
0000
,
0130
1000
0001
0010
,
0020
0000
1000
1030
,
0001
0100
0110
0010
,
2000
0000
0010
3010
,
0001
0100
0010
0010
,
0001
0000
1000
0002
,
1000
0000
0100
0000
,
1003
0000
0010
0001
,
0200
0000
0000
0000
,
0000
0000
0000
0000
,
0020
0000
0000
0000
,
0330
0000
1000
0100
,
0002
0000
0000
0003
,
1000
0100
0100
0010
,
1000
0010
0001
0100
,
1001
0100
0010
0001
,
0200
0000
0000
0000
,
0000
0000
0000
0000
,
0020
0000
0000
0000
,
0330
0000
1000
0100
,
0002
0000
0000
0003
,
1000
0100
0100
0010
,
1000
0010
0001
0100
,
1001
0100
0010
0001
,
0200
0000
0000
0000
,
0000
0000
0000
0000
,
0020
0000
0000
0000
,
0330
0000
0000
0000
0000
1000
0000
0100
,
0000
0002
0000
0000
0000
0000
0003
0000
,
1000
0100
0100
0010
,
1000
0010
0001
0100
,
1001
0000
0100
0000
,
0110
0000
0000
0000
,
0000
0000
0000
0000
,
0200
0000
0000
0020
,
0000
0000
0000
0000
,
0000
0000
0000
0000
,
0000
0000
0000
0330
;

//---------------dance-single - ----------------
#NOTEDATA:;
#CHARTNAME:;
#STEPSTYPE:dance-single;
#DESCRIPTION:;
#CHARTSTYLE:;
#DIFFICULTY:Hard;
#METER:6;
#RADARVALUES:0.261543,0.385747,0.056832,0.178615,0.016238,451.000000,437.000000,14.000000,44.000000,0.000000,0.000000,0.000000,0.000000,0.000000,0.261543,0.385747,0.056832,0.178615,0.016238,451.000000,437.000000,14.000000,44.000000,0.000000,0.000000,0.000000,0.000000,0.000000;
#CREDIT:kater15;
#DISPLAYBPM:136.000000;
#NOTES:
// measure 0
0000
0000
0000
0000
,  // measure 1
0000
0000
0000
0000
,  // measure 2
0000
0000
0000
0000
,  // measure 3
0000
0000
0000
0000
,  // measure 4
0000
0000
0000
0000
,  // measure 5
0000
0000
1000
0001
,  // measure 6
0100
0000
0100
0000
,  // measure 7
0100
0000
0010
0100
,  // measure 8
0001
0000
0001
0000
,  // measure 9
0001
0000
1000
0000
,  // measure 10
1100
0000
1000
0100
,  // measure 11
0001
0001
1000
0010
,  // measure 12
0100
0100
0100
0000
0000
0000
0000
0000
,  // measure 13
0000
0000
0000
0000
,  // measure 14
1000
0000
0000
1000
0000
0000
1000
0000
0000
0000
0000
0000
0000
0000
0000
0000
,  // measure 15
0000
0000
0000
0000
,  // measure 16
0001
0000
0000
0001
0000
0000
0001
0000
0000
0000
0000
0000
0000
0000
0000
0000
,  // measure 17
0000
0100
0010
1000
,  // measure 18
1010
0000
0001
0000
,  // measure 19
1000
0000
0100
0000
1000
0100
0002
0000
,  // measure 20
0000
2000
0000
3003
,  // measure 21
0000
0000
0000
0000
,  // measure 22
1000
0000
0000
1000
0000
0000
1000
0000
0000
0000
0000
0000
0001
0000
1000
0000
,  // measure 23
0000
0001
0000
0000
0000
0000
0000
0000
,  // measure 24
1000
0100
1000
0001
,  // measure 25
1000
0000
0000
0000
,  // measure 26
0011
0000
0001
0000
,  // measure 27
1000
1100
0001
1000
,  // measure 28
0020
0000
0000
0000
0130
0000
0000
0100
,  // measure 29
2000
3100
0000
0000
,  // measure 30
0002
0000
1000
0000
,  // measure 31
1000
0000
0000
0000
0103
0000
0000
1000
,  // measure 32
0001
0000
0001
1000
0000
0000
0000
0000
,  // measure 33
0100
0001
0010
1000
,  // measure 34
0110
0000
0001
0000
,  // measure 35
1000
0001
0100
0100
,  // measure 36
0020
0000
0100
0000
,  // measure 37
1030
0000
0100
0001
,  // measure 38
0100
1000
2000
0000
0001
0000
0000
0000
,  // measure 39
3010
0000
0100
0010
,  // measure 40
0100
0001
0002
0000
1000
0000
0000
0000
,  // measure 41
0103
0001
0010
1000
,  // measure 42
0110
0000
0000
0000
1000
0000
0000
0010
,  // measure 43
0001
0000
0001
0010
1000
0000
1000
0000
,  // measure 44
0200
0000
0001
0000
,  // measure 45
0310
0000
0100
0001
,  // measure 46
0100
1000
2000
0000
0001
0000
0000
0000
,  // measure 47
3010
0000
0100
0010
,  // measure 48
0100
0001
0002
0000
1000
0000
0000
0000
,  // measure 49
0103
0000
2001
0000
,  // measure 50
3001
0000
1000
0100
1000
0000
1000
0010
,  // measure 51
1000
0001
1001
0010
,  // measure 52
1000
0000
0100
0001
0100
0000
0100
1000
,  // measure 53
0100
1000
1010
0100
,  // measure 54
0001
0000
0010
1000
0100
0000
0010
0001
,  // measure 55
1000
0000
0100
0010
0001
0100
0020
0000
,  // measure 56
0100
0000
1000
0000
,  // measure 57
0130
0000
0210
0000
,  // measure 58
0310
0000
0100
0001
0100
0000
0100
1000
,  // measure 59
0100
0010
0110
1000
,  // measure 60
0100
0000
0001
0010
0001
0000
0001
0100
,  // measure 61
0001
0100
1100
0001
,  // measure 62
0010
0000
1000
0100
0001
0000
1000
0010
,  // measure 63
0100
0000
0001
1000
0010
0001
2000
0000
,  // measure 64
0001
0000
0100
0000
,  // measure 65
3001
0100
0010
0000
1000
0100
0010
0001
,  // measure 66
0200
0000
0010
0000
,  // measure 67
0001
0000
0010
0000
,  // measure 68
1000
0000
0010
0000
,  // measure 69
0001
0000
0300
0000
1000
0100
0002
0000
,  // measure 70
1000
0000
1000
0003
,  // measure 71
1000
0000
0000
1000
0000
0000
1000
0000
0000
0000
0100
0000
0001
0000
0010
0000
,  // measure 72
0000
0100
1000
0000
0001
0100
0010
0000
,  // measure 73
0010
0000
0000
0000
1000
0100
0010
0001
,  // measure 74
0200
0000
0010
0000
,  // measure 75
0001
0000
0010
0000
,  // measure 76
1000
0000
0010
0000
,  // measure 77
0001
0000
0300
0000
1000
0100
0002
0000
,  // measure 78
1000
0000
1000
0003
,  // measure 79
1000
0000
0000
1000
0000
0000
1000
0000
0000
0000
0100
0000
0001
0000
0010
0000
,  // measure 80
0000
0100
1000
0000
0001
0100
0010
0000
,  // measure 81
0010
0000
0000
0000
1000
0100
0010
0001
,  // measure 82
0200
0000
0000
0000
,  // measure 83
0000
0000
0000
0000
,  // measure 84
0020
0000
0000
0000
,  // measure 85
0000
0000
0330
0000
1000
0100
0002
0000
,  // measure 86
1000
0000
0000
0000
,  // measure 87
0000
0000
0000
0000
,  // measure 88
1003
0100
0000
0001
0100
0000
1000
0100
,  // measure 89
0010
0010
0100
1000
0002
0000
0000
0000
,  // measure 90
1003
0000
1000
0100
0001
0100
1000
0010
,  // measure 91
0200
0000
0001
0301
,  // measure 92
0010
0000
1000
0100
0010
0100
0001
1000
,  // measure 93
0020
0000
0100
0130
,  // measure 94
1000
0000
0100
0001
0100
0010
1000
0100
,  // measure 95
0020
0000
1030
0000
0100
0100
0001
0010
,  // measure 96
0200
0001
1000
0010
,  // measure 97
0002
0303
0020
0000
,  // measure 98
0130
0000
0100
0001
0010
0001
0100
1000
,  // measure 99
0002
0000
0010
0013
,  // measure 100
1000
0000
0100
0001
1000
0001
0010
0100
,  // measure 101
2000
0000
0001
3001
,  // measure 102
0100
0000
0001
0010
0001
1000
0100
0001
,  // measure 103
2000
0000
3100
0000
0001
0001
0010
1000
,  // measure 104
0002
0010
0100
1000
,  // measure 105
0020
0000
0033
0000
1000
0100
0010
0001
,  // measure 106
0200
0000
0010
0000
,  // measure 107
0001
0000
0010
0000
,  // measure 108
1000
0000
0010
0000
,  // measure 109
0001
0000
0300
0000
1000
0100
0002
0000
,  // measure 110
1000
0000
1000
0003
,  // measure 111
1000
0000
0000
1000
0000
0000
1000
0000
0000
0000
0100
0000
0001
0000
0010
0000
,  // measure 112
0000
0100
1000
0000
0001
0100
0010
0000
,  // measure 113
0010
0100
0001
0010
1000
0100
0010
0001
,  // measure 114
0200
0000
0010
0000
,  // measure 115
0001
0000
0010
0000
,  // measure 116
1000
0000
0010
0000
,  // measure 117
0001
0000
0300
0000
1000
0100
0002
0000
,  // measure 118
1000
0000
1000
0003
,  // measure 119
1000
0000
0000
1000
0000
0000
1000
0000
0000
0000
0100
0000
0001
0000
0010
0000
,  // measure 120
0000
0100
1000
0000
0001
0100
0010
0000
,  // measure 121
0010
0100
0001
0010
1000
0100
0010
0001
,  // measure 122
0200
0000
1000
0000
,  // measure 123
0010
0000
0001
0000
,  // measure 124
0010
0000
1000
0000
,  // measure 125
0310
0000
0000
0000
0000
0010
0001
0200
,  // measure 126
0000
0000
0001
0300
,  // measure 127
1000
0000
0000
1000
0000
0000
1000
0000
0000
0000
0000
0000
1000
0000
0001
0000
,  // measure 128
0000
2002
0000
0000
0000
0000
0000
0000
,  // measure 129
3003
0000
0000
0000
,  // measure 130
0011
0000
0000
0000
,  // measure 131
0000
0000
0000
0000
,  // measure 132
2000
0000
0000
0002
,  // measure 133
0000
0000
0000
0000
,  // measure 134
0000
0000
0000
0000
,  // measure 135
0000
0000
0000
3003
;
