#TITLE:PINK DINOSAUR(X-Special);
#SUBTITLE:;
#ARTIST:PAPAYA;
#TITLETRANSLIT:;
#SUBTITLETRANSLIT:;
#ARTISTTRANSLIT:;
#GENRE:;
#CREDIT:;
#BANNER:PINK DINOSAUR(X-Special).png;
#BACKGROUND:PINK DINOSAUR(X-Special)-bg.png;
#LYRICSPATH:;
#CDTITLE:;
#MUSIC:PINK DINOSAUR(X-Special).ogg;
#OFFSET:0.000000;
#SAMPLESTART:58.209999;
#SAMPLELENGTH:15.000000;
#SELECTABLE:YES;
#DISPLAYBPM:136.000000;
#BPMS:0.000000=136.059006
;
#STOPS:
;
#BGCHANGES:;
#KEYSOUNDS:;
#ATTACKS:;

//---------------dance-couple - ----------------
#NOTES:
     dance-couple:
     :
     Medium:
     2:
     0.190011,0.320527,0.065414,0.000000,0.027256,122.000000,116.000000,6.000000,0.000000,0.000000,0.000000,0.190011,0.347237,0.065414,0.000000,0.027256,122.000000,116.000000,6.000000,0.000000,0.000000,0.000000:
00000000
00000000
00000000
00000000
,
00000000
00000000
00000000
00000000
,
00000000
00000000
00000000
00000000
,
00000000
00000000
00000000
00000000
,
00000000
00000000
00000000
00000000
,
00000000
00000000
00000000
00000000
,
00000000
00000000
00000000
00000000
,
00000000
00000000
00000000
00000000
,
00000000
00000000
00000000
00000000
,
00011000
00000000
00010000
00000000
10000000
01000000
00010000
00000000
,
10001000
00000000
10000000
00000000
00010000
01000000
10000000
00000000
,
00101000
10010000
01000000
01000000
,
00001000
00100000
00000000
10010000
,
00010001
00000000
00000001
00000000
00001000
00000100
00000001
00000000
,
00011000
00000000
00001000
00000000
00000001
00000100
00001000
00000000
,
00010010
00001001
00000100
00000100
,
00010000
00000010
00000000
00001001
,
00001000
00000000
00000101
00000000
00000001
00000100
00000100
00000000
,
00000001
00000000
00000100
00000000
00001000
00000100
00000100
00000000
,
10000000
00000000
01010000
00000000
00010000
01000000
01000000
00000000
,
00010000
00000000
01000000
00000000
10000000
01000000
01000000
00000000
,
00000100
00000000
00000100
00000000
,
00001000
00000100
00001000
00000000
00000010
00000001
00000100
00000000
,
01000000
00000000
01000000
00000000
,
10000000
01000000
10000000
00000000
00100000
00010000
01000000
00000000
,
00011000
00000000
01000100
00000000
00100010
01000100
00100010
00000000
,
00011000
00000000
00011000
00011000
00000000
00000000
00000000
00000000
,
10000010
00000010
10000100
00000100
,
10000010
00001000
10000001
00000100
,
10000001
00000000
01000100
00000000
00100010
01000100
00100010
00000000
,
10000001
00000000
10000001
10000001
00000000
00000000
00000000
00000000
,
00100001
00100000
01000001
01000000
,
00100001
10000000
00010001
01000000
,
00000010
00001100
00000010
00000101
,
00000001
00000100
00000010
00000000
00001000
00000010
00000100
00000000
,
00100000
11000000
00100000
01010000
,
00010000
01000000
00100000
00000000
10000000
00100000
01000000
00000000
,
00001000
00000000
00001000
00000000
00001000
00000100
00000001
00000000
,
00001000
00000000
00001000
00000000
00000001
00000010
00001000
00000000
,
00010000
00000000
00010000
00000000
00010000
01000000
10000000
00000000
,
00010000
00000000
00010000
00000000
10000000
00100000
00010000
00000000
,
00010001
00000000
00000000
00000000
00010000
00000000
00000000
00000000
10000001
00000000
00000000
10000000
00000000
00000000
10000000
00000000
,
00100001
00000000
00000000
00000000
10000000
00000000
00000000
00000000
00010001
00000000
00000000
00010000
00000000
00000000
00010000
00000000
,
10000001
00000000
00000000
00000000
00000001
00000000
00000000
00000000
10001000
00000000
00000000
00001000
00000000
00000000
00001000
00000000
,
10000010
00000000
00000000
00000000
00001000
00000000
00000000
00000000
10000001
00000000
00000000
00000001
00000000
00000000
00000001
00000000
,
00010000
00000000
00000000
00000000
00010000
00000000
00000000
00000000
10000000
00000000
00000000
10000000
00000000
00000000
10000000
00000000
,
00000001
00000000
00000000
00000000
00000001
00000000
00000000
00000000
00001000
00000000
00000000
00001000
00000000
00000000
00001000
00000000
,
00100010
00000000
00000000
00000000
00010001
00000000
00000000
00000000
10001000
00000000
00000000
10001000
00000000
00000000
10001000
00000000
,
01000100
00000000
00000000
00000000
10001000
00000000
00000000
00000000
00010001
00000000
00000000
00010001
00000000
00000000
00010001
00000000
,
10011001
00000000
00000000
00000000
;

//---------------dance-single - ----------------
#NOTES:
     dance-single:
     :
     Challenge:
     13:
     0.599625,0.677985,0.359775,0.218045,0.359775,385.000000,352.000000,33.000000,20.000000,0.000000,0.000000,0.599625,0.677985,0.359775,0.218045,0.359775,385.000000,352.000000,33.000000,20.000000,0.000000,0.000000:
// measure 0
0000
0000
0000
0000
,  // measure 1
0000
0000
0000
0000
,  // measure 2
0000
0000
0000
0000
,  // measure 3
0000
0000
0000
0000
,  // measure 4
0000
0000
0000
0000
,  // measure 5
1000
0000
0100
0000
0002
0000
0000
0000
1003
0000
0100
0001
0000
0100
0001
0000
,  // measure 6
0010
0000
0100
0000
2000
0000
0000
0000
3010
0000
0001
0100
0000
0001
0100
0000
,  // measure 7
0010
0000
1000
0000
0200
0000
0000
0000
0310
0000
1000
0010
0000
1000
0001
0000
,  // measure 8
1000
0000
0100
0000
0020
0000
0000
0000
0031
0000
0100
2000
0000
0000
0000
0000
,  // measure 9
3001
0000
0010
0000
1000
0000
0100
0000
0010
0000
0001
1000
0001
1000
0001
0000
,  // measure 10
0100
0000
0010
0000
1000
0000
0100
0000
0010
0000
0000
1001
0000
0000
0100
0000
,  // measure 11
1010
0000
1010
0000
0100
0000
0001
0000
1000
0000
0100
0001
0100
0001
0100
0000
,  // measure 12
0010
0000
1000
0000
0100
0000
0010
0000
1000
0100
0000
0001
0010
0001
0100
0000
,  // measure 13
1000
0000
0100
0000
0001
0000
0010
0000
0100
0000
1000
0001
1000
0001
1000
0000
,  // measure 14
0010
0000
0100
0000
0001
0000
0010
0000
0100
0000
0000
1001
0000
0000
0010
0000
,  // measure 15
0101
0000
0101
0000
0010
0000
1000
0000
0001
0000
0010
1000
0010
1000
0010
0000
,  // measure 16
0100
0000
1000
0001
0010
0000
0100
1000
0002
0000
0000
0000
0003
0000
0000
0000
,  // measure 17
2000
0100
0001
3010
,  // measure 18
1001
0000
0000
0010
0100
0000
0001
1000
0001
0000
1000
0010
0100
0000
0010
0000
,  // measure 19
0002
0000
0010
0000
1000
0000
0103
0100
,  // measure 20
0010
0000
0001
0100
1000
0000
0010
0100
0010
0000
1000
0001
0100
0001
0010
0000
,  // measure 21
0200
0001
0010
1300
,  // measure 22
0110
0000
0000
1000
0001
0000
0010
0100
0010
0000
0100
1000
0001
0000
1000
0000
,  // measure 23
0020
0000
1000
0000
0100
0000
0031
0001
,  // measure 24
1000
0000
0010
0001
0100
0000
1000
0001
1000
0000
0100
0010
0001
0010
1000
0000
,  // measure 25
0200
0000
0301
0000
1000
1000
0010
0100
,  // measure 26
0001
0000
0010
0000
1000
0001
1000
0000
0200
0000
0000
0000
0300
0000
0000
0000
,  // measure 27
0101
1100
0010
0001
0100
0010
0100
0010
,  // measure 28
1000
0000
0000
1000
0100
0000
0000
0100
0001
0000
0000
0001
0100
0000
0000
0100
,  // measure 29
2000
0000
3010
0000
0100
0100
1000
0001
,  // measure 30
0010
0000
1000
0000
0100
0010
0100
0000
0002
0000
0000
0000
0003
0000
0000
0000
,  // measure 31
0010
0000
0001
0100
1000
0000
0100
0010
1000
0000
0100
0000
0010
0000
0001
0000
,  // measure 32
0100
0000
0000
0000
0010
0000
0000
0000
1001
0000
0000
0101
0000
0000
1000
0000
,  // measure 33
0110
0001
0100
0010
1010
0100
0010
0001
,  // measure 34
0100
0000
0010
0001
1000
0000
1100
0000
0202
0000
0000
0000
0303
0000
0000
0000
,  // measure 35
0100
0100
0001
0010
0110
1000
0100
0001
,  // measure 36
1000
0000
0100
0000
0010
0000
0010
0000
1100
0000
0000
1001
0000
0000
1000
0000
,  // measure 37
1001
0010
0001
1000
1100
0001
1000
0010
,  // measure 38
0001
0000
1000
0010
0100
0000
1010
0000
0022
0000
0000
0000
0033
0000
0000
0000
,  // measure 39
0001
0001
0010
1000
1001
0100
0001
0010
,  // measure 40
0100
0000
0001
0000
1000
0000
1000
0000
0101
0000
0000
0110
0000
0000
0100
0000
,  // measure 41
0001
0000
0010
0000
1000
0000
0100
0000
0010
0000
0001
1000
0001
1000
0001
0000
,  // measure 42
0100
0000
0010
0000
1000
0000
0100
0000
0010
0000
0000
1001
0000
0000
0100
0000
,  // measure 43
1010
0000
1010
0000
0100
0000
0001
0000
1000
0000
0100
0001
0100
0001
0100
0000
,  // measure 44
0010
0000
1000
0000
0100
0000
0010
0000
1000
0100
0000
0001
0010
0001
0100
0000
,  // measure 45
1000
0000
0100
0000
0001
0000
0010
0000
0100
0000
1000
0001
1000
0001
1000
0000
,  // measure 46
0010
0000
0100
0000
0001
0000
0010
0000
0100
0000
0000
1001
0000
0000
0010
0000
,  // measure 47
0101
0000
0101
0000
0010
0000
1000
0000
0001
0000
0010
1000
0010
1000
0010
0000
,  // measure 48
0100
0000
1000
0001
0010
0000
0100
1000
0001
0000
0010
0100
0000
0001
1000
0000
,  // measure 49
0220
0000
0000
0330
;
