#TITLE:Otro Dia Que Va;
#SUBTITLE:;
#ARTIST:RBD;
#TITLETRANSLIT:;
#SUBTITLETRANSLIT:;
#ARTISTTRANSLIT:;
#GENRE:;
#CREDIT:;
#BANNER:Otro Dia Que Va.png;
#BACKGROUND:Otro Dia Que Va-bg.png;
#LYRICSPATH:;
#CDTITLE:;
#MUSIC:Otro Dia Que Va.ogg;
#OFFSET:-0.068000;
#SAMPLESTART:49.209003;
#SAMPLELENGTH:16.000000;
#SELECTABLE:YES;
#DISPLAYBPM:133.000000:266.000000;
#BPMS:0.000000=133.070007
,108.000000=265.140015
,173.000000=266.140015
;
#STOPS:104.000000=0.226000,
105.000000=0.225000,
107.000000=1.353000
;
#BGCHANGES:;
#KEYSOUNDS:;
#ATTACKS:;

//---------------dance-single - ----------------
#NOTES:
     dance-single:
     :
     Easy:
     8:
     0.288267,0.409754,0.047855,0.063806,0.000000,253.000000,247.000000,6.000000,8.000000,0.000000,0.000000,0.288267,0.409754,0.047855,0.063806,0.000000,253.000000,247.000000,6.000000,8.000000,0.000000,0.000000:
0000
0000
0000
0000
,
0000
0000
0000
0000
,
0000
0000
0000
0000
,
0000
0000
0000
0000
,
0001
0100
1000
0000
,
0010
1000
0100
0000
,
0001
0000
1000
0000
,
0100
0000
0010
0000
,
0100
0001
1000
0000
,
0001
0100
0010
0000
,
0100
0000
0010
0000
,
0001
0000
1000
0000
,
0200
0000
0000
0010
,
0310
0000
0110
0000
,
0002
0000
0000
1000
,
1003
0000
1001
0000
,
0020
0000
0000
1000
,
1030
0000
1010
0000
,
2000
0000
0000
0100
,
3100
0000
1100
0000
,
1000
0100
0010
0000
,
0001
0100
0010
0000
,
1000
0100
0001
0001
,
0100
0010
1000
0000
,
0100
0001
0010
0000
,
0100
1000
0010
0000
,
0001
1000
0001
1001
,
0100
0100
0100
0100
,
0010
0100
0010
0000
,
0001
0001
0001
0001
,
1000
0001
1000
0000
,
0100
0001
0000
1000
,
0000
0100
0000
0010
,
0000
1000
0000
0100
,
0000
0001
0010
1000
,
0000
0010
0010
0010
,
0100
0010
0100
0000
,
1000
1000
1000
1000
,
0001
1000
0001
0000
,
0100
0100
0100
0000
,
0001
0001
0001
0000
,
0010
0010
0010
0000
,
1000
1000
1000
0000
,
0100
0100
0100
0100
,
0010
0100
0010
0000
,
0001
0001
0001
0001
,
1000
0001
1000
0000
,
0100
0001
0000
1000
,
0000
0100
0000
0010
,
0000
1000
0000
0100
,
0000
0001
0010
1000
,
0000
0010
0010
0010
,
0100
0010
0100
0000
,
1000
1000
1000
1000
,
0001
1000
0001
0000
,
0100
0100
0100
0000
,
0001
0001
0001
0000
,
0010
0010
0010
0000
,
1000
1000
1000
0000
,
0001
0000
0100
0000
,
0001
0000
0100
0000
,
0001
0000
0100
0000
,
0001
0000
0100
0000
,
0002
0000
0000
0000
,
0003
0000
0000
0000
,
0010
0000
0000
0100
,
0000
0000
0001
0000
,
1000
0000
0010
0000
,
1000
0000
0010
0000
,
1000
0000
0010
0000
,
1000
0000
0010
0000
,
2000
0000
0000
0000
,
3000
0000
0000
0000
,
0001
0000
0000
0100
,
0000
0000
1000
0000
,
0100
0100
0100
0100
,
0010
0100
0010
0000
,
0001
0001
0001
0001
,
1000
0001
1000
0000
,
0100
0001
0000
1000
,
0000
0100
0000
0010
,
0000
1000
0000
0100
,
0000
0001
0010
1000
,
0000
0010
0010
0010
,
0100
0010
0100
0000
,
1000
1000
1000
1000
,
0001
1000
0001
0000
,
0100
0100
0100
0000
,
0001
0001
0001
0000
,
0010
0010
0010
0000
,
1000
1000
1000
0000
,
0100
0100
0100
0100
,
0010
0100
0010
0000
,
0001
0001
0001
0001
,
1000
0001
1000
0000
,
0100
0001
0000
2002
,
0000
0000
0000
0000
,
0000
0000
0000
0000
,
0000
0000
0000
0000
,
0000
0000
0000
0000
,
0000
0000
0000
0000
,
0000
0000
0000
0000
,
0000
0000
0000
3003
;

//---------------dance-single - ----------------
#NOTES:
     dance-single:
     :
     Beginner:
     5:
     0.174327,0.245853,0.039879,0.039879,0.000000,153.000000,148.000000,5.000000,5.000000,0.000000,0.000000,0.174327,0.245853,0.039879,0.039879,0.000000,153.000000,148.000000,5.000000,5.000000,0.000000,0.000000:
0000
0000
0000
0000
,
0000
0000
0000
0000
,
0000
0000
0000
0000
,
0000
0000
0000
0000
,
0001
0000
0001
0000
,
1000
0000
1000
0000
,
0001
0000
0000
0000
,
1000
0000
0000
0000
,
0100
0000
0100
0000
,
0010
0000
0010
0000
,
0100
0000
0000
0000
,
0010
0000
0000
0000
,
1001
0000
0000
0000
,
0000
0000
0000
0000
,
0110
0000
0000
0000
,
0000
0000
0000
0000
,
1001
0000
0000
0000
,
0000
0000
0000
0000
,
0110
0000
0000
0000
,
0000
0000
0000
0000
,
1000
0000
1000
0000
,
0010
0000
0010
0000
,
1000
0000
0100
0000
,
0010
0000
0001
0000
,
0100
0000
0100
0000
,
0001
0000
0001
0000
,
2000
0000
3000
1000
,
0000
0000
1000
0000
,
0100
0000
0001
0000
,
0100
0000
1000
0000
,
0100
0000
0001
0000
,
0010
0010
0000
1000
,
0000
0100
0000
0010
,
0000
0001
0000
0100
,
0000
1000
1000
1000
,
0000
0000
0001
0000
,
0010
0000
1000
0000
,
0010
0000
0001
0000
,
0010
0000
1000
0000
,
0100
0100
0000
0000
,
1000
0000
0100
0000
,
0001
0000
0010
0000
,
0100
0000
1000
0000
,
0000
0000
1000
0000
,
0100
0000
0001
0000
,
0100
0000
1000
0000
,
0100
0000
0001
0000
,
0010
0010
0000
1000
,
0000
0100
0000
0010
,
0000
0001
0000
0100
,
0000
1000
1000
1000
,
0000
0000
0001
0000
,
0010
0000
1000
0000
,
0010
0000
0001
0000
,
0010
0000
1000
0000
,
0100
0100
0000
0000
,
1000
0000
0100
0000
,
0001
0000
0010
0000
,
0100
0000
1000
0000
,
0001
0000
0000
0000
,
1000
0000
0000
0000
,
0001
0000
0000
0000
,
1000
0000
0000
0000
,
0002
0000
0000
0000
,
0000
0000
0000
0000
,
0000
0000
0000
0000
,
0000
0000
0003
0000
,
0100
0000
0000
0000
,
0010
0000
0000
0000
,
0100
0000
0000
0000
,
0010
0000
0000
0000
,
0200
0000
0000
0000
,
0000
0000
0000
0000
,
0000
0000
0300
0000
,
0100
0000
0100
0000
,
0000
0000
1000
0000
,
0100
0000
0001
0000
,
0100
0000
1000
0000
,
0100
0000
0001
0000
,
0010
0010
0000
1000
,
0000
0100
0000
0010
,
0000
0001
0000
0100
,
0000
1000
1000
1000
,
0000
0000
0001
0000
,
0010
0000
1000
0000
,
0010
0000
0001
0000
,
0010
0000
1000
0000
,
0100
0100
0000
0000
,
1000
0000
0100
0000
,
0001
0000
0010
0000
,
0100
0000
1000
0000
,
0000
0000
1000
0000
,
0100
0000
0001
0000
,
0100
0000
1000
0000
,
0100
0000
0001
0000
,
0010
0010
0000
2002
,
0000
0000
0000
0000
,
0000
0000
0000
0000
,
0000
0000
0000
0000
,
0000
0000
0000
0000
,
0000
0000
0000
0000
,
0000
0000
0000
0000
,
0000
0000
0000
3003
;

//---------------dance-single - ----------------
#NOTES:
     dance-single:
     :
     Medium:
     12:
     0.437527,0.614632,0.263200,0.255224,0.000000,384.000000,351.000000,33.000000,32.000000,0.000000,0.000000,0.437527,0.614632,0.263200,0.255224,0.000000,384.000000,351.000000,33.000000,32.000000,0.000000,0.000000:
0000
0000
0000
0000
,
0000
0000
0000
0000
,
0000
0000
0000
0000
,
0000
0000
0000
0000
,
0001
0000
1000
1000
0000
0001
0001
0000
,
0010
0000
0100
0100
0000
0010
0010
0000
,
1000
0000
0100
0010
0000
0010
0001
0000
,
0001
0000
0100
0001
0000
0001
1000
0000
,
1000
0000
0001
0001
0000
1000
1000
0000
,
0100
0000
0010
0010
0000
0100
0100
0000
,
0001
0000
0010
0100
0000
0100
1000
0000
,
1000
0000
0001
1000
0000
1000
0100
0000
,
0100
0000
1000
0100
0001
0000
0010
0000
,
0200
0000
0000
0000
0300
0000
0001
1000
,
0001
0000
0100
0100
0000
0010
0010
0000
,
2002
0000
0000
0000
3003
0000
0100
0010
,
0100
0000
1000
1000
0000
0001
0001
0000
,
0220
0000
0000
0000
0330
0000
1000
0100
,
0001
0000
0001
1000
0000
1000
0001
0000
,
1001
0110
1001
0110
,
0001
0000
1000
1000
0000
0001
0001
0000
,
0010
0000
0100
0100
0000
0010
0010
0000
,
1000
0000
0100
0010
0000
0010
0001
0000
,
0001
0000
0100
0001
0000
0001
1000
0000
,
1000
0000
0001
0001
0000
1000
1000
0000
,
0100
0000
0010
0010
0000
0100
0100
0000
,
0011
0000
0000
0000
0101
0000
0000
0000
1100
0000
0000
0000
2002
3003
0000
0000
,
0100
0001
0010
0100
,
1000
0000
1000
0000
1000
0001
1000
0000
,
0010
1000
0100
0010
,
0001
0000
0001
0000
0001
1000
0001
0000
,
0100
1010
0000
0002
,
0000
2003
0000
3200
,
0000
0320
0000
0032
,
0000
1003
0100
0010
,
0000
0001
0010
0100
,
1000
0000
1000
0000
1000
0001
1000
0000
,
0010
1000
0100
0010
,
0001
0000
0001
0000
0001
1000
0001
0000
,
0100
0100
1001
1001
,
0010
0010
0110
0110
,
1000
0001
0010
0100
,
2000
0000
0002
3003
,
0100
0001
0010
0100
,
1000
0000
1000
0000
1000
0001
1000
0000
,
0010
1000
0100
0010
,
0001
0000
0001
0000
0001
1000
0001
0000
,
0100
1010
0000
0002
,
0000
2003
0000
3200
,
0000
0320
0000
0032
,
0000
1003
0100
0010
,
0000
0001
0010
0100
,
1000
0000
1000
0000
1000
0001
1000
0000
,
0010
1000
0100
0010
,
0001
0000
0001
0000
0001
1000
0001
0000
,
0100
0100
1001
1001
,
0010
0010
0110
0110
,
1000
0001
0010
0100
,
2000
0000
0002
3003
,
1000
0100
1000
0010
,
1000
0000
0100
0000
1000
0010
1000
0000
,
0001
0100
0001
0010
,
0001
0000
0100
0000
0001
0010
0001
0000
,
0200
0000
0000
0000
,
0000
0000
0310
0000
,
0101
0000
0000
1100
,
0000
0000
0101
0000
,
0100
0001
0100
1000
,
0100
0000
0001
0000
0100
1000
0100
0000
,
0010
0001
0010
1000
,
0010
0000
0001
0000
0010
1000
0010
0000
,
0002
0000
0000
0000
,
0000
0000
1003
0000
,
0011
0000
0000
0101
,
0000
0000
0011
0000
,
0100
0001
0010
0100
,
1000
0000
1000
0000
1000
0001
1000
0000
,
0010
1000
0100
0010
,
0001
0000
0001
0000
0001
1000
0001
0000
,
0100
1010
0000
0002
,
0000
2003
0000
3200
,
0000
0320
0000
0032
,
0000
1003
0100
0010
,
0000
0001
0010
0100
,
1000
0000
1000
0000
1000
0001
1000
0000
,
0010
1000
0100
0010
,
0001
0000
0001
0000
0001
1000
0001
0000
,
0100
0100
1001
1001
,
0010
0010
0110
0110
,
1000
0001
0010
0100
,
2000
0000
0002
3003
,
0100
0001
0010
0100
,
1000
0000
1000
0000
1000
0001
1000
0000
,
0010
1000
0100
0010
,
0001
0000
0001
0000
0001
1000
0001
0000
,
0100
1010
0000
0022
,
0000
0000
0000
0000
,
0000
0000
0000
0000
,
0000
0000
0000
0000
,
0000
0000
0000
0000
,
0000
0000
0000
0000
,
0000
0000
0000
0000
,
0000
0000
0000
0033
;

//---------------dance-single - ----------------
#NOTES:
     dance-single:
     :
     Hard:
     15:
     0.610715,0.778533,0.446642,0.047855,0.000000,536.000000,480.000000,56.000000,6.000000,0.000000,0.000000,0.610715,0.778533,0.446642,0.047855,0.000000,536.000000,480.000000,56.000000,6.000000,0.000000,0.000000:
// measure 0
0000
0000
0000
0000
,  // measure 1
0000
0000
0000
0000
,  // measure 2
0000
0000
0000
0000
,  // measure 3
0000
0000
0000
0000
,  // measure 4
1000
0100
0010
0001
0000
1000
0001
0000
,  // measure 5
0100
0010
1000
0001
0000
0100
0010
0000
,  // measure 6
1000
0100
0010
1000
0000
0001
0100
0000
,  // measure 7
0010
1000
0001
0010
0000
0100
1000
0000
,  // measure 8
0001
0010
0100
1000
0000
0001
1000
0000
,  // measure 9
0010
0100
0001
1000
0000
0010
0100
0000
,  // measure 10
0001
0010
0100
0001
0000
1000
0010
0000
,  // measure 11
0100
0001
1000
0100
0000
0010
0001
0000
,  // measure 12
1000
1000
0010
0100
0001
0001
1000
0100
,  // measure 13
0010
0000
1001
1001
0000
0100
0010
0001
,  // measure 14
0100
0100
1000
0001
0010
0010
0100
0001
,  // measure 15
1000
0000
0110
0110
0000
0001
1000
0010
,  // measure 16
0001
0001
0100
0010
1000
1000
0001
0010
,  // measure 17
0100
0000
1001
1001
0000
0010
0100
1000
,  // measure 18
0010
0010
0001
1000
0100
0100
0010
1000
,  // measure 19
0011
0001
0100
1000
0101
0100
0001
0100
,  // measure 20
1000
0100
0010
0001
0000
1000
0001
0000
,  // measure 21
0100
0010
1000
0001
0000
0100
0010
0000
,  // measure 22
1000
0100
0010
1000
0000
0001
0100
0000
,  // measure 23
0010
1000
0001
0010
0000
0100
1000
0000
,  // measure 24
0001
0010
0100
1000
0000
0001
1000
0000
,  // measure 25
0010
0100
0001
1000
0000
0010
0100
0000
,  // measure 26
1010
0000
0001
0000
0011
0000
1000
0000
1100
0000
0000
0000
0220
0330
0000
0000
,  // measure 27
1000
0000
0010
0001
1000
0000
0100
0000
,  // measure 28
0011
1010
0100
0001
,  // measure 29
0001
0000
0100
1000
0001
0000
0010
0000
,  // measure 30
1100
0101
0010
1000
,  // measure 31
0100
1000
0001
0000
0010
0000
0110
0000
,  // measure 32
0000
0000
0100
0001
0000
0000
0001
0100
,  // measure 33
0000
0000
0100
1000
0000
0000
1000
0100
,  // measure 34
0000
0000
0001
0010
1000
0000
1010
0000
,  // measure 35
0100
0000
1000
0010
0100
0000
0001
0000
,  // measure 36
1010
1100
0001
0010
,  // measure 37
0010
0000
0001
0100
0010
0000
1000
0000
,  // measure 38
0101
0011
1000
0100
,  // measure 39
0001
0000
1000
0100
0001
0000
0010
1000
,  // measure 40
0100
0000
0001
0010
0100
0000
0001
1000
,  // measure 41
0010
0000
1000
0100
0010
0001
0100
0010
,  // measure 42
1000
0000
0001
0100
1000
0000
1100
0000
,  // measure 43
1000
0000
0010
0001
1000
0000
0100
0000
,  // measure 44
0011
1010
0100
0001
,  // measure 45
0001
0000
0100
1000
0001
0000
0010
0000
,  // measure 46
1100
0101
0010
1000
,  // measure 47
0100
1000
0001
0000
0010
0000
0110
0000
,  // measure 48
0000
0000
0100
0001
0000
0000
0001
0100
,  // measure 49
0000
0000
0100
1000
0000
0000
1000
0100
,  // measure 50
0000
0000
0001
0010
1000
0000
1010
0000
,  // measure 51
0100
0000
1000
0010
0100
0000
0001
0000
,  // measure 52
1010
1100
0001
0010
,  // measure 53
0010
0000
0001
0100
0010
0000
1000
0000
,  // measure 54
0101
0011
1000
0100
,  // measure 55
0001
0000
1000
0100
0001
0000
0010
1000
,  // measure 56
0100
0000
0001
0010
0100
0000
0001
1000
,  // measure 57
0010
0000
1000
0100
0010
0001
0100
0010
,  // measure 58
1000
0000
0001
0100
1000
0000
1100
0000
,  // measure 59
0010
0000
0001
0010
1000
0000
1000
0010
,  // measure 60
0001
0000
0001
0010
1000
0000
0010
0000
,  // measure 61
0100
0000
1000
0100
0001
0000
0001
0100
,  // measure 62
1000
0000
1000
0100
0001
0000
0100
0000
,  // measure 63
0020
0000
1000
0000
1030
0000
0000
0100
,  // measure 64
0000
0000
1010
0000
0000
0001
0000
0000
,  // measure 65
1000
0001
0100
0000
1001
0000
0100
0010
,  // measure 66
1000
0000
0110
0000
0001
0010
1000
0000
,  // measure 67
0001
0000
0100
0001
0010
0000
0010
0001
,  // measure 68
0100
0000
0100
0001
0010
0000
0001
0000
,  // measure 69
1000
0000
0010
1000
0100
0000
0100
1000
,  // measure 70
0010
0000
0010
1000
0100
0000
1000
0000
,  // measure 71
0002
0000
0010
0000
0013
0000
0000
1000
,  // measure 72
0000
0000
0011
0000
0000
0100
0000
0000
,  // measure 73
0010
0100
1000
0000
0110
0000
1000
0001
,  // measure 74
0010
0000
1001
0000
0100
0001
0010
0000
,  // measure 75
1000
0000
0010
0001
1000
0000
0100
0000
,  // measure 76
0011
1010
0100
0001
,  // measure 77
0001
0000
0100
1000
0001
0000
0010
0000
,  // measure 78
1100
0101
0010
1000
,  // measure 79
0100
1000
0001
0000
0010
0000
0110
0000
,  // measure 80
0000
0000
0100
0001
0000
0000
0001
0100
,  // measure 81
0000
0000
0100
1000
0000
0000
1000
0100
,  // measure 82
0000
0000
0001
0010
1000
0000
1010
0000
,  // measure 83
0100
0000
1000
0010
0100
0000
0001
0000
,  // measure 84
1010
1100
0001
0010
,  // measure 85
0010
0000
0001
0100
0010
0000
1000
0000
,  // measure 86
0101
0011
1000
0100
,  // measure 87
0001
0000
1000
0100
0001
0000
0010
1000
,  // measure 88
0100
0000
0001
0010
0100
0000
0001
1000
,  // measure 89
0010
0000
1000
0100
0010
0001
0100
0010
,  // measure 90
1000
0000
0001
0100
1000
0000
1100
0000
,  // measure 91
1000
0000
0010
0001
1000
0000
0100
0000
,  // measure 92
0011
1010
0100
0001
,  // measure 93
0001
0000
0100
1000
0001
0000
0010
0000
,  // measure 94
1100
0101
0010
1000
,  // measure 95
0100
1000
0001
0000
0010
0000
0220
0000
,  // measure 96
0000
0000
0000
0000
,  // measure 97
0000
0000
0000
0000
,  // measure 98
0000
0000
0000
0000
,  // measure 99
0000
0000
0000
0000
,  // measure 100
0000
0000
0000
0000
,  // measure 101
0000
0000
0000
0000
,  // measure 102
0000
0000
0000
0330
;

//---------------dance-single - ----------------
#NOTES:
     dance-single:
     :
     Challenge:
     18:
     0.838594,1.106337,0.677939,0.127612,0.175467,736.000000,651.000000,85.000000,16.000000,0.000000,0.000000,0.838594,1.106337,0.677939,0.127612,0.175467,736.000000,651.000000,85.000000,16.000000,0.000000,0.000000:
0000
0000
0000
0000
,
0000
0000
0000
0000
,
0000
0000
0000
0000
,
0000
0000
0000
0000
,
0100
0001
1000
0000
0010
0000
1100
0000
0101
0000
0010
0000
1000
0000
0001
0000
,
1000
0010
0100
0000
0001
0000
0011
0000
1010
0000
0001
0000
0100
0000
0010
0000
,
0010
1000
0001
0000
0100
0000
0011
0000
1010
0000
0100
0000
0001
0000
1000
0000
,
0001
0100
0010
0000
1000
0000
1100
0000
0101
0000
1000
0000
0010
0000
0100
0000
,
1000
0100
0010
0000
0001
0000
1010
0000
1100
0000
0001
0000
0010
0000
0100
0000
,
0010
0001
1000
0000
0100
0000
0101
0000
0011
0000
0100
0000
1000
0000
0001
0000
,
0001
0010
0100
0000
1000
0000
0101
0000
0011
0000
1000
0000
0100
0000
0010
0000
,
0100
1000
0001
0000
0010
0000
1010
0000
1100
0000
0010
0000
0001
0000
1000
0000
,
0100
0001
1000
0010
0100
0001
0010
0100
1000
0000
0100
0000
0010
0000
1000
0000
,
0100
0000
0001
0000
1010
0000
1100
0000
0010
0001
0100
0010
1000
0001
0010
0000
,
0001
0010
0100
1000
0001
0010
1000
0001
0100
0000
0001
0000
1000
0000
0100
0000
,
0001
0000
0010
0000
1100
0000
0101
0000
1000
0010
0001
1000
0100
0010
1000
0000
,
0010
1000
0001
0100
0010
1000
0100
0010
0001
0000
0010
0000
0100
0000
0001
0000
,
0010
0000
1000
0000
0101
0000
0011
0000
0100
1000
0010
0100
0001
1000
0100
0000
,
1000
0100
0010
0001
1000
0100
0001
1000
0010
0000
1000
0000
0001
0000
0010
0000
,
1000
0000
0100
0000
0011
0000
1010
0000
0001
0100
1000
0001
0010
0100
0001
0000
,
0010
1000
0001
0000
0100
0000
0011
0000
1010
0000
0100
0000
0001
0000
1000
0000
,
0001
0100
0010
0000
1000
0000
1100
0000
0101
0000
1000
0000
0010
0000
0100
0000
,
0100
0001
1000
0000
0010
0000
1100
0000
0101
0000
0010
0000
1000
0000
0001
0000
,
1000
0010
0100
0000
0001
0000
0011
0000
1010
0000
0001
0000
0100
0000
0010
0000
,
0001
0010
0100
0000
1000
0000
0101
0000
0011
0000
1000
0000
0100
0000
0010
0000
,
0100
1000
0001
0000
0010
0000
1010
0000
1100
0000
0010
0000
0001
0000
1000
0000
,
0100
0000
1000
0001
0010
0000
1000
0100
0010
0000
0000
0000
0022
0033
0000
0000
,
0100
0000
1000
0100
0001
0000
1000
0100
,
0001
0001
1000
0100
0011
0000
1010
0000
,
0010
0000
0001
0010
1000
0000
0001
0010
,
1000
1000
0001
0010
1100
0000
0101
0000
,
0010
1000
0001
0000
1100
0000
0101
0000
,
0010
0000
2000
0001
3000
0000
0200
0010
,
0300
0000
0002
1000
0003
0000
1000
0100
,
0010
0001
0100
0010
1000
0001
0020
0000
,
0031
0000
0100
0001
0010
0000
0100
0001
,
0010
0010
0100
0001
1010
0000
1100
0000
,
1000
0000
0010
1000
0100
0000
0010
1000
,
0100
0100
0010
1000
0101
0000
0011
0000
,
1000
0000
0010
1000
0001
0100
0010
0000
,
1000
0100
0010
0001
0100
0000
0010
0001
,
1000
0010
0100
0001
1000
0100
0010
1000
,
0001
0100
0010
1000
0010
0100
0001
0010
,
1000
0000
0010
1000
0100
0000
0010
1000
,
0100
0100
0010
1000
0101
0000
0011
0000
,
0001
0000
0100
0001
0010
0000
0100
0001
,
0010
0010
0100
0001
1010
0000
1100
0000
,
0001
0010
0100
0000
1010
0000
1100
0000
,
0001
0000
0020
0100
0030
0000
2000
0001
,
3000
0000
0200
0010
0300
0000
0010
1000
,
0001
0100
1000
0001
0010
0100
0002
0000
,
0103
0000
1000
0100
0001
0000
1000
0100
,
0001
0001
1000
0100
0011
0000
1010
0000
,
0010
0000
0001
0010
1000
0000
0001
0010
,
1000
1000
0001
0010
1100
0000
0101
0000
,
0010
0000
0001
0010
0100
1000
0001
0000
,
0010
1000
0001
0100
1000
0000
0001
0100
,
0010
0001
1000
0100
0010
1000
0001
0010
,
0100
1000
0001
0010
0001
1000
0100
0001
,
0010
0000
1000
0001
0100
0000
0010
0001
,
0100
0010
1000
0100
1001
0000
1010
0000
,
0100
0000
0001
1000
0010
0000
0100
1000
,
0010
0100
0001
0010
1001
0000
0101
0000
,
1000
0100
0001
0000
1000
0001
0000
1000
,
1100
0000
0001
0010
0000
0100
1000
0000
,
0011
1000
0001
0100
0010
1000
0100
0010
,
0001
0100
0010
0100
1000
0001
0010
0100
,
1000
0000
0100
0010
0001
0000
1000
0010
,
0001
1000
0100
0001
0110
0000
1100
0000
,
0001
0000
0010
0100
1000
0000
0001
0100
,
1000
0001
0010
1000
0110
0000
0011
0000
,
0100
0001
0010
0000
0100
0010
0000
0100
,
0101
0000
0010
1000
0000
0001
0100
0000
,
1010
0100
0010
0001
1000
0100
0001
1000
,
0010
0001
1000
0001
0100
0010
1000
0001
,
0001
0000
0100
0001
0010
0000
0100
0001
,
0010
0010
0100
0001
1010
0000
1100
0000
,
1000
0000
0010
1000
0100
0000
0010
1000
,
0100
0100
0010
1000
0101
0000
0011
0000
,
1000
0100
0010
0000
0101
0000
0011
0000
,
1000
0000
0200
0010
0300
0000
0002
1000
,
0003
0000
0020
0100
0030
0000
0100
0001
,
1000
0010
0001
1000
0100
0010
2000
0000
,
3010
0000
0001
0010
1000
0000
0001
0010
,
1000
1000
0001
0010
1100
0000
0101
0000
,
0100
0000
1000
0100
0001
0000
1000
0100
,
0001
0001
1000
0100
0011
0000
1010
0000
,
0100
0000
1000
0100
0010
0001
1000
0000
,
0100
0001
1000
0010
0001
0000
1000
0010
,
0100
1000
0001
0010
0100
0001
1000
0100
,
0010
0001
1000
0100
1000
0001
0010
1000
,
0100
0000
1000
0100
0001
0000
1000
0100
,
0001
0001
1000
0100
0011
0000
1010
0000
,
0010
0000
0001
0010
1000
0000
0001
0010
,
1000
1000
0001
0010
1100
0000
0101
0000
,
0010
1000
0001
0000
1100
0000
0202
0000
,
0000
0000
0000
0000
,
0000
0000
0000
0000
,
0000
0000
0000
0000
,
0000
0000
0000
0000
,
0000
0000
0000
0000
,
0000
0000
0000
0000
,
0000
0000
0000
0303
;
