#VERSION:0.83;
#TITLE:Ore Wa Tokoton Tomaranai;
#SUBTITLE:;
#ARTIST:Kenji Yamamoto;
#TITLETRANSLIT:;
#SUBTITLETRANSLIT:;
#ARTISTTRANSLIT:;
#GENRE:;
#ORIGIN:;
#CREDIT:;
#BANNER:Ore Wa Tokoton Tomaranai.png;
#BACKGROUND:Ore Wa Tokoton Tomaranai-bg.png;
#PREVIEWVID:;
#JACKET:Ore Wa Tokoton Tomaranai-jacket.png;
#CDIMAGE:;
#DISCIMAGE:;
#LYRICSPATH:;
#CDTITLE:cdtitle.png;
#MUSIC:Ore Wa Tokoton Tomaranai.ogg;
#OFFSET:0.000000;
#SAMPLESTART:62.290001;
#SAMPLELENGTH:12.000000;
#SELECTABLE:YES;
#DISPLAYBPM:186.000000;
#BPMS:0.000=164.400,
8.000=185.000,
40.000=186.000,
224.000=186.120;
#STOPS:;
#DELAYS:;
#WARPS:;
#TIMESIGNATURES:0.000=4=4;
#TICKCOUNTS:0.000=4;
#COMBOS:0.000=1;
#SPEEDS:0.000=1.000=0.000=0;
#SCROLLS:0.000=1.000;
#FAKES:;
#LABELS:0.000=Song Start;
#BGCHANGES:0.000=Ore Wa Tokoton Tomaranai.avi=1.000=1=0=0=StretchNoLoop==CrossFade==,
99999=-nosongbg-=1.000=0=0=0 // don't automatically add -songbackground-
;
#KEYSOUNDS:;
#ATTACKS:
;

//---------------dance-single - ----------------
#NOTEDATA:;
#CHARTNAME:;
#STEPSTYPE:dance-single;
#DESCRIPTION:;
#CHARTSTYLE:;
#DIFFICULTY:Easy;
#METER:6;
#RADARVALUES:0.271904,0.419176,0.064520,0.236572,0.000000,177.000000,171.000000,6.000000,22.000000,0.000000,0.000000,0.000000,0.000000,0.000000,0.271904,0.419176,0.064520,0.236572,0.000000,177.000000,171.000000,6.000000,22.000000,0.000000,0.000000,0.000000,0.000000,0.000000;
#CREDIT:kater15;
#DISPLAYBPM:186.000000;
#NOTES:
0000
0000
0000
0000
,
0000
0000
0000
0000
,
0000
0000
0000
0000
,
0000
0000
0000
0000
,
0000
0000
0000
0000
,
0000
0000
0000
0000
,
0000
0000
0000
0000
,
0000
0000
0000
0000
,
0000
0000
0000
0000
,
0000
0000
0000
0000
,
0001
0000
0000
1000
0000
0000
0100
0000
,
0010
0000
0100
0000
,
0001
1000
0100
0010
,
0001
0000
0100
0100
0000
1000
0000
0001
,
0000
0000
0000
0001
,
1000
0100
0010
0001
,
0100
2000
0000
3000
,
0000
0000
0010
0001
,
0100
0020
0000
0030
,
0001
0000
0000
0001
0000
0000
0000
0000
,
0100
0002
0000
0003
,
0000
0000
1000
0100
,
0001
0000
0000
0001
0000
0000
1000
0000
,
0000
1000
0000
0000
0010
0000
0100
0000
,
1001
0100
0100
0001
,
0010
0100
0010
0001
,
2000
3000
0002
0003
,
0200
0000
0000
0300
,
0000
0001
0001
0010
,
1000
0001
1000
0010
,
0200
0300
0020
0030
,
0002
0000
0000
0003
,
1000
0100
0010
1000
,
0001
0001
0000
1000
0000
0000
0100
0000
,
0020
0030
0002
0003
,
0200
0000
0000
0300
,
0000
1000
1000
0001
,
0010
0100
1000
0010
,
0002
0003
2000
3000
,
0020
0000
0000
0030
,
0100
1001
0010
1001
,
1000
0100
0010
0001
,
2000
0000
3002
0000
,
0203
0000
0010
0310
,
0001
0110
1000
0110
,
0001
0010
0100
1000
,
0002
0000
0000
1000
,
2000
0000
0000
3003
,
0001
0000
0000
1000
0000
0000
0100
0000
,
0010
0000
0100
0000
,
0001
1000
0100
0010
,
0001
0000
0100
0000
1001
0000
0100
0200
,
0000
0000
0300
0010
,
0001
0000
1000
2000
0000
0000
3000
0000
,
0001
0100
0001
0010
,
1000
0000
0100
0001
0000
0000
0000
0000
,
1000
0000
0000
0001
0000
0000
0010
0000
,
0100
0000
0010
0000
,
1000
0001
0010
0100
,
1000
0000
0010
0010
0000
0001
0000
1000
,
0000
0000
0000
1000
,
0001
0010
0100
1000
,
0010
0000
0000
0000
,
0001
0000
0010
1000
,
0100
0000
0000
0100
0000
0000
0100
0000
,
0000
0001
1000
0000
,
0010
0000
0000
0010
0000
0000
0010
0000
,
0000
1000
0001
0000
,
0001
0000
0000
1000
0000
0000
0100
0000
,
0000
0010
0000
0000
0001
0000
0000
0000
,
1000
0000
0100
0000
0001
0000
0100
0010
;

//---------------dance-single - ----------------
#NOTEDATA:;
#CHARTNAME:;
#STEPSTYPE:dance-single;
#DESCRIPTION:;
#CHARTSTYLE:;
#DIFFICULTY:Beginner;
#METER:3;
#RADARVALUES:0.135184,0.190870,0.075273,0.064520,0.000000,88.000000,81.000000,7.000000,6.000000,0.000000,0.000000,0.000000,0.000000,0.000000,0.135184,0.190870,0.075273,0.064520,0.000000,88.000000,81.000000,7.000000,6.000000,0.000000,0.000000,0.000000,0.000000,0.000000;
#CREDIT:kater15;
#DISPLAYBPM:186.000000;
#NOTES:
0000
0000
0000
0000
,
0000
0000
0000
0000
,
0000
0000
0000
0000
,
0000
0000
0000
0000
,
0000
0000
0000
0000
,
0000
0000
0000
0000
,
0000
0000
0000
0000
,
0000
0000
0000
0000
,
0000
0000
0000
0000
,
0000
0000
0000
0000
,
0001
0000
0000
0000
,
0100
0000
0100
0000
,
0010
0000
0000
0000
,
1000
0000
0100
0000
,
0100
0000
0000
0000
,
0001
0000
0001
0000
,
0010
0010
0000
0000
,
0000
0200
0000
0000
,
0000
0300
0000
0000
,
0001
0000
0000
0000
,
0100
0100
0000
0000
,
0000
0020
0000
0000
,
0030
0000
0000
0001
,
0000
0000
0100
0100
,
0100
0000
0000
0000
,
0001
0000
0000
0000
,
1000
0000
0001
0000
,
1000
0000
0000
0000
,
1001
0000
0000
0000
,
0100
0000
0000
0000
,
0010
0000
0100
0000
,
0010
0000
0000
0000
,
0110
0000
0000
0000
,
0001
0000
0000
0000
,
1000
0000
0001
0000
,
1000
0000
0000
0000
,
1001
0000
0000
0000
,
0100
0000
0000
0000
,
0010
0000
0100
0000
,
0010
0000
0000
0000
,
0110
0000
0000
0000
,
1001
0000
0000
0000
,
0100
0000
0001
0000
,
0010
0000
0000
0000
,
1001
0000
0000
0000
,
0110
0000
0000
0000
,
2000
0000
3000
0000
,
0002
0000
0003
0000
,
0100
0000
0000
0000
,
0010
0000
0100
0000
,
1000
0000
0000
0000
,
0001
0000
1000
0000
,
0010
0000
0000
0000
,
0100
0000
0001
0000
,
0001
0000
0000
0000
,
0100
0000
0010
0000
,
0001
0000
0000
0000
,
0100
0000
0100
0000
,
0010
0000
0000
0000
,
1000
0000
0100
0000
,
0100
0000
0000
0000
,
0001
0000
0001
0000
,
0010
0010
0000
0000
,
0100
0100
0000
0000
,
2000
0000
0000
0000
,
0000
0000
3000
0000
,
0002
0000
0000
0000
,
0000
0000
0003
0000
,
0100
0000
0000
0100
,
0000
0000
0010
0000
,
0100
0000
0000
0001
,
0001
0000
0000
0000
;

//---------------dance-single - ----------------
#NOTEDATA:;
#CHARTNAME:;
#STEPSTYPE:dance-single;
#DESCRIPTION:;
#CHARTSTYLE:;
#DIFFICULTY:Medium;
#METER:9;
#RADARVALUES:0.387118,0.496263,0.301091,0.247325,0.000000,252.000000,224.000000,28.000000,23.000000,0.000000,0.000000,0.000000,0.000000,0.000000,0.387118,0.496263,0.301091,0.247325,0.000000,252.000000,224.000000,28.000000,23.000000,0.000000,0.000000,0.000000,0.000000,0.000000;
#CREDIT:kater15;
#DISPLAYBPM:186.000000;
#NOTES:
0000
0000
0000
0000
,
0000
0000
0000
0000
,
0000
0000
0000
0000
,
0000
0000
0000
0000
,
0000
0000
0000
0000
,
0000
0000
0000
0000
,
0000
0000
0000
0000
,
0000
0000
0000
0000
,
0000
0000
0000
0000
,
0000
0000
0000
0000
,
1001
0000
0000
0100
0000
0000
0010
0000
,
0001
0000
1000
0100
1000
0000
0010
0000
,
0001
1100
0101
0010
,
0001
0000
0100
0010
0000
1000
0010
1000
,
0000
0100
0100
1001
,
0010
0000
1000
0100
1000
0000
0001
0010
,
0001
0220
0000
0000
,
0000
0000
0330
0001
0000
1000
0000
0010
,
0100
2002
0000
0000
,
3000
0000
0000
0003
0000
0000
0000
0000
,
0001
0022
0000
0000
,
0000
0000
0033
1000
0000
0100
0000
0001
,
0020
0000
0000
0230
0000
0000
0302
0000
,
0000
2003
0000
0000
3010
0000
0001
0000
,
0100
0010
0010
1000
,
0100
0001
0000
1100
0000
0020
0000
0000
,
0030
0000
0000
0100
1000
0100
0000
0002
,
0000
0000
1000
1003
,
0000
0100
0100
0001
,
0010
1000
0000
0011
0000
0200
0000
0000
,
0300
0000
0000
0010
0001
0010
0000
2000
,
0000
0000
0001
3001
,
0000
1000
1000
0100
,
0001
0010
0000
0202
0000
0000
0303
0000
,
0001
0000
0001
0000
1000
0000
1000
0020
,
0000
0000
0100
0130
,
0000
0001
0001
0010
,
1000
0100
0000
1010
0000
0002
0000
0000
,
0003
0000
0000
1000
0010
1000
0000
0200
,
0000
0000
0010
0310
,
1000
0100
1000
0010
,
0001
0000
1000
0100
1000
0100
0000
0000
,
1001
0000
0100
0000
0110
0000
0001
0001
,
0001
0000
0000
0000
,
0100
0001
0100
1000
,
0010
0000
0001
0100
0001
0100
0000
0000
,
0000
0010
0010
0010
0010
0000
0001
0001
,
0000
1000
1000
0000
0000
0000
0000
0000
,
1001
0000
0000
0100
0000
0000
0010
0000
,
0001
0000
1000
0100
1000
0000
0010
0000
,
0001
1100
0101
0010
,
0001
0000
0100
0000
0010
0000
0010
0200
,
0000
0300
0001
1010
,
0011
0000
1000
0002
0000
0000
0003
0000
,
1000
1001
0001
1001
,
1000
0001
1000
0001
0000
0000
0000
0000
,
0110
0000
0000
1000
0000
0000
0001
0000
,
0100
0000
0010
1000
0010
0000
0001
0000
,
0100
0101
1100
0001
,
0100
0000
1000
0001
0000
0010
0001
0010
,
0000
1000
1000
0110
,
0001
0000
0010
1000
0010
0000
0100
0001
,
0200
0000
0000
0000
,
0302
0000
1000
1003
,
0100
0000
0100
0100
0000
0001
0001
0000
,
1000
0000
1000
1000
1000
0000
1001
0000
,
0001
0000
0001
0001
0000
0100
0100
0000
,
0100
0000
0100
0100
0100
0000
0110
0000
,
0001
0000
0000
1000
0000
0000
0001
0000
,
0000
1000
0000
0000
1001
0000
0110
0000
,
1000
0000
0100
0010
0100
0000
0001
1000
,
0001
0000
0000
0000
;

//---------------dance-single - ----------------
#NOTEDATA:;
#CHARTNAME:;
#STEPSTYPE:dance-single;
#DESCRIPTION:;
#CHARTSTYLE:;
#DIFFICULTY:Hard;
#METER:12;
#RADARVALUES:0.510012,0.610785,0.268832,0.215065,0.000000,332.000000,307.000000,25.000000,20.000000,0.000000,0.000000,0.000000,0.000000,0.000000,0.510012,0.610785,0.268832,0.215065,0.000000,332.000000,307.000000,25.000000,20.000000,0.000000,0.000000,0.000000,0.000000,0.000000;
#CREDIT:kater15;
#DISPLAYBPM:186.000000;
#NOTES:
// measure 0
0000
0000
0000
0000
,  // measure 1
0000
0000
0000
0000
,  // measure 2
0000
0000
0000
0000
,  // measure 3
0000
0000
0000
0000
,  // measure 4
0000
0000
0000
0000
,  // measure 5
0000
0000
0000
0000
,  // measure 6
0000
0000
0000
0000
,  // measure 7
0000
0000
0000
0000
,  // measure 8
0000
0000
0000
0000
,  // measure 9
0000
0000
0000
0000
,  // measure 10
1010
0000
0001
0010
0000
1000
0001
0000
,  // measure 11
1100
0000
1000
0100
0001
0000
1000
0010
,  // measure 12
0100
0011
1010
0100
,  // measure 13
0001
0010
0100
1000
0000
0001
0010
0100
,  // measure 14
1000
0000
0010
0001
1000
0100
0010
0000
,  // measure 15
1001
0000
0010
1000
0100
0100
1000
0010
,  // measure 16
0001
0100
0020
0000
0000
0000
0000
0000
,  // measure 17
0030
0000
0001
0001
1000
0100
0010
0001
,  // measure 18
0100
0010
2000
0000
0000
0000
3000
0000
,  // measure 19
1001
0000
0001
1000
0000
0100
0010
0000
,  // measure 20
0001
0010
0200
0000
0000
0000
0000
0000
,  // measure 21
0300
0000
1000
1000
0001
0010
0100
1000
,  // measure 22
0010
0000
0001
0100
0000
0100
1000
0000
,  // measure 23
1000
0001
0000
0100
0010
1000
0001
0010
,  // measure 24
0100
0000
1000
0100
0100
0000
0010
0001
,  // measure 25
0010
0100
1000
0010
0000
0001
1000
0000
,  // measure 26
0010
0100
0001
0000
1000
0000
0200
2000
,  // measure 27
0000
0000
0000
0000
,  // measure 28
3300
0000
0001
0010
0010
0000
0100
1000
,  // measure 29
0100
0010
0001
0100
0000
1000
0001
0000
,  // measure 30
0100
0010
1000
0000
0001
0000
2000
0020
,  // measure 31
0000
0000
0000
0000
,  // measure 32
3030
0000
0100
0001
0001
0000
1000
0010
,  // measure 33
1000
0001
0100
1000
0000
0010
0100
0000
,  // measure 34
1000
0001
0010
0000
0100
0000
0002
0200
,  // measure 35
0000
0000
0000
0000
,  // measure 36
0303
0000
0010
1000
1000
0000
0001
0100
,  // measure 37
0001
1000
0010
0001
0000
0100
0010
0000
,  // measure 38
0001
1000
0100
0000
0010
0000
2000
0020
,  // measure 39
0000
0000
3030
0000
0000
1000
0001
1000
,  // measure 40
0002
0100
0103
2000
,  // measure 41
0010
3010
0000
1001
,  // measure 42
0100
0000
0000
0000
1000
0100
0010
0002
,  // measure 43
0000
0000
0000
0000
0003
0010
0100
0010
,  // measure 44
0200
1000
1300
0020
,  // measure 45
0001
0031
0100
0110
,  // measure 46
0000
1000
0100
0010
0001
0000
1000
0001
,  // measure 47
0000
0001
0010
0000
1000
0100
1000
0010
,  // measure 48
0101
0000
0001
0010
0000
0001
1000
0000
,  // measure 49
0110
0000
0001
0100
1000
0000
0001
0010
,  // measure 50
1000
0110
1001
0100
,  // measure 51
0010
0000
0100
0010
1000
0001
0010
0001
,  // measure 52
0200
0001
0301
0010
,  // measure 53
0100
0000
0001
1000
0001
0000
1100
0000
,  // measure 54
0020
0031
0200
0301
,  // measure 55
0010
0100
0001
1000
0000
0100
0010
0000
,  // measure 56
1010
0000
0001
0010
0000
1000
0001
0000
,  // measure 57
1100
0000
1000
0100
0001
0000
1000
0010
,  // measure 58
0100
0011
1010
0100
,  // measure 59
0001
0010
0100
1000
0000
0001
0010
0100
,  // measure 60
1000
0000
0010
0001
1000
0100
0010
0000
,  // measure 61
1001
0000
0010
1000
0100
0100
1000
0010
,  // measure 62
0002
1000
0000
0100
,  // measure 63
0000
1003
0100
1001
,  // measure 64
0001
0010
0001
0010
0100
1000
0100
1000
,  // measure 65
0010
0000
0001
1000
0001
0000
1100
0000
,  // measure 66
1000
0100
1000
0100
0010
0001
0010
0001
,  // measure 67
0100
0000
1000
0001
1000
0000
0011
0000
,  // measure 68
1000
0000
0010
0110
0000
0001
0101
0000
,  // measure 69
0100
1100
0000
0001
0101
0000
1000
0000
,  // measure 70
1000
0100
0010
0001
0100
0010
1000
0100
,  // measure 71
0001
0000
0000
0000
;
