#VERSION:0.83;
#TITLE:Olhar 43;
#SUBTITLE:;
#ARTIST:RPM;
#TITLETRANSLIT:;
#SUBTITLETRANSLIT:;
#ARTISTTRANSLIT:;
#GENRE:;
#ORIGIN:;
#CREDIT:;
#BANNER:Olhar 43.png;
#BACKGROUND:Olhar 43-bg.png;
#PREVIEWVID:;
#JACKET:Olhar 43-jacket.png;
#CDIMAGE:;
#DISCIMAGE:;
#LYRICSPATH:;
#CDTITLE:cdtitle.png;
#MUSIC:Olhar 43.ogg;
#OFFSET:-0.500000;
#SAMPLESTART:26.599005;
#SAMPLELENGTH:15.000000;
#SELECTABLE:YES;
#DISPLAYBPM:164.000000;
#BPMS:0.000=163.530;
#STOPS:;
#DELAYS:;
#WARPS:;
#TIMESIGNATURES:0.000=4=4;
#TICKCOUNTS:0.000=4;
#COMBOS:0.000=1;
#SPEEDS:0.000=1.000=0.000=0;
#SCROLLS:0.000=1.000;
#FAKES:;
#LABELS:0.000=Song Start;
#BGCHANGES:;
#KEYSOUNDS:;
#ATTACKS:
;

//---------------dance-single - ----------------
#NOTEDATA:;
#CHARTNAME:;
#STEPSTYPE:dance-single;
#DESCRIPTION:;
#CHARTSTYLE:;
#DIFFICULTY:Beginner;
#METER:2;
#RADARVALUES:0.120703,0.187671,0.040621,0.154361,0.000000,104.000000,99.000000,5.000000,19.000000,0.000000,0.000000,0.000000,0.000000,0.000000,0.120703,0.187671,0.040621,0.154361,0.000000,104.000000,99.000000,5.000000,19.000000,0.000000,0.000000,0.000000,0.000000,0.000000;
#CREDIT:kater15;
#DISPLAYBPM:164.000000;
#NOTES:
0000
0000
0000
0000
,
0000
0000
0000
0000
,
0000
0000
0000
0000
,
0000
0000
0000
0000
,
0000
0000
0000
0000
,
0000
0000
0000
0000
,
0000
0000
0000
0000
,
0000
0000
0000
0000
,
1000
0000
1000
0000
,
1000
0000
1000
0000
,
0001
0000
0001
0000
,
0001
0000
0001
0000
,
0100
0000
0100
0000
,
0100
0000
0100
0000
,
0010
0000
0010
0000
,
0010
0000
0010
0000
,
2000
0000
3000
0000
,
0002
0000
0003
0000
,
1000
0000
0000
1000
,
1000
0000
0100
0000
,
0001
0000
0010
0000
,
0100
0000
0000
0000
,
1000
0000
0000
0001
,
0001
0000
0100
0000
,
0020
0000
0030
0000
,
0200
0000
0300
0000
,
0001
0000
0000
0100
,
0100
0000
0010
0000
,
1000
0000
0001
0000
,
0100
0000
0000
0000
,
0010
0000
0000
1000
,
1000
0000
0100
0000
,
0002
0000
0003
0000
,
2000
0000
3000
0000
,
0200
0000
0000
0000
,
0300
0000
0000
0001
,
0002
0000
0000
0000
,
0003
0000
0000
0010
,
0020
0000
0000
0000
,
0030
0000
0000
1000
,
2000
0000
0000
0000
,
3000
0000
0000
0000
,
0110
0000
2000
0000
,
3000
0000
0000
0000
,
1000
0000
0001
0000
,
0010
0000
0000
0000
,
0100
0000
0001
0000
,
2000
0000
0000
0000
,
3000
0000
0010
0000
,
0001
0000
0000
0000
,
1000
0000
0100
0000
,
0020
0000
0000
0000
,
0000
0000
0030
0000
,
0200
0000
0000
0300
,
0100
0000
0000
0001
,
0001
0000
0010
0000
,
1001
0000
0000
0100
,
0100
0000
1000
0000
,
0001
0000
0010
0000
,
0010
0000
1000
1000
,
1000
0000
0000
0000
,
0110
0000
0000
0000
,
1000
0000
0000
0001
,
0000
0000
0100
0000
,
0010
0000
0000
1000
,
1000
0000
0010
0000
,
0100
0000
0000
0001
,
0000
0000
0100
0100
,
0100
0000
0000
0000
,
1001
0000
0000
0000
,
0020
0000
0000
0000
,
0030
0000
0000
0001
,
0002
0000
0000
0000
,
0003
0000
0000
0100
,
0200
0000
0000
0000
,
0300
0000
0000
0000
,
2002
0000
0000
0000
,
3003
0000
0000
0000
;

//---------------dance-single - ----------------
#NOTEDATA:;
#CHARTNAME:;
#STEPSTYPE:dance-single;
#DESCRIPTION:;
#CHARTSTYLE:;
#DIFFICULTY:Easy;
#METER:5;
#RADARVALUES:0.236764,0.311769,0.146237,0.268101,0.000000,204.000000,186.000000,18.000000,33.000000,0.000000,0.000000,0.000000,0.000000,0.000000,0.236764,0.311769,0.146237,0.268101,0.000000,204.000000,186.000000,18.000000,33.000000,0.000000,0.000000,0.000000,0.000000,0.000000;
#CREDIT:kater15;
#DISPLAYBPM:164.000000;
#NOTES:
0000
0000
0000
0000
,
0000
0000
0000
0000
,
0000
0000
0000
0000
,
0000
0000
0000
0000
,
0000
0000
0000
0000
,
0000
0000
0000
0000
,
0000
0000
0000
0000
,
0000
0000
0000
0000
,
0100
0100
0100
0100
,
0001
0010
1000
0100
,
0010
0010
0010
0010
,
1000
0100
0001
0010
,
1000
1000
1000
1000
,
0100
0001
0010
1000
,
0001
0001
0001
0001
,
0100
1000
0010
0001
,
0100
0020
0000
0230
,
0000
2300
0000
3002
,
0100
1003
0000
0100
,
0100
0000
1000
1001
,
0100
0100
0001
0110
,
1000
0000
0020
1000
,
0130
0000
0000
0010
,
0110
0000
2000
0001
,
3100
0020
0000
0230
,
0000
2300
0000
3002
,
0100
0013
0000
1000
,
1001
0000
0100
0001
,
1000
0010
0010
0100
,
0110
0000
0020
1000
,
0031
0000
0100
0000
,
1000
0000
2000
0010
,
3100
0002
0000
2003
,
0000
3020
0000
0130
,
1000
0000
0000
1000
0000
0000
1000
0000
,
1001
0000
0000
1000
,
0010
0000
0000
0010
0000
0000
0010
0000
,
0110
0000
0000
0010
,
0001
0000
0000
0001
0000
0000
0001
0000
,
1001
0000
0000
0001
,
0100
0000
0000
0100
0000
0000
0100
0000
,
0110
0000
1000
0100
,
0020
0000
0000
0000
,
0031
0000
0100
0000
,
0020
0000
1000
0000
,
1030
0000
0000
0000
,
0200
0000
0000
0001
,
0002
0000
0000
0300
,
0003
0000
1000
0100
,
0010
0001
1000
0000
,
0010
0000
0100
0000
,
0220
0000
0000
0000
,
0000
0000
0000
0330
,
0100
0100
0100
0100
,
1001
0000
0000
0010
,
0110
0000
1000
0100
,
0010
1001
0000
1000
,
0100
1000
0001
0001
,
0010
0110
0000
1000
,
0100
0000
0020
0001
,
0130
2000
0000
3200
,
0000
2300
0000
3002
,
0010
0103
0000
1000
,
0100
1000
0000
0010
,
0011
0001
2000
0010
,
3010
0100
0001
1000
,
0010
0000
1000
0000
,
0001
0000
0200
0001
,
1300
2000
0000
3002
,
0000
0203
0000
0310
,
1000
0000
0000
1000
0000
0000
1000
0000
,
1001
0000
0000
1000
,
0010
0000
0000
0010
0000
0000
0010
0000
,
0110
0000
0000
0010
,
0001
0000
0000
0001
0000
0000
0001
0000
,
2002
0000
0000
0000
,
0000
0000
0000
3003
;

//---------------dance-single - ----------------
#NOTEDATA:;
#CHARTNAME:;
#STEPSTYPE:dance-single;
#DESCRIPTION:;
#CHARTSTYLE:;
#DIFFICULTY:Medium;
#METER:8;
#RADARVALUES:0.305240,0.405299,0.316846,0.203107,0.000000,263.000000,224.000000,39.000000,25.000000,0.000000,0.000000,0.000000,0.000000,0.000000,0.305240,0.405299,0.316846,0.203107,0.000000,263.000000,224.000000,39.000000,25.000000,0.000000,0.000000,0.000000,0.000000,0.000000;
#CREDIT:kater15;
#DISPLAYBPM:164.000000;
#NOTES:
// measure 0
0000
0000
0000
0000
,  // measure 1
0000
0000
0000
0000
,  // measure 2
0000
0000
0000
0000
,  // measure 3
0000
0000
0000
0000
,  // measure 4
0000
0000
0000
0000
,  // measure 5
0000
0000
0000
0000
,  // measure 6
0000
0000
0000
0000
,  // measure 7
0000
0000
0000
0000
,  // measure 8
1000
0000
0200
0000
0000
0001
0000
0000
,  // measure 9
1000
0000
0000
0010
0000
0000
0301
0000
,  // measure 10
1000
0000
0020
0000
0000
1000
0000
0000
,  // measure 11
0001
0000
0000
0100
0000
0000
1030
0000
,  // measure 12
0100
0000
0002
0000
0000
0010
0000
0000
,  // measure 13
0100
0000
0000
1000
0000
0000
0013
0000
,  // measure 14
0100
0000
2000
0000
0000
0100
0000
0000
,  // measure 15
0010
0000
0000
0001
0000
0000
3100
0000
,  // measure 16
0010
0101
0000
1001
,  // measure 17
0000
0000
1010
0000
0000
0000
1000
0100
,  // measure 18
2000
0000
0000
0001
0000
0000
0010
0000
,  // measure 19
3010
0000
0100
0001
,  // measure 20
1000
0010
0100
0000
0000
0000
0001
1000
,  // measure 21
1000
0100
0010
0100
,  // measure 22
1001
0000
0000
1000
0000
0000
0010
0001
,  // measure 23
1000
0000
0000
0000
0010
0000
0100
0100
,  // measure 24
0010
0101
0000
1001
,  // measure 25
0000
0000
1010
0000
0000
0000
0100
0001
,  // measure 26
0020
0000
0000
1000
0000
0000
0001
0000
,  // measure 27
0031
0000
1000
1010
,  // measure 28
0001
0100
1000
0000
0000
0000
0010
1000
,  // measure 29
1000
0100
0010
0001
,  // measure 30
0001
0000
0001
0100
1000
0000
1000
0000
,  // measure 31
0100
0000
0110
0000
1000
0000
0010
0100
,  // measure 32
0010
0101
0000
1001
,  // measure 33
0000
0000
1010
0000
0000
0000
1000
0100
,  // measure 34
0010
0000
0000
1100
0000
0000
1001
0000
,  // measure 35
0002
0000
1000
0000
1003
0000
0100
0010
,  // measure 36
0010
0000
0000
0101
0000
0000
0110
0000
,  // measure 37
0200
0000
1000
0000
1300
0000
0001
0010
,  // measure 38
0100
0000
0000
1010
0000
0000
0011
0000
,  // measure 39
2000
0000
0001
0000
3001
0000
0100
1000
,  // measure 40
0010
0000
0000
1100
0000
0000
1010
0000
,  // measure 41
0020
0000
0100
0000
0130
0000
0001
0100
,  // measure 42
1000
0000
0010
0000
,  // measure 43
1001
0000
0100
0000
,  // measure 44
2000
0000
0001
0010
,  // measure 45
3100
0000
0000
0000
0100
0000
0010
0100
,  // measure 46
0100
0000
0001
0022
,  // measure 47
0000
0000
0000
0030
,  // measure 48
0003
0000
0000
0000
0000
0000
1000
0100
,  // measure 49
0020
0000
0130
0000
0000
0000
1000
1000
,  // measure 50
0001
1000
0100
0100
,  // measure 51
0020
0000
0000
0000
,  // measure 52
0000
0000
0000
0030
,  // measure 53
2000
3002
2003
3002
,  // measure 54
0103
0000
0000
1000
0000
0000
0010
0000
,  // measure 55
0100
0000
0001
0010
,  // measure 56
0100
1000
0001
0000
0000
0000
0010
0000
,  // measure 57
0100
0110
1000
0100
,  // measure 58
0020
0000
0000
1000
0000
0000
0001
0000
,  // measure 59
0031
0000
0000
0000
1001
0000
0001
0100
,  // measure 60
1000
0101
0000
1001
,  // measure 61
0000
0000
1010
0000
0000
0000
0000
1000
,  // measure 62
0002
0000
0000
1000
0000
0000
0100
0000
,  // measure 63
0000
0010
0000
0000
1000
0000
0010
0000
,  // measure 64
0100
0000
0103
0000
0000
0000
1000
0100
,  // measure 65
1000
0010
0010
0001
,  // measure 66
0100
0000
0000
0011
0000
0000
1000
0000
,  // measure 67
0000
1010
0000
0000
0100
0000
0010
1000
,  // measure 68
0001
0101
0000
1001
,  // measure 69
0000
0000
1100
0000
0000
0000
1000
0100
,  // measure 70
0010
0000
0000
1100
0000
0000
1001
0000
,  // measure 71
0002
0000
1000
0000
1003
0000
0100
0010
,  // measure 72
0010
0000
0000
0101
0000
0000
0110
0000
,  // measure 73
0200
0000
1000
0000
1300
0000
0001
0010
,  // measure 74
0100
0000
0000
1010
0000
0000
0011
0000
,  // measure 75
0220
0000
0000
0000
,  // measure 76
0000
0000
0000
0330
;

//---------------dance-single - ----------------
#NOTEDATA:;
#CHARTNAME:;
#STEPSTYPE:dance-single;
#DESCRIPTION:;
#CHARTSTYLE:;
#DIFFICULTY:Hard;
#METER:11;
#RADARVALUES:0.407374,0.561184,0.227480,0.235604,0.004062,351.000000,323.000000,28.000000,29.000000,0.000000,0.000000,0.000000,0.000000,0.000000,0.407374,0.561184,0.227480,0.235604,0.004062,351.000000,323.000000,28.000000,29.000000,0.000000,0.000000,0.000000,0.000000,0.000000;
#CREDIT:kater15;
#DISPLAYBPM:164.000000;
#NOTES:
0000
0000
0000
0000
,
0000
0000
0000
0000
,
0000
0000
0000
0000
,
0000
0000
0000
0000
,
0000
0000
0000
0000
,
0000
0000
0000
0000
,
0000
0000
0000
0000
,
0000
0000
0000
0000
,
1000
0100
0001
0100
1000
0100
0001
0100
,
1000
0100
0001
0100
,
1000
0010
0001
0010
1000
0010
0001
0010
,
1000
0010
0001
0010
,
0100
1000
0001
1000
0100
1000
0001
1000
,
0100
1000
0001
1000
,
0010
0001
0100
0001
0010
0001
0100
0001
,
0010
0001
0100
0001
,
0020
1030
0002
1003
,
0200
0000
1300
0000
0020
0000
1030
0100
,
0001
0000
0000
1100
0000
0000
0010
0001
,
0100
0000
1010
0000
0100
0010
0100
0001
,
0001
0010
1000
0000
0100
0000
0010
0100
,
0010
0000
1001
0000
0100
0010
1000
1000
,
0100
0000
0000
0011
0000
0000
1000
0100
,
0001
0000
0000
0000
0100
0010
0010
0001
,
1000
0010
0001
0000
0200
0000
1300
0000
,
0002
0000
0103
0000
0020
0000
0130
0001
,
1000
0000
0000
1100
0000
0000
0010
0100
,
1000
0000
0011
0000
0100
0001
0010
0001
,
0100
0100
2000
0000
0000
0010
0001
0010
,
3001
0000
0100
0000
0110
0000
1000
0100
,
0002
0000
0000
1000
0000
0000
0013
1000
,
0100
1000
0010
0000
0000
0000
1000
0100
,
0010
1000
0002
1003
,
0020
0000
1030
0000
0200
0000
1300
0010
,
0001
0000
1000
1000
0000
0001
0001
0000
,
0110
0000
1000
0000
0100
0000
0010
0100
,
0100
0000
0001
0010
0000
0010
0100
0000
,
0110
0000
0001
0000
0010
0000
0100
0001
,
0010
0000
1000
0001
0000
0100
0010
0000
,
1001
0000
0010
0000
1000
0000
0100
0010
,
1000
0000
0001
0010
0000
1000
0010
0000
,
1001
0000
0100
0000
1000
0000
0010
0010
,
2002
0000
3003
0000
1000
0000
0100
0010
,
1000
0000
0001
0000
,
0100
0000
0001
0001
0001
0000
1000
1000
,
1000
0000
0020
0001
,
0130
0000
1000
0001
,
0220
0000
0000
0030
,
0300
0000
0000
0000
0000
0100
0000
0010
,
0000
0110
0000
0000
0000
0000
1000
0100
,
0010
0000
0000
0010
0000
0000
1000
0000
0000
0000
0001
0000
0000
0000
0002
0000
,
0000
0000
0000
0000
,
0000
0000
0000
0003
,
1100
0101
0011
1010
,
1000
0100
0001
0000
0000
1000
0100
0010
,
0001
0000
1100
0010
0001
0100
0010
1000
,
0100
0010
0001
0000
0110
1000
0100
0010
,
0010
0000
1001
0100
0010
0100
1000
0001
,
1000
1000
1000
0000
0110
0001
0100
0001
,
0010
0000
0011
1000
0100
0010
0100
0001
,
0020
1030
0200
1300
,
0002
0000
1003
0000
0020
0000
0130
0001
,
1000
0000
0000
1100
0000
0000
0001
0000
,
0000
1010
0000
0000
0100
0001
0010
0100
,
1000
0001
1000
0000
0000
0100
0010
0100
,
1000
0000
0000
0001
1000
0100
0010
0001
,
0200
0000
0000
1000
0000
0000
0001
0000
,
0000
0010
0000
0000
0301
0010
0100
1000
,
0020
0031
2000
3001
,
0200
0000
0301
0000
2000
0000
3001
0100
,
1000
0000
0001
0001
0000
1000
1000
0000
,
0110
0000
0001
0000
0010
0000
0100
0010
,
0010
0000
1000
0100
0000
0100
0010
0000
,
0110
0000
1000
0000
0100
0000
0010
1000
,
0100
0000
0001
1000
0000
0010
0100
0000
,
2002
0000
0000
0000
,
0000
0000
0000
3003
;

//---------------dance-single - ----------------
#NOTEDATA:;
#CHARTNAME:;
#STEPSTYPE:dance-single;
#DESCRIPTION:;
#CHARTSTYLE:;
#DIFFICULTY:Challenge;
#METER:13;
#RADARVALUES:0.548968,0.654715,0.341219,0.170610,0.215293,473.000000,431.000000,42.000000,21.000000,0.000000,0.000000,0.000000,0.000000,0.000000,0.548968,0.654715,0.341219,0.170610,0.215293,473.000000,431.000000,42.000000,21.000000,0.000000,0.000000,0.000000,0.000000,0.000000;
#CREDIT:kater15;
#DISPLAYBPM:164.000000;
#NOTES:
0000
0000
0000
0000
,
0000
0000
0000
0000
,
0000
0000
0000
0000
,
0000
0000
0000
0000
,
0000
0000
0000
0000
,
0000
0000
0000
0000
,
0000
0000
0000
0000
,
0000
0000
0000
0000
,
1000
0100
1000
0100
1000
0100
1000
0100
,
0010
0001
0010
1000
0001
0100
0010
0010
,
0100
0001
0100
0001
0100
0001
0100
0001
,
1000
0100
0010
0100
0001
0001
0100
0010
,
0001
1000
0001
1000
0001
1000
0001
1000
,
0010
0100
0010
1000
0001
0100
1000
0001
,
0100
0010
0100
0010
0100
0010
0100
0010
,
1000
0000
0100
0000
0000
0000
0000
0000
0010
0000
0000
0000
0000
0000
0010
1000
,
0010
1100
0001
0101
,
0010
0000
1001
0000
1000
0000
1100
0010
,
0002
0000
0000
1000
0000
0000
0100
0000
0000
0100
0000
0000
1003
0000
0100
0000
,
0010
0100
0000
0001
0010
0100
1000
0010
,
0100
0000
1000
0001
1000
0000
0010
0000
0000
0000
0100
0000
1000
0000
0001
0010
,
0001
0100
0000
1000
0100
0100
0010
0001
,
2000
0000
0100
0000
0010
0000
0001
0000
3010
0000
0010
0000
0001
0000
1000
0100
,
1000
0000
0000
0000
0000
0000
0010
0000
1000
0000
0001
0010
0001
0000
1000
0010
,
1000
0101
1000
1100
,
0010
0000
0110
0000
0001
0000
1001
0100
,
0020
0000
0000
1000
0000
0000
0001
0000
0000
0001
0000
0000
0130
0000
1000
0000
,
0010
0000
1100
0010
0001
0100
0100
0010
,
1000
0000
0100
0001
0010
0000
0000
0000
0000
0000
0100
0000
0010
0000
0001
0100
,
0010
0000
0000
1000
1000
0100
0010
0002
,
0100
0000
0000
0100
0000
0000
1003
0000
0000
0000
2000
0000
0010
0000
0000
0100
,
0000
0000
3001
0000
0000
0000
1001
0000
0000
0000
0010
0000
1000
0000
0100
0010
,
0100
0011
1000
1010
,
0100
0000
0000
0000
0101
0000
0000
0000
1000
0000
0000
0000
0010
0001
0010
0001
,
0010
0100
0100
1001
0010
0010
1002
0000
,
0103
0000
0000
0000
1000
0000
0100
0000
0001
0000
0000
0000
1000
0010
1000
0010
,
1000
0001
0001
0110
1000
1000
0120
0000
,
1030
0000
0000
0000
0100
0000
0001
0000
1000
0000
0000
0000
0010
0100
0010
0100
,
0010
1000
1000
0011
0100
0100
0012
0000
,
1003
0000
0000
0000
0100
0000
0010
0000
1000
0000
0000
0000
0001
1000
0001
1000
,
0001
0100
0100
1010
0001
0001
1020
0000
,
0130
0000
0000
0000
1000
0000
0100
0000
0010
0000
1000
0001
1000
0001
1000
0001
,
2000
3000
0100
0000
,
0010
0000
1000
0000
,
0110
0000
0001
0100
1000
0010
0100
0100
,
0002
0000
0000
0000
0000
0000
0000
0000
0000
0000
1003
0000
1000
0000
0100
0010
,
0100
0000
0000
0000
1000
0010
0001
0100
,
0020
0000
0000
1030
,
1001
0000
0000
0000
0000
0010
0100
1000
,
0010
0100
0000
0000
0000
0000
1000
0100
,
0010
0000
0000
1000
0000
0000
0100
0000
0000
0000
0010
0000
0000
0000
0220
0000
,
0000
0000
0000
0000
,
0000
0000
0000
0330
,
0100
0000
0000
0001
0100
0000
0000
0001
0100
0000
0000
0001
0100
0000
0000
0000
,
0010
0000
1000
0100
1000
0000
0000
0000
0010
0000
0001
0000
0100
0000
1000
0010
,
0100
0000
1001
0100
0100
0001
0010
0100
,
1000
0000
0010
0001
0100
0000
0000
0000
0110
0000
0001
0000
1000
0000
0010
1000
,
0001
0000
1100
0010
0001
0100
0010
0001
,
0100
0000
0010
1000
0001
0000
0100
0000
0010
0000
1000
0000
0001
1000
0001
0000
,
0100
0000
0000
0000
0110
0000
0001
0000
1000
0000
0100
1000
0100
0000
0001
1000
,
0001
1100
1000
0011
,
0100
0000
0110
0000
1000
0000
1001
0100
,
0010
0000
1000
0000
0000
0000
0011
0000
0000
0000
1000
0000
0200
0000
0000
0001
,
0000
0000
0001
0000
0000
0010
0000
0000
0301
0000
0010
0000
0100
0000
0010
0001
,
1000
0000
1000
0010
0001
0000
0000
0000
0100
0000
1000
0000
0010
0000
1000
0000
,
0100
0000
0010
0010
0001
0100
0010
1000
,
0200
0000
0000
0001
0000
0000
0001
0000
0300
0000
0010
0000
0002
0000
0000
1000
,
0000
0000
1000
0000
0003
0000
0100
0000
0010
0100
1000
0000
0001
0100
0010
0000
,
0100
0101
1000
1100
,
0001
0000
0000
0000
0110
0000
0000
0000
0100
0000
0000
0000
0010
0001
0010
0001
,
0010
0100
0100
1001
0010
0010
1002
0000
,
0103
0000
0000
0000
1000
0000
0100
0000
0001
0000
0000
0000
1000
0010
1000
0010
,
1000
0001
0001
0110
1000
1000
0120
0000
,
1030
0000
0000
0000
0100
0000
0001
0000
1000
0000
0000
0000
0010
0100
0010
0100
,
0010
1000
1000
0011
0100
0100
0012
0000
,
2000
0000
0000
0000
,
0000
0000
0000
3003
;
