#VERSION:0.83;
#TITLE:OTHERSIDE;
#SUBTITLE:;
#ARTIST:Tom Swoon feat. Niclas Lundin;
#TITLETRANSLIT:;
#SUBTITLETRANSLIT:;
#ARTISTTRANSLIT:;
#GENRE:;
#ORIGIN:;
#CREDIT:;
#BANNER:Otherside.png;
#BACKGROUND:Otherside-bg.png;
#PREVIEWVID:;
#JACKET:Otherside-jacket.png;
#CDIMAGE:;
#DISCIMAGE:;
#LYRICSPATH:;
#CDTITLE:;
#MUSIC:Otherside.ogg;
#OFFSET:-0.509000;
#SAMPLESTART:52.759998;
#SAMPLELENGTH:16.000000;
#SELECTABLE:YES;
#DISPLAYBPM:128.000000;
#BPMS:0.000=128.010;
#STOPS:;
#DELAYS:;
#WARPS:;
#TIMESIGNATURES:0.000=4=4;
#TICKCOUNTS:0.000=4;
#COMBOS:0.000=1;
#SPEEDS:0.000=1.000=0.000=0;
#SCROLLS:0.000=1.000;
#FAKES:;
#LABELS:0.000=Song Start;
#BGCHANGES:;
#KEYSOUNDS:;
#ATTACKS:
;

//---------------dance-single - ----------------
#NOTEDATA:;
#CHARTNAME:;
#STEPSTYPE:dance-single;
#DESCRIPTION:;
#CHARTSTYLE:;
#DIFFICULTY:Easy;
#METER:4;
#RADARVALUES:0.141365,0.234812,0.041578,0.157996,0.024947,119.000000,114.000000,5.000000,19.000000,0.000000,0.000000,0.000000,0.000000,0.000000,0.141365,0.234812,0.041578,0.157996,0.024947,119.000000,114.000000,5.000000,19.000000,0.000000,0.000000,0.000000,0.000000,0.000000;
#CREDIT:;
#DISPLAYBPM:128.000000;
#NOTES:
0000
0000
0000
0000
,
0000
0000
0000
0000
,
0000
0000
0000
0000
,
0000
0000
0000
0000
,
0000
0000
0000
0000
,
0000
0000
0000
0000
,
0000
0000
0000
0000
,
0000
0000
0000
0000
,
0002
0000
0000
0000
,
0000
0000
0000
0003
0000
0000
0000
0000
0100
0000
0000
0000
,
0200
0000
0000
0000
,
0000
0000
0000
0300
0000
0000
0000
0000
1000
0000
0000
0000
,
2000
0000
0000
0000
,
0000
0000
0000
3000
0000
0000
0000
0000
0010
0000
0000
0000
,
0020
0000
0000
0000
,
0000
0000
0000
0030
0000
0000
0000
0000
0001
0000
0000
0000
,
0001
0000
0001
0001
,
0220
0000
0330
0000
,
1000
0000
0100
0100
,
2002
0000
3003
0000
,
0010
0000
0010
0001
,
0200
0000
0300
0000
,
0010
0000
0100
0000
,
0010
0000
0000
0100
,
0100
0000
0100
0000
,
0001
0010
1000
0001
,
0010
0000
0010
0000
,
1000
0100
0001
0010
,
0100
0000
0100
0000
,
0001
0010
1000
0100
,
0020
0000
0000
0000
,
0000
0000
0000
0030
,
1000
0000
0001
0000
,
1000
0001
0010
0010
,
0100
0000
0010
0000
,
1000
0010
1000
0001
,
0100
0000
0001
0000
,
1000
0001
1000
0010
,
0100
0000
1000
0000
,
1000
0010
0100
0001
,
0010
2002
3003
0100
,
0010
1000
0100
0000
,
0001
0000
1000
0100
,
0010
1000
0001
0000
,
0110
0000
0001
1000
,
0100
0010
0001
0000
,
0001
0000
1000
0001
,
0010
0010
0100
0001
,
1000
2002
3003
0000
,
0100
0100
0001
0010
,
0100
0100
1000
0000
,
0010
0001
0100
1000
,
0002
0000
0000
0000
,
0000
0000
0000
1000
,
2000
0000
0000
0000
,
0003
0000
0000
0001
,
3002
0000
0000
0000
,
0000
0000
0000
0000
0000
0000
0000
0000
0100
0000
0000
0000
,
0200
0000
0000
0000
,
0003
0000
0000
0000
0000
0000
0000
0000
0010
0000
0000
0000
,
0020
0000
0300
0000
,
0000
0000
0000
0000
,
0000
0000
0000
0030
;

//---------------dance-single - ----------------
#NOTEDATA:;
#CHARTNAME:;
#STEPSTYPE:dance-single;
#DESCRIPTION:;
#CHARTSTYLE:;
#DIFFICULTY:Beginner;
#METER:1;
#RADARVALUES:0.062961,0.130451,0.000000,0.074840,0.000000,53.000000,53.000000,0.000000,9.000000,0.000000,0.000000,0.000000,0.000000,0.000000,0.062961,0.130451,0.000000,0.074840,0.000000,53.000000,53.000000,0.000000,9.000000,0.000000,0.000000,0.000000,0.000000,0.000000;
#CREDIT:kater15;
#DISPLAYBPM:128.000000;
#NOTES:
0000
0000
0000
0000
,
0000
0000
0000
0000
,
0000
0000
0000
0000
,
0000
0000
0000
0000
,
0000
0000
0000
0000
,
0000
0000
0000
0000
,
0000
0000
0000
0000
,
0000
0000
0000
0000
,
0200
0000
0000
0300
,
0000
0000
0000
0000
,
2000
0000
0000
3000
,
0000
0000
0000
0000
,
0020
0000
0000
0030
,
0000
0000
0000
0000
,
0002
0000
0000
0003
,
0000
0000
0000
0000
,
0100
0000
0000
0000
,
0100
0000
0000
0000
,
0010
0000
0000
0000
,
0010
0000
0000
0000
,
1000
0000
0000
0000
,
1000
0000
0000
0000
,
0001
0000
1000
0000
,
0001
0000
0000
0000
,
0010
0000
0000
0000
,
0100
0000
0000
0000
,
0010
0000
0000
0000
,
0100
0000
0000
0000
,
0001
0000
0000
0000
,
1000
0000
0000
0000
,
0002
0000
0000
0000
,
0000
0000
0000
0003
,
0001
0000
0000
0000
,
1000
0000
0000
0000
,
0010
0000
0000
0000
,
0100
0000
0000
0000
,
0001
0000
0000
0000
,
0100
0000
0000
0000
,
0010
0000
0000
0000
,
1000
0000
0000
0000
,
0100
0100
0000
0000
,
0010
0000
0000
0000
,
1000
0000
0000
0000
,
0001
0000
0000
0000
,
0010
0000
0000
0000
,
1000
0000
0000
0000
,
0001
0000
0000
0000
,
0000
0010
0010
0010
,
0000
0100
0000
0000
,
1000
0000
0000
0000
,
0001
0000
0000
0000
,
0100
0100
0100
0000
,
0001
0000
0000
0000
,
1000
0000
0000
0000
,
0010
0000
0000
0000
,
0100
0000
0000
0000
,
0002
0000
0000
0003
,
0000
0000
0000
0000
,
2000
0000
0000
3000
,
0000
0000
0000
0000
,
0020
0000
0000
0030
,
0000
0000
0000
0000
,
0200
0000
0000
0300
;

//---------------dance-single - ----------------
#NOTEDATA:;
#CHARTNAME:;
#STEPSTYPE:dance-single;
#DESCRIPTION:;
#CHARTSTYLE:;
#DIFFICULTY:Medium;
#METER:6;
#RADARVALUES:0.257783,0.339172,0.108103,0.174627,0.045736,217.000000,204.000000,13.000000,21.000000,0.000000,0.000000,0.000000,0.000000,0.000000,0.257783,0.339172,0.108103,0.174627,0.045736,217.000000,204.000000,13.000000,21.000000,0.000000,0.000000,0.000000,0.000000,0.000000;
#CREDIT:kater15;
#DISPLAYBPM:128.000000;
#NOTES:
0000
0000
0000
0000
,
0000
0000
0000
0000
,
0000
0000
0000
0000
,
0000
0000
0000
0000
,
1000
1000
0001
0001
,
0010
0010
0100
0100
,
2002
0000
0000
0000
,
3003
0000
0000
0000
,
2000
0001
0010
3001
,
0100
0000
0000
0100
0000
0000
1000
0000
0010
0000
0100
0000
,
0020
1000
0130
1000
,
0010
0000
0000
0001
0000
0000
0010
0000
0100
0000
0001
0000
,
0200
0001
0301
1000
,
0110
0000
0000
0110
0000
0000
1000
0000
0010
0000
1000
0000
,
0002
0100
0013
1000
,
0110
0000
0000
0100
0000
0000
0010
0000
1000
0000
0001
0000
,
2001
0010
0010
0001
,
0200
0000
3300
0000
,
0210
0001
0001
0010
,
2000
0000
0000
0000
3300
0000
0001
0001
,
0002
0100
0100
1000
,
0020
0000
0033
0000
,
0100
0010
0100
0000
0001
0000
0100
0000
,
0220
0000
0330
0000
,
1000
0000
1000
0000
1000
0001
1000
0000
,
0001
0000
0001
0000
0001
1000
0001
0000
,
1000
0000
1000
0000
1000
0001
1000
0000
,
0001
0000
0001
0000
0001
1000
0001
0000
,
0100
0000
0100
0000
0100
0010
0100
0000
,
0010
0000
0010
0000
0010
0100
0010
0000
,
0200
0000
0000
0000
,
0020
0000
0000
0330
,
1000
0100
0010
0010
,
1000
0000
0010
0000
0100
0000
1000
0001
,
0010
0100
0001
0110
,
1000
0000
0001
0000
0010
0000
0100
1000
,
0010
1000
0100
0010
,
0001
0000
0100
0000
0010
0000
0001
1000
,
0100
0010
0100
0100
,
0001
0000
0010
0000
1000
0000
0001
1000
,
0010
0110
0100
0010
,
0100
0000
0001
0000
0010
0000
0001
0100
,
0010
1000
0010
0100
,
1100
0000
0010
0000
1000
0000
0001
0010
,
0100
0010
0010
0001
,
1100
0000
0010
0000
0010
0000
0100
1000
,
1000
0010
1000
0100
,
0010
0001
0100
0010
,
2000
0000
3001
0000
0010
0000
0100
0010
,
0100
0000
0000
0000
0001
0000
1000
0001
,
1000
0000
0000
0000
0001
0000
0100
0010
,
1000
1100
0001
0101
,
0010
0000
0000
0001
0000
0000
0100
0000
,
0000
0010
0000
0000
1000
0000
0001
0000
,
0200
0000
0000
0000
0000
0000
0010
0010
,
0000
0000
0000
0000
0000
1000
0000
0000
0000
0001
0000
0000
,
0020
0000
0000
0000
,
0300
0000
0000
0000
0000
0000
0000
0000
0001
0000
0000
0000
,
0002
0000
0000
0030
,
0000
0000
0000
0000
0000
0000
0000
0000
1000
0000
0000
0000
,
2000
0000
0000
0000
,
0000
0000
0000
0000
,
0003
0000
0000
3000
;

//---------------dance-single - ----------------
#NOTEDATA:;
#CHARTNAME:;
#STEPSTYPE:dance-single;
#DESCRIPTION:;
#CHARTSTYLE:;
#DIFFICULTY:Hard;
#METER:10;
#RADARVALUES:0.376578,0.469623,0.174627,0.182943,0.037420,317.000000,296.000000,21.000000,22.000000,0.000000,0.000000,0.000000,0.000000,0.000000,0.376578,0.469623,0.174627,0.182943,0.037420,317.000000,296.000000,21.000000,22.000000,0.000000,0.000000,0.000000,0.000000,0.000000;
#CREDIT:kater15;
#DISPLAYBPM:128.000000;
#NOTES:
// measure 0
0000
0000
0000
0000
,  // measure 1
0000
0000
0000
0000
,  // measure 2
0000
0000
0000
0000
,  // measure 3
0000
0000
0000
0000
,  // measure 4
0001
0100
1000
0000
0010
0100
0010
0000
,  // measure 5
1000
0100
1000
0000
0001
0010
0001
0000
,  // measure 6
0100
0001
0100
0000
0202
0000
0000
0000
,  // measure 7
0303
0000
0000
0000
1000
0100
1000
0010
,  // measure 8
0100
0001
0010
0001
0200
2000
0000
0000
,  // measure 9
3300
0000
0000
0000
1000
0100
0010
1000
,  // measure 10
0001
0010
0100
0010
1000
1001
1001
0200
,  // measure 11
0000
0000
0300
0000
1000
0100
0100
0001
,  // measure 12
0010
0001
0100
0010
2000
0002
0000
0000
,  // measure 13
3003
0000
0000
0000
1000
1000
0001
0100
,  // measure 14
0010
1000
0001
0010
0100
1000
0110
0110
,  // measure 15
0002
0000
0000
0000
0000
0000
0000
0003
0000
0000
0000
0000
,  // measure 16
1000
0100
1000
0010
0010
0100
0002
2000
,  // measure 17
0000
0000
3003
0000
0000
0000
0000
0010
,  // measure 18
1000
0100
1000
0010
0001
1000
0020
0200
,  // measure 19
0000
0000
0330
0000
0000
0000
1000
0001
,  // measure 20
1000
0010
0100
0001
0001
1000
0020
0200
,  // measure 21
0000
0000
0330
0000
0000
0000
0100
0010
,  // measure 22
1000
0100
0100
0001
0001
0010
1000
0200
,  // measure 23
0000
0000
0000
0300
0000
0000
0000
0000
0001
0100
0000
1000
,  // measure 24
0001
0010
1000
0100
1000
0001
0010
0001
,  // measure 25
0000
1000
0001
1000
0010
0001
0100
0010
,  // measure 26
0000
1000
0100
1000
0100
0001
0010
0100
,  // measure 27
0000
0010
0100
0001
0010
0100
0010
1000
,  // measure 28
0000
0100
0100
0001
0010
1000
0001
0100
,  // measure 29
0000
0010
0100
0001
0010
0100
1000
1000
,  // measure 30
0002
0000
0000
0003
,  // measure 31
1000
0001
0000
1000
0010
1000
0001
1000
0010
0000
0100
0000
1000
0000
0010
0000
,  // measure 32
0001
0100
0010
1000
0000
0100
0001
0010
,  // measure 33
0000
1000
0001
0100
0000
0010
1000
0100
,  // measure 34
0000
0001
1000
0001
0000
0010
0100
0010
,  // measure 35
0000
1000
0100
0010
1000
0001
0100
0010
,  // measure 36
0000
0100
0100
0001
0000
0100
0100
1000
,  // measure 37
0000
0010
0010
0001
0000
0010
0010
1000
,  // measure 38
0000
0100
0010
1000
0000
0100
0010
0001
,  // measure 39
0000
1000
0001
0010
0100
1000
0001
0100
,  // measure 40
0000
0100
0011
1000
0000
1000
0100
0010
,  // measure 41
0000
1000
0010
0010
0000
1000
0100
0100
,  // measure 42
0000
0001
0010
0001
0000
0100
0010
1000
,  // measure 43
0000
0100
0001
1000
0000
0011
0001
1001
,  // measure 44
0000
0010
1000
0001
0000
0100
0100
0010
,  // measure 45
0000
1000
0010
0100
0000
0010
2002
0000
,  // measure 46
3003
0100
0010
1000
0000
0010
0010
0010
,  // measure 47
0000
1000
0100
1000
0010
1000
0100
0001
,  // measure 48
0010
0001
0200
0000
0000
0001
0001
0301
,  // measure 49
0000
1000
0100
1000
0000
0010
0010
0010
,  // measure 50
0000
0001
0100
0001
0000
0100
0100
0100
,  // measure 51
0010
1000
0001
1000
0010
1000
0001
0000
,  // measure 52
0110
0000
0000
0101
0000
0000
1100
0000
,  // measure 53
0000
1001
0000
0000
0110
0000
0011
0000
,  // measure 54
1001
0000
0000
0000
0000
0000
0101
1100
,  // measure 55
0000
0000
0000
0000
0000
1010
0000
0000
0000
1100
0000
0000
,  // measure 56
0102
0000
0000
0000
,  // measure 57
0000
0000
0000
0000
0000
0000
0000
0000
1000
0000
0000
0000
,  // measure 58
2000
0000
0000
0000
,  // measure 59
0003
0000
0000
0000
0000
0000
0000
0000
0010
0000
0000
0000
,  // measure 60
0020
0000
0000
0000
,  // measure 61
0000
0000
0000
0000
,  // measure 62
3000
0000
0000
0030
;
