#TITLE:NGO ("FREEZE" Special);
#SUBTITLE:;
#ARTIST:Keiichi Nabeshima;
#TITLETRANSLIT:;
#SUBTITLETRANSLIT:;
#ARTISTTRANSLIT:Keiichi Nabeshima;
#GENRE:Hardcore;
#CREDIT:;
#BANNER:NGO (FREEZE Srepcial).png;
#BACKGROUND:NGO (FREEZE Srepcial)-bg.png;
#LYRICSPATH:;
#CDTITLE:;
#MUSIC:NGO (FREEZE Srepcial).ogg;
#OFFSET:0.000000;
#SAMPLESTART:3.510000;
#SAMPLELENGTH:15.000000;
#SELECTABLE:YES;
#DISPLAYBPM:68.000000:274.000000;
#BPMS:0.000000=274.808990
,4.000000=273.889008
,54.000000=68.702003
,56.000000=136.709000
,62.000000=274.024994
,222.000000=75.418999
,234.000000=78.602997
,236.000000=128.878006
,242.000000=168.750000
,248.000000=216.867004
,252.000000=274.046997
,359.000000=274.311005
;
#STOPS:
;
#BGCHANGES:;
#KEYSOUNDS:;
#ATTACKS:;

//---------------dance-single - ----------------
#NOTES:
     dance-single:
     :
     Challenge:
     16:
     0.460916,0.806862,0.062246,1.037431,0.082994,311.000000,305.000000,6.000000,100.000000,0.000000,0.000000,0.460916,0.806862,0.062246,1.037431,0.082994,311.000000,305.000000,6.000000,100.000000,0.000000,0.000000:
// measure 0
0000
0000
0000
0000
,  // measure 1
0000
0000
0000
0000
,  // measure 2
0000
0000
0000
0000
,  // measure 3
0000
0000
0000
0000
,  // measure 4
0000
0000
0000
0000
,  // measure 5
0000
0000
0000
0000
,  // measure 6
0000
0000
0000
0000
,  // measure 7
0000
0000
0000
0000
,  // measure 8
0000
0000
0000
0000
,  // measure 9
0000
0000
0002
0000
,  // measure 10
2000
0003
0010
0010
,  // measure 11
0002
3000
0000
0000
2000
0000
0003
0000
,  // measure 12
3000
0100
0002
0000
,  // measure 13
0200
0000
0303
0000
0020
0000
0000
1000
,  // measure 14
0000
0001
0000
0000
0100
0000
0000
1000
,  // measure 15
0000
0000
0031
0000
1000
0100
1000
0000
,  // measure 16
0012
0000
1000
0100
,  // measure 17
1000
0020
0030
1000
,  // measure 18
0100
2000
3000
0010
,  // measure 19
1000
0010
0200
0003
,  // measure 20
2000
0300
0000
0010
,  // measure 21
0001
0020
0030
0100
,  // measure 22
0001
0010
0200
3000
,  // measure 23
0002
0303
2000
0000
,  // measure 24
0020
3000
0002
0030
,  // measure 25
2000
0003
0020
3000
,  // measure 26
0200
0030
0002
0300
,  // measure 27
2000
0003
0200
3000
,  // measure 28
0020
0300
0002
0030
,  // measure 29
0200
0000
0003
0000
0020
0000
0300
0002
,  // measure 30
0030
0000
0200
0003
0000
2000
0300
0000
,  // measure 31
0002
0000
3003
0000
0010
0100
0010
0100
,  // measure 32
0000
0000
0000
0001
1000
0001
1000
0001
,  // measure 33
0000
0000
0000
0001
2000
0000
0001
0000
,  // measure 34
3200
1000
0310
0001
,  // measure 35
0100
0001
0100
0001
0100
0001
0100
0000
,  // measure 36
0000
0000
0000
0100
0010
0100
0010
0100
,  // measure 37
0000
0000
0002
0100
0003
0020
1000
0030
,  // measure 38
0200
0010
0300
0000
0001
0100
0010
1000
,  // measure 39
0100
0010
0001
0000
1000
0100
1000
0000
,  // measure 40
0012
0000
1000
0100
,  // measure 41
1000
0020
0030
1000
,  // measure 42
0100
2000
3000
0010
,  // measure 43
1000
0010
0200
0003
,  // measure 44
2000
0300
0000
0010
,  // measure 45
0001
0020
0030
0100
,  // measure 46
0001
0010
0200
3000
,  // measure 47
0002
0303
2000
0000
,  // measure 48
0020
3000
0002
0030
,  // measure 49
2000
0003
0020
3000
,  // measure 50
0200
0030
0002
0300
,  // measure 51
2000
0003
0200
3000
,  // measure 52
0020
0300
0002
0030
,  // measure 53
0200
0000
0003
0000
0020
0000
0300
0002
,  // measure 54
0030
0000
0200
0003
0000
2000
0300
0000
,  // measure 55
0002
3003
0002
0023
,  // measure 56
2030
0000
3200
0000
1300
0010
2000
0000
,  // measure 57
3020
0000
0032
0000
0203
0000
0301
0010
,  // measure 58
0200
0000
0000
0000
0000
0000
0000
0001
0300
0000
0000
0000
0000
1000
0000
0000
0020
0000
0000
0000
0000
0000
0000
0001
0030
0000
0000
0000
0000
2000
0000
0000
,  // measure 59
0100
0000
0000
0000
0000
0000
0000
0000
0000
0000
0000
0000
0000
0002
0000
0000
0000
3000
0000
0000
0000
0000
0000
1000
0000
0000
0000
0003
0000
0000
0000
0000
,  // measure 60
0200
0000
0000
0000
0000
0000
0000
0010
0000
0000
0000
0000
0000
1000
0000
0000
0300
0000
0000
0000
0000
0000
0000
0000
0000
0000
0000
0000
0000
0000
0000
0001
,  // measure 61
0000
0000
0000
0000
0000
0000
0000
0000
0000
0010
0000
0100
0000
0000
0000
0000
,  // measure 62
0000
0000
0000
0000
0000
2200
0000
0000
0000
3300
0000
0022
0000
0000
0000
0033
,  // measure 63
1000
0100
1000
0000
0012
0000
0000
0000
,  // measure 64
1000
0100
1000
0020
,  // measure 65
0030
1000
0100
2000
,  // measure 66
3000
0010
1000
0010
,  // measure 67
0200
0003
2000
0300
,  // measure 68
0000
0000
0000
0000
0000
0020
0000
0000
3000
0000
0002
0000
0000
0030
0000
0000
,  // measure 69
1000
0100
1000
0010
,  // measure 70
1003
0100
0000
0000
0000
0000
0000
0000
0001
0100
0000
0000
0000
0000
0000
0000
,  // measure 71
2000
0000
0000
0002
3000
0000
0100
0000
,  // measure 72
2003
0000
0000
0020
3000
0000
0001
0000
,  // measure 73
0230
0000
0000
2000
0300
0000
0010
0000
,  // measure 74
3002
0000
0000
0200
0003
0000
0010
0000
,  // measure 75
0302
0000
2000
0003
,  // measure 76
0020
3000
0002
0030
,  // measure 77
0103
1000
0010
1000
0100
0001
0100
1000
,  // measure 78
0010
0001
0010
0100
0001
0010
1000
0010
,  // measure 79
0100
1000
0100
0001
0100
1000
0010
0001
,  // measure 80
0010
1000
0100
0001
0100
1000
0010
0001
,  // measure 81
0010
0100
0001
0010
1000
0010
0001
1000
,  // measure 82
0100
0010
1000
0010
0001
0100
0010
1000
,  // measure 83
0100
0010
0100
0001
0100
0010
0100
1000
,  // measure 84
0001
0010
0001
1000
0001
0100
0001
1000
,  // measure 85
0010
0100
0010
0001
0010
0100
0010
1000
,  // measure 86
0100
1000
0100
0010
0100
0001
0100
0010
,  // measure 87
1000
0010
1000
0001
0100
0001
0100
1000
,  // measure 88
0010
0100
0010
0001
0010
0100
0001
0000
,  // measure 89
0000
0000
2002
0000
,  // measure 90
0000
0000
0000
0000
,  // measure 91
0000
0000
3003
0000
;
