#VERSION:0.83;
#TITLE:Mushroom Kingdom;
#SUBTITLE:(Guitar Mix);
#ARTIST:Mario Bros.;
#TITLETRANSLIT:;
#SUBTITLETRANSLIT:;
#ARTISTTRANSLIT:;
#GENRE:;
#ORIGIN:;
#CREDIT:;
#BANNER:Mushroom Kingdom.png;
#BACKGROUND:Mushroom Kingdom-bg.png;
#PREVIEWVID:;
#JACKET:Mushroom Kingdom-jacket.png;
#CDIMAGE:;
#DISCIMAGE:;
#LYRICSPATH:;
#CDTITLE:;
#MUSIC:Mushroom Kingdom.ogg;
#OFFSET:0.229000;
#SAMPLESTART:2.999000;
#SAMPLELENGTH:15.000000;
#SELECTABLE:YES;
#DISPLAYBPM:217.000000;
#BPMS:0.000=216.900;
#STOPS:196.000=0.553;
#DELAYS:;
#WARPS:;
#TIMESIGNATURES:0.000=4=4;
#TICKCOUNTS:0.000=4;
#COMBOS:0.000=1;
#SPEEDS:0.000=1.000=0.000=0;
#SCROLLS:0.000=1.000;
#FAKES:;
#LABELS:0.000=Song Start;
#BGCHANGES:;
#KEYSOUNDS:;
#ATTACKS:
;

//---------------dance-single - ----------------
#NOTEDATA:;
#CHARTNAME:;
#STEPSTYPE:dance-single;
#DESCRIPTION:;
#CHARTSTYLE:;
#DIFFICULTY:Easy;
#METER:4;
#RADARVALUES:0.207268,0.266906,0.118625,0.319375,0.000000,159.000000,146.000000,13.000000,35.000000,0.000000,0.000000,0.000000,0.000000,0.000000,0.207268,0.266906,0.118625,0.319375,0.000000,159.000000,146.000000,13.000000,35.000000,0.000000,0.000000,0.000000,0.000000,0.000000;
#CREDIT:kater15;
#DISPLAYBPM:217.000000;
#NOTES:
0000
0000
0000
0000
,
0000
0000
0000
0000
,
0000
0000
0000
0000
,
1000
0000
0000
1000
,
0000
0000
0000
0001
,
0001
0000
0100
0000
,
0010
0000
0100
0000
,
0001
0000
0000
0001
,
0000
0000
0000
1000
,
1000
0000
0010
0000
,
0100
0000
0001
0000
,
1001
0000
0000
0000
,
1000
0000
0000
0000
,
0001
0000
0000
0000
,
0100
0010
0010
0000
,
1000
0000
0000
0000
,
0010
0000
0000
0000
,
0000
2000
0000
3000
,
0002
0000
0003
0000
,
0100
0000
0001
0000
,
0100
0000
1000
0000
,
0100
0000
0010
0000
,
0002
0000
0003
0000
,
0100
0000
0010
0000
,
0100
0000
0010
0000
,
0000
0002
0000
0003
,
2000
0000
3000
0000
,
0100
0000
0000
0000
,
0010
0000
0001
0000
,
0100
0000
0000
0000
,
0000
0001
1000
0001
,
0100
0000
0000
0000
,
0010
0000
0001
0000
,
0200
0000
0000
0000
,
0020
0000
0330
0000
,
1000
0000
0100
0000
,
0010
0000
0100
0000
,
0002
0000
0003
0000
,
0200
0000
0300
0000
,
1000
0000
0000
1000
,
0000
0000
0000
0010
,
0100
0000
0001
0000
,
0010
0000
0100
0000
,
2002
0000
3003
0000
,
0220
0000
0330
0000
,
0010
0000
0001
0000
,
0100
0000
1000
0000
,
0220
0000
0330
0000
,
2002
0000
3003
0000
,
0100
0000
0000
0010
,
0000
0000
0000
1000
,
0001
0000
0100
0000
,
0010
0000
0100
0000
,
0001
0000
0000
0001
,
0000
0000
0000
0010
,
0100
0000
1000
0000
,
0001
0000
0010
0000
,
0110
0000
0000
0000
,
1000
0000
0001
0000
,
1001
0000
0000
0000
,
0010
0100
0100
0000
,
0001
0000
0000
0000
,
0100
0000
0010
0000
,
0000
2000
0000
3000
,
0002
0000
0003
0000
,
1000
0000
0100
0000
,
1000
0000
0010
0000
,
0100
0000
0001
0000
,
0110
0000
0000
0000
,
1000
0000
0100
0000
,
0010
0000
0001
0000
,
0000
0200
0000
0300
,
0020
0000
0030
0000
,
1000
0000
0000
0000
,
0100
0000
0001
0000
,
0010
0000
0000
0000
,
0000
0100
0010
0100
,
0001
0000
0000
0000
,
1000
0000
0010
0000
,
0002
0000
0000
0000
,
2000
0000
3003
0000
,
0010
0000
1000
0000
,
0001
0000
1000
0000
,
0200
0000
0300
0000
,
2000
0000
3000
0000
,
0010
0000
0000
0010
,
0000
0000
0000
0001
,
1000
0000
0100
0000
,
0001
0000
1000
0000
,
0220
0000
0330
0000
,
2002
0000
3003
0000
,
0001
0000
0100
0000
,
1000
0000
0010
0000
,
2002
0000
3003
0000
,
0220
0000
0330
0000
,
1000
0000
0100
0000
,
0010
0000
2002
0000
,
0000
0000
3003
0000
;

//---------------dance-single - ----------------
#NOTEDATA:;
#CHARTNAME:;
#STEPSTYPE:dance-single;
#DESCRIPTION:;
#CHARTSTYLE:;
#DIFFICULTY:Beginner;
#METER:2;
#RADARVALUES:0.117321,0.222422,0.073000,0.146000,0.000000,90.000000,82.000000,8.000000,16.000000,0.000000,0.000000,0.000000,0.000000,0.000000,0.117321,0.222422,0.073000,0.146000,0.000000,90.000000,82.000000,8.000000,16.000000,0.000000,0.000000,0.000000,0.000000,0.000000;
#CREDIT:kater15;
#DISPLAYBPM:217.000000;
#NOTES:
0000
0000
0000
0000
,
0000
0000
0000
0000
,
0000
0000
0000
0000
,
2000
0000
0000
0000
,
0000
0000
3000
0000
,
1000
0000
0000
0000
,
1000
0000
0000
0000
,
0002
0000
0000
0000
,
0000
0000
0003
0000
,
0001
0000
0000
0000
,
0001
0000
0000
0000
,
0100
0000
0000
0000
,
0000
0000
0010
0000
,
0001
0000
0000
0000
,
0000
0000
0010
0000
,
1000
0000
0000
0000
,
0000
0000
0000
0000
,
0000
2000
0000
0000
,
3000
0000
0000
0000
,
0100
0000
0000
0000
,
0000
0000
1000
0000
,
0100
0000
0000
0000
,
0200
0000
0300
0000
,
0100
0000
0000
0000
,
1000
0000
0000
0000
,
0000
0002
0000
0000
,
0003
0000
0000
0000
,
0100
0000
0000
0000
,
0010
0000
0000
0000
,
0100
0000
0000
0000
,
0000
1000
1000
0000
,
0001
0000
0000
0000
,
1000
0000
0000
0000
,
0002
0000
0000
0000
,
0000
0000
0003
0000
,
1000
0000
0000
0000
,
0010
0000
0000
0000
,
0001
0000
0000
0000
,
0010
0000
0000
0000
,
0200
0000
0000
0000
,
0000
0000
0300
0000
,
0100
0000
0000
0000
,
0100
0000
0000
0000
,
1001
0000
0000
0000
,
1001
0000
0000
0000
,
0020
0000
0000
0000
,
0030
0000
0000
0000
,
0110
0000
0000
0000
,
0110
0000
0000
0000
,
0100
0000
0000
0000
,
0000
0000
0000
0000
,
0100
0000
0000
0000
,
0100
0000
0000
0000
,
0020
0000
0000
0000
,
0000
0000
0030
0000
,
0010
0000
0000
0000
,
0010
0000
0000
0000
,
0001
0000
0000
0000
,
0000
0000
1000
0000
,
0010
0000
0000
0000
,
0000
0000
1000
0000
,
0100
0000
0000
0000
,
0000
0000
0000
0000
,
0000
0200
0000
0000
,
0300
0000
0000
0000
,
0001
0000
0000
0000
,
0000
0000
0100
0000
,
0001
0000
0000
0000
,
0002
0000
0003
0000
,
0001
0000
0000
0000
,
0100
0000
0000
0000
,
0000
0020
0000
0000
,
0030
0000
0000
0000
,
0001
0000
0000
0000
,
1000
0000
0000
0000
,
0001
0000
0000
0000
,
0000
0100
0100
0000
,
0010
0000
0000
0000
,
0100
0000
0000
0000
,
0020
0000
0000
0000
,
0000
0000
0030
0000
,
0100
0000
0000
0000
,
1000
0000
0000
0000
,
0010
0000
0000
0000
,
1000
0000
0000
0000
,
0002
0000
0000
0000
,
0000
0000
0003
0000
,
0001
0000
0000
0000
,
0001
0000
0000
0000
,
0110
0000
0000
0000
,
0110
0000
0000
0000
,
2000
0000
0000
0000
,
3000
0000
0000
0000
,
1001
0000
0000
0000
,
1001
0000
0000
0000
,
0100
0000
0010
0000
,
0100
0000
0020
0000
,
0000
0000
0030
0000
;

//---------------dance-single - ----------------
#NOTEDATA:;
#CHARTNAME:;
#STEPSTYPE:dance-single;
#DESCRIPTION:;
#CHARTSTYLE:;
#DIFFICULTY:Medium;
#METER:7;
#RADARVALUES:0.396286,0.444844,0.136875,0.191625,0.013688,304.000000,289.000000,15.000000,21.000000,0.000000,0.000000,0.000000,0.000000,0.000000,0.396286,0.444844,0.136875,0.191625,0.013688,304.000000,289.000000,15.000000,21.000000,0.000000,0.000000,0.000000,0.000000,0.000000;
#CREDIT:kater15;
#DISPLAYBPM:217.000000;
#NOTES:
0000
0000
0000
0000
,
0000
0000
0000
0000
,
0000
0000
0000
0000
,
1000
0000
0000
0100
0000
0000
0001
0000
,
0000
0010
0000
0010
0000
0000
1000
0000
,
0100
0010
0100
0001
,
0010
0100
0100
0000
,
0010
0000
0000
0100
0000
0000
1000
0000
,
0000
0001
0000
0001
0000
0000
0100
0000
,
0010
1000
0001
0100
,
0010
1000
1000
0000
,
0010
0000
0001
0000
0100
0000
0000
0010
,
0000
0000
0000
1000
0000
0000
0000
0100
,
0000
0010
0001
0100
,
0000
0010
0000
0010
1000
0000
0000
0000
,
0100
0000
1000
0000
0010
0000
0000
0001
,
0000
0000
0000
1000
0000
0000
0000
0010
,
0000
0000
1000
0000
0000
1100
0000
0000
,
0020
0000
0030
0000
,
1000
0100
0010
0100
,
0010
0001
0100
0110
,
1000
0100
0010
0001
,
0200
0000
0000
0300
,
0010
0001
0001
0100
,
0100
0010
1000
0100
,
0000
0000
0010
0000
0000
0011
0000
0000
,
2000
0000
3000
0000
,
1000
0001
0000
0010
0000
0000
1000
0000
,
0010
0100
0101
0000
,
0010
0100
0000
0001
0000
0000
1000
0000
,
2000
0010
3010
0000
,
0010
0001
0000
0100
0000
0000
0010
0000
,
0001
1000
1010
0000
,
0100
0001
0000
0010
0000
0000
0100
0000
,
2001
0000
3100
0000
,
0010
0001
0010
1000
,
0010
0001
0100
1000
,
0100
0010
0001
0100
,
0020
0000
0030
0000
,
0100
0000
0000
1000
0000
0000
0001
0000
,
0000
0100
0000
0100
0000
0000
1000
0000
,
0100
0010
0100
0001
,
0010
0100
0110
0000
,
2000
0000
0000
3001
0000
0000
0010
0000
,
0002
0000
1003
0000
,
0100
0100
0001
0001
,
0010
0100
1000
0000
,
0002
0000
0000
1003
0000
0000
0100
0000
,
2000
0000
3001
0000
,
0011
0000
0000
1000
0000
0000
0100
0000
,
0000
0001
0000
0001
0000
0000
0010
0000
,
1000
0001
1000
0100
,
0001
1000
1000
0000
,
0001
0000
0000
1000
0000
0000
0010
0000
,
0000
0100
0000
0100
0000
0000
1000
0000
,
0001
0010
0100
1000
,
0001
0010
0010
0000
,
0001
0000
0100
0000
1000
0000
0000
0001
,
0000
0000
0000
0010
0000
0000
0000
1000
,
0000
0001
0100
1000
,
0000
0001
0000
0001
0010
0000
0000
0000
,
1000
0000
0010
0000
0001
0000
0000
0100
,
0000
0000
0000
0010
0000
0000
0000
0001
,
0000
0000
0010
0000
0000
1010
0000
0000
,
0002
0000
0003
0000
,
0010
1000
0001
1000
,
0001
0100
1000
1001
,
0010
1000
0001
0100
,
2000
0000
0000
3000
,
0001
0100
0100
1000
,
1000
0001
0010
1000
,
0000
0000
0001
0000
0000
0101
0000
0000
,
0020
0000
0030
0000
,
0010
0100
0000
0001
0000
0000
0010
0000
,
0001
1000
1100
0000
,
0001
1000
0000
0100
0000
0000
0010
0000
,
0020
0001
0031
0000
,
0001
0100
0000
1000
0000
0000
0001
0000
,
0100
0010
0011
0000
,
1000
0100
0000
0001
0000
0000
1000
0000
,
0120
0000
1030
0000
,
0001
0100
0001
0010
,
0001
0100
1000
0010
,
1000
0001
0100
1000
,
0002
0000
0003
0000
,
1000
0000
0000
0010
0000
0000
0100
0000
,
0000
1000
0000
1000
0000
0000
0010
0000
,
1000
0001
1000
0100
,
0001
1000
1001
0000
,
0020
0000
0000
0130
0000
0000
0001
0000
,
0200
0000
0310
0000
,
1000
1000
0100
0100
,
0001
1000
0010
0000
,
0200
0000
0000
0310
0000
0000
1000
0000
,
0020
0000
0130
0000
,
1000
0000
0000
0000
1000
0000
0100
0000
0000
0000
1000
0000
,
0010
0000
0000
0000
1000
0000
0002
0000
0000
0000
0000
0000
,
0000
0000
0003
0000
;

//---------------dance-single - ----------------
#NOTEDATA:;
#CHARTNAME:;
#STEPSTYPE:dance-single;
#DESCRIPTION:;
#CHARTSTYLE:;
#DIFFICULTY:Hard;
#METER:11;
#RADARVALUES:0.586607,0.578297,0.438000,0.282875,0.027375,450.000000,402.000000,48.000000,31.000000,0.000000,0.000000,0.000000,0.000000,0.000000,0.586607,0.578297,0.438000,0.282875,0.027375,450.000000,402.000000,48.000000,31.000000,0.000000,0.000000,0.000000,0.000000,0.000000;
#CREDIT:kater15;
#DISPLAYBPM:217.000000;
#NOTES:
// measure 0
0000
0000
0000
0000
,  // measure 1
0000
0000
0000
0000
,  // measure 2
0000
0000
0000
0000
,  // measure 3
1001
0000
0000
1010
0000
0000
1100
0000
,  // measure 4
0000
0010
0000
0001
0000
0100
1000
0000
,  // measure 5
1000
0001
0000
0100
0010
0000
0001
0100
,  // measure 6
0000
0110
0000
1000
0100
0001
0000
0000
,  // measure 7
1001
0000
0000
0101
0000
0000
0011
0000
,  // measure 8
0000
0100
0000
1000
0000
0010
0001
0000
,  // measure 9
0001
1000
0000
0010
0100
0000
1000
0010
,  // measure 10
0000
0110
0000
0001
0010
1000
0000
0000
,  // measure 11
1100
0000
1000
0100
0010
0001
0000
0100
,  // measure 12
0000
1000
1000
1000
0000
0001
0001
0001
,  // measure 13
0000
0000
1000
0100
0010
0001
0000
1000
,  // measure 14
0000
0010
0000
0010
0001
0000
0000
0000
,  // measure 15
0110
0000
1000
0100
0010
0001
0000
0100
,  // measure 16
0000
0001
0001
0001
0000
1000
1000
1000
,  // measure 17
0000
0000
0001
0000
0000
0110
0000
0000
,  // measure 18
0022
0000
0000
0000
,  // measure 19
0033
0000
0100
0001
1000
0010
0000
0001
,  // measure 20
0000
0100
0100
0100
0000
0010
0010
0010
,  // measure 21
0000
0000
0100
0001
1000
0010
0000
0100
,  // measure 22
0000
1000
0000
1000
0010
0000
0000
0000
,  // measure 23
1001
0000
0100
0001
1000
0010
0000
0001
,  // measure 24
0000
0010
0010
0010
0000
0100
0100
0100
,  // measure 25
0000
0000
0010
0000
0000
1001
0000
0000
,  // measure 26
2200
0000
0000
3300
,  // measure 27
1000
0002
0000
1000
0000
0000
1003
0000
,  // measure 28
0100
0010
0000
0010
0001
0000
1000
0100
,  // measure 29
1000
0002
0000
1003
0000
1000
0100
0002
,  // measure 30
0000
1000
1003
0000
,  // measure 31
0100
0020
0000
0100
0000
0000
0130
0000
,  // measure 32
1000
0001
0000
0001
0010
0000
0000
0000
,  // measure 33
1000
0100
0000
1001
0000
0100
0010
0000
,  // measure 34
0022
0033
2200
3300
,  // measure 35
1000
0000
0010
0001
0100
0000
1000
0000
,  // measure 36
0010
0000
0100
0010
1000
0000
0100
0000
,  // measure 37
0100
0000
0001
0010
0100
0000
1000
0000
,  // measure 38
0020
0000
0000
2000
0000
0000
3030
0000
,  // measure 39
0110
0000
0000
1100
0000
0000
0101
0000
,  // measure 40
0000
1000
0000
0010
0000
0001
0100
0000
,  // measure 41
0100
0010
0000
0001
1000
0000
0010
0001
,  // measure 42
0000
1001
0000
0100
0001
0010
0000
0000
,  // measure 43
1000
0100
0000
1100
0000
0000
0001
0000
,  // measure 44
0001
0010
0000
0010
0200
0000
0300
0000
,  // measure 45
1000
0100
0000
0010
0001
0100
0000
0010
,  // measure 46
0001
0010
0000
0100
1000
0000
0000
0000
,  // measure 47
1000
0001
0000
0011
0000
0000
0100
0000
,  // measure 48
0001
0010
0000
1000
0001
0000
0000
0000
,  // measure 49
0110
0000
0000
1100
0000
0000
0101
0000
,  // measure 50
0000
1000
0000
0010
0000
0001
0100
0000
,  // measure 51
0100
0010
0000
0001
1000
0000
0010
0001
,  // measure 52
0000
1001
0000
0100
0001
0010
0000
0000
,  // measure 53
0110
0000
0000
0011
0000
0000
1010
0000
,  // measure 54
0000
0001
0000
0100
0000
1000
0010
0000
,  // measure 55
0010
0100
0000
1000
0001
0000
0100
1000
,  // measure 56
0000
1001
0000
0010
1000
0100
0000
0000
,  // measure 57
0101
0000
0100
0001
1000
0010
0000
0001
,  // measure 58
0000
0100
0100
0100
0000
0010
0010
0010
,  // measure 59
0000
0000
0100
0001
1000
0010
0000
0100
,  // measure 60
0000
1000
0000
1000
0010
0000
0000
0000
,  // measure 61
1001
0000
0100
0001
1000
0010
0000
0001
,  // measure 62
0000
0010
0010
0010
0000
0100
0100
0100
,  // measure 63
0000
0000
0010
0000
0000
1001
0000
0000
,  // measure 64
2020
0000
0000
0000
,  // measure 65
3030
0000
0001
0010
0100
1000
0000
0010
,  // measure 66
0000
0001
0001
0001
0000
1000
1000
1000
,  // measure 67
0000
0000
0001
0010
0100
1000
0000
0001
,  // measure 68
0000
0100
0000
0100
1000
0000
0000
0000
,  // measure 69
0110
0000
0001
0010
0100
1000
0000
0010
,  // measure 70
0000
1000
1000
1000
0000
0001
0001
0001
,  // measure 71
0000
0000
1000
0000
0000
0110
0000
0000
,  // measure 72
0202
0000
0000
0303
,  // measure 73
0100
0020
0000
0100
0000
0000
0130
0000
,  // measure 74
0001
1000
0000
1000
0010
0000
0100
0001
,  // measure 75
0100
0020
0000
0130
0000
0100
0001
0020
,  // measure 76
0000
0100
0130
0000
,  // measure 77
0001
2000
0000
0001
0000
0000
3001
0000
,  // measure 78
0100
0010
0000
0010
1000
0000
0000
0000
,  // measure 79
0100
0001
0000
0110
0000
0001
1000
0000
,  // measure 80
2020
3030
0202
0303
,  // measure 81
0100
0000
1000
0010
0001
0000
0100
0000
,  // measure 82
1000
0000
0001
1000
0100
0000
0001
0000
,  // measure 83
0001
0000
0010
1000
0001
0000
0100
0000
,  // measure 84
2000
0000
0000
0200
0000
0000
3300
0000
,  // measure 85
1001
0000
0000
0101
0000
0000
0011
0000
,  // measure 86
0000
0100
0000
1000
0000
0010
0001
0000
,  // measure 87
0001
1000
0000
0010
0100
0000
1000
0010
,  // measure 88
0000
0110
0000
0001
0010
1000
0000
0000
,  // measure 89
0100
0001
0000
0101
0000
0000
0010
0000
,  // measure 90
0010
1000
0000
1000
0002
0000
0003
0000
,  // measure 91
0100
0001
0000
1000
0010
0001
0000
1000
,  // measure 92
0010
1000
0000
0001
0100
0000
0000
0000
,  // measure 93
0100
0010
0000
1010
0000
0000
0001
0000
,  // measure 94
0010
1000
0000
0100
0010
0000
0000
0000
,  // measure 95
1000
0000
0100
0000
0010
0000
0001
0000
0100
0000
0010
0000
,  // measure 96
1000
0000
0100
0000
0001
0000
0020
0000
0000
0000
0000
0000
,  // measure 97
0000
0000
0030
0000
;
