#TITLE:Most Wanted Mash Up;
#SUBTITLE:;
#ARTIST:Paul Linford & Chris Vrenna;
#TITLETRANSLIT:;
#SUBTITLETRANSLIT:;
#ARTISTTRANSLIT:;
#GENRE:;
#CREDIT:;
#BANNER:Most Wanted Mash Up.png;
#BACKGROUND:Most Wanted Mash Up-bg.png;
#LYRICSPATH:;
#CDTITLE:cdtitle.png;
#MUSIC:Most Wanted Mash Up.ogg;
#OFFSET:-0.600000;
#SAMPLESTART:4.558000;
#SAMPLELENGTH:15.831000;
#SELECTABLE:YES;
#DISPLAYBPM:121.000000;
#BPMS:0.000000=121.279991
;
#STOPS:
;
#BGCHANGES:;
#KEYSOUNDS:;
#ATTACKS:;

//---------------dance-single - ----------------
#NOTES:
     dance-single:
     :
     Easy:
     5:
     0.200345,0.248427,0.056096,0.152262,0.000000,175.000000,168.000000,7.000000,19.000000,0.000000,0.000000,0.200345,0.248427,0.056096,0.152262,0.000000,175.000000,168.000000,7.000000,19.000000,0.000000,0.000000:
0000
0000
0000
0000
,
0000
0000
0000
0000
,
0001
0000
0001
0000
,
0100
0000
0100
0000
,
0010
0000
0010
0000
,
1000
0000
1000
0000
,
0100
0100
0001
0000
,
0100
0100
1000
0000
,
0010
0001
0010
0100
,
1000
1000
0100
0010
,
0200
0000
0300
1000
,
0020
0000
0030
0100
,
2000
0000
3000
0010
,
0002
0000
0003
0100
,
0020
0000
0030
1000
,
0100
0001
1000
1000
,
0020
0000
0030
0001
,
1000
0200
0000
0300
,
0010
1001
0100
0000
,
1000
0100
0010
0001
,
0100
1001
0010
0000
,
0100
0001
0010
0100
,
1000
0110
0001
0000
,
0010
1000
0100
0010
,
0001
0110
1000
0000
,
0020
0030
0200
0300
,
2000
0000
0010
3010
,
0200
0000
0001
0301
,
0020
0000
1000
1030
,
0002
0000
2000
3003
,
0200
0000
1000
1300
,
0002
0000
0010
0013
,
2000
0000
0100
3100
,
0020
0000
0200
0330
,
1000
0000
0000
0000
,
0110
0000
0000
0000
,
0010
0000
0000
0000
,
1001
0000
0000
0000
,
0100
0001
0010
0000
,
0100
0100
0001
0001
,
0010
1000
0100
0000
,
0010
0010
1000
1000
,
0001
0010
1000
0000
,
1000
1000
0001
0001
,
0100
0010
1000
0100
,
0010
0001
0001
0001
,
0100
0000
0000
0100
0000
0010
0000
0000
,
0001
0000
1000
0000
0000
0100
0000
0000
,
0001
0000
0000
0001
0000
1000
0000
0000
,
0010
0000
0100
0000
0000
0001
0000
0000
,
0010
0000
0000
0010
0000
0100
0000
0000
,
1000
0000
0001
0000
0000
0010
0000
0000
,
1000
0000
0000
1000
0000
0001
0000
0000
,
0100
0000
0010
0000
0000
1000
0000
0000
,
0100
0000
0000
0100
0000
0010
0000
0000
,
0001
0000
1000
0000
0000
0100
0000
0000
,
0001
0000
0000
0001
0000
1000
0000
0000
,
0010
0000
0100
0000
0000
0001
0000
0000
,
0010
0000
0100
0100
,
0000
0001
0000
0001
0000
0000
0000
0000
,
1000
0000
0010
0010
,
0000
1000
0000
1000
0000
0000
0000
0000
,
1001
0000
0000
0000
;

//---------------dance-single - ----------------
#NOTES:
     dance-single:
     :
     Beginner:
     2:
     0.098455,0.149056,0.056096,0.056096,0.000000,86.000000,79.000000,7.000000,7.000000,0.000000,0.000000,0.098455,0.149056,0.056096,0.056096,0.000000,86.000000,79.000000,7.000000,7.000000,0.000000,0.000000:
0000
0000
0000
0000
,
0000
0000
0000
0000
,
0100
0000
0000
0000
,
0100
0000
0000
0000
,
0100
0000
0000
0000
,
0100
0000
0000
0000
,
0001
0000
0000
0000
,
0001
0000
0000
0000
,
0001
0000
0000
0000
,
0001
0000
0000
0000
,
1000
0000
0000
0000
,
1000
0000
0000
0000
,
1000
0000
0000
0000
,
1000
0000
0000
0000
,
0010
0000
0000
0000
,
0010
0000
0000
0000
,
0010
0000
0000
0000
,
0010
0000
0000
0000
,
1000
1000
0000
0000
,
0010
0000
0000
0000
,
0001
0001
0000
0000
,
0010
0000
0000
0000
,
0100
0100
0000
0000
,
0001
0000
0000
0000
,
0010
0010
0000
0000
,
0001
0000
0100
0000
,
2000
0000
3000
0000
,
0002
0000
0003
0000
,
2000
0000
3000
0000
,
0001
0000
1000
0000
,
0200
0000
0300
0000
,
0020
0000
0030
0000
,
0200
0000
0300
0000
,
0010
0000
0100
0000
,
2000
0000
0000
0000
,
0000
0000
0000
0000
,
0000
0000
0000
0000
,
3000
0000
0000
0000
,
0100
0100
0100
0000
,
0001
0000
0010
0000
,
1000
1000
1000
0000
,
0010
0000
0100
0000
,
0001
0001
0001
0000
,
0100
0000
1000
0000
,
0010
0010
0010
0000
,
0001
0000
0100
0000
,
0100
0000
0000
0000
,
1001
0000
0000
0000
,
0010
0000
0000
0000
,
1001
0000
0000
0000
,
0001
0000
0000
0000
,
0110
0000
0000
0000
,
1000
0000
0000
0000
,
0110
0000
0000
0000
,
0010
0000
0000
0000
,
1001
0000
0000
0000
,
0100
0000
0000
0000
,
1001
0000
0000
0000
,
0010
0000
0001
0000
,
0001
0000
0000
0000
,
0100
0000
1000
0000
,
1000
0000
0000
0000
,
1001
0000
0000
0000
;

//---------------dance-single - ----------------
#NOTES:
     dance-single:
     :
     Medium:
     10:
     0.311393,0.372641,0.152262,0.168289,0.036062,272.000000,253.000000,19.000000,21.000000,0.000000,0.000000,0.311393,0.372641,0.152262,0.168289,0.036062,272.000000,253.000000,19.000000,21.000000,0.000000,0.000000:
0000
0000
0000
0000
,
0000
0000
0000
0000
,
1000
0000
0100
0000
0010
0001
0010
0000
,
0100
0000
1000
0000
0100
0010
0001
0000
,
0010
0000
0100
0000
1000
0100
0010
0000
,
0001
0000
0010
0000
0100
1000
0100
0010
,
0001
0000
0100
0000
0010
1000
0010
0000
,
0100
0000
0001
0000
0100
0010
1000
0000
,
0010
0000
0100
0000
0001
0100
0010
0000
,
1000
0000
0010
0000
0100
0001
0100
0010
,
1000
0000
0100
0000
0001
0010
1000
0000
,
0100
0000
1000
0000
0010
0001
0100
0000
,
1000
0000
0100
0000
0001
0010
1000
0000
,
0100
0000
1000
0000
0010
0001
0100
0010
,
1000
0000
1000
0000
1000
0001
1000
0000
,
0001
0000
0001
0000
0001
1000
0001
0000
,
0100
0000
0010
0000
0100
0010
0100
0000
,
0010
0000
0000
0000
0001
0000
0000
0200
0000
0000
0000
0000
0000
0000
0000
0000
,
0301
0000
0101
0000
0001
0000
2000
0100
,
0000
0100
0000
0000
0010
0000
3010
0000
,
0100
0000
0110
0000
0100
0000
0002
0010
,
0000
0010
0000
0000
0100
0000
0103
0000
,
0010
0000
0011
0000
0010
0000
0200
0001
,
0000
0001
0000
0000
1000
0000
1300
0000
,
0001
0000
1001
0000
0001
0000
0020
1000
,
0000
1030
0000
0000
0000
0000
0001
1000
,
0002
0000
0000
0000
0003
0000
1000
0100
,
2000
0000
0000
0000
3000
0000
0010
0001
,
0020
0000
0000
0000
0030
0000
1000
0010
,
1000
0000
0010
0001
0010
0000
1000
0000
,
0020
0000
0000
0000
0030
0000
0100
0001
,
0200
0000
0000
0000
0300
0000
1000
0010
,
2000
0000
0000
0000
3000
0000
0100
1000
,
0100
0000
1000
0010
1000
0000
0100
0000
,
0002
0000
0000
0100
,
0200
0000
0003
1000
,
2000
0000
0300
0010
,
0020
0000
0000
0000
3030
0000
0010
1000
,
0010
0000
0100
0100
0001
0000
0010
0000
,
0100
0000
1000
1000
0010
0000
0100
0000
,
0010
0000
0001
0001
0010
0000
0100
0000
,
0010
0000
1000
1000
0100
0000
0010
0100
,
0010
0000
0100
0001
0001
0000
0010
0000
,
1000
0000
0100
0010
0010
0000
1000
0000
,
0001
0000
0100
1000
1000
0000
0010
0000
,
0100
0000
0110
0000
0001
0010
0001
0100
,
1000
0000
0000
0110
0000
0020
0000
0000
,
0001
0000
0000
0000
0031
0000
0000
0000
0000
0000
0100
0000
0000
0100
0000
0000
,
0100
0000
0000
1001
0000
2000
0000
0000
,
0010
0000
0000
0000
3010
0000
0000
0000
0000
0000
0001
0000
0000
0001
0000
0000
,
0001
0000
0000
0110
0000
0200
0000
0000
,
1000
0000
0000
0000
1300
0000
0000
0000
0000
0000
0010
0000
0000
0010
0000
0000
,
0010
0000
0000
1001
0000
0002
0000
0000
,
0100
0000
0000
0000
0103
0000
0000
0000
0000
0000
1000
0000
0000
1000
0000
0000
,
1000
0000
0000
0110
0000
0200
0000
0000
,
0010
0000
0000
0000
0310
0000
0000
0000
0000
0000
0010
0000
0000
0010
0000
0000
,
0010
0000
0000
1001
0000
0002
0000
0000
,
1000
0000
0000
0000
1003
0000
0000
0000
0000
0000
1000
0000
0000
1000
0000
0000
,
1000
0001
1010
0011
,
1000
0000
1010
0000
0000
0000
0011
0000
0000
0000
0001
0000
0000
0001
0000
0000
,
0001
1000
0101
1100
,
0001
0000
0101
0000
0000
0000
1100
0000
0000
0000
0010
0000
0000
0100
0000
0000
,
0010
0000
0000
0000
;

//---------------dance-single - ----------------
#NOTES:
     dance-single:
     :
     Hard:
     13:
     0.560965,0.596226,0.520896,0.016028,0.456786,490.000000,425.000000,65.000000,2.000000,0.000000,0.000000,0.560965,0.596226,0.520896,0.016028,0.456786,490.000000,425.000000,65.000000,2.000000,0.000000,0.000000:
// measure 0
0000
0000
0000
0000
,  // measure 1
0000
0000
0000
0000
,  // measure 2
0001
0000
0000
0100
1000
0000
0000
0100
0001
0000
0000
0000
0101
0000
0000
0000
,  // measure 3
0010
0000
0000
0001
1000
0000
0000
0010
1000
0000
0000
0000
0110
0000
0000
0000
,  // measure 4
0100
0000
0000
0001
1000
0000
0000
0100
0001
0000
0000
0000
0011
0000
0000
0000
,  // measure 5
0100
0000
0000
1000
0010
0000
0000
0100
0001
0000
0010
0000
1000
0000
0010
0000
,  // measure 6
0100
0000
0000
0100
0001
0000
0000
0001
0100
0000
0000
0000
0101
0000
0000
0000
,  // measure 7
1000
0000
0000
1000
0010
0000
0000
0010
0001
0000
0000
0000
1010
0000
0000
0000
,  // measure 8
0100
0000
0000
0001
1000
0000
0000
0010
0001
0000
0000
0000
1100
0000
0000
0000
,  // measure 9
0010
0000
0000
0010
0001
0000
0000
0001
0100
0000
0010
0000
1000
0000
0001
0000
,  // measure 10
1000
0000
0000
0100
0001
0100
0000
0010
0001
0010
0000
0000
1010
0000
0000
0000
,  // measure 11
0100
0000
0000
0001
1000
0001
0000
1000
0010
1000
0000
0000
0011
0000
0000
0000
,  // measure 12
0001
0000
0000
0100
0010
0100
0000
0010
1000
0010
0000
0000
0101
0000
0000
0000
,  // measure 13
0010
0000
0000
1000
0100
1000
0000
0010
1000
0010
1000
0000
0100
0000
0010
0000
,  // measure 14
0001
0000
0000
0010
1000
0010
0000
0100
1000
0100
0000
0000
0101
0000
0000
0000
,  // measure 15
0010
0000
0000
1000
0001
1000
0000
0001
0100
0001
0000
0000
1100
0000
0000
0000
,  // measure 16
1000
0000
0000
0010
0100
0010
0000
0100
0001
0100
0000
0000
1010
0000
0000
0000
,  // measure 17
0100
0000
0000
0001
0010
0001
0000
1000
0000
1000
0000
1000
0000
0100
0001
0100
,  // measure 18
0001
0000
0011
0000
1001
0000
1000
0001
,  // measure 19
0010
0200
0000
0001
0000
0301
0000
0010
,  // measure 20
0001
0000
1100
0000
0110
0000
1000
0100
,  // measure 21
0010
0000
0001
0000
0000
1000
0100
0000
0000
1000
0010
0000
0000
1000
0001
0000
,  // measure 22
0100
0000
0101
0000
0110
0000
0010
0100
,  // measure 23
0001
2000
0000
0100
0000
3100
0000
0001
,  // measure 24
0100
0000
1010
0000
1001
0000
0010
1000
,  // measure 25
0001
0000
0100
0000
0000
0010
1000
0000
0000
0010
0001
0000
0000
0010
0100
0000
,  // measure 26
1001
0000
0000
0100
0010
0000
0000
0100
1000
0000
0000
0010
0100
0000
0000
0000
,  // measure 27
0110
0000
0000
0001
1000
0000
0000
0100
0010
0000
0000
0001
0010
0000
0000
0000
,  // measure 28
1100
0000
0000
0010
0100
0000
0000
0001
0010
0000
0000
0100
0001
0000
0000
0000
,  // measure 29
0101
0000
1000
0100
1100
0000
0010
0001
,  // measure 30
0011
0000
0000
0100
1000
0100
0000
0010
0001
0010
0000
0100
0001
0100
0000
0000
,  // measure 31
0110
0000
0000
1000
0001
1000
0000
0010
0001
0010
0000
0100
0010
0100
0000
0000
,  // measure 32
1001
0000
0000
0100
1000
0100
0000
1000
0010
1000
0000
0100
0001
0100
0000
0000
,  // measure 33
0011
0000
1000
0001
1001
0000
0100
0010
,  // measure 34
0110
1000
0100
1000
0001
0010
0001
0100
,  // measure 35
0010
1000
0100
0010
1000
0100
1000
0010
,  // measure 36
0001
0100
0001
0010
1000
0100
1000
0010
,  // measure 37
0100
0000
0001
0000
0100
0000
1000
0000
0010
0000
0100
0000
0001
1000
0001
1000
,  // measure 38
0001
0000
1100
0100
1100
0000
0010
0001
,  // measure 39
0100
0010
0011
0001
0011
0000
0100
0010
,  // measure 40
0001
0000
0110
0010
0110
0000
1000
0100
,  // measure 41
0010
1000
1001
0001
1001
0000
0010
0010
,  // measure 42
1000
0000
0101
0001
0101
0000
0010
1000
,  // measure 43
0010
0100
1100
1000
1100
0000
0100
0010
,  // measure 44
1000
0000
1010
0010
1010
0000
0100
0001
,  // measure 45
1000
0000
0001
0000
0101
0000
0100
0000
0101
0000
0001
0000
1000
0100
1000
0100
,  // measure 46
1000
0000
0100
0110
0000
0010
0010
0001
,  // measure 47
0101
0000
0000
0000
0100
0000
0000
0100
0000
0000
1001
0000
0000
0010
0000
0000
,  // measure 48
0010
0000
1000
1001
0000
0001
0001
0100
,  // measure 49
1100
0000
0000
0000
1000
0000
0000
1000
0000
0000
0110
0000
0000
0001
0000
0000
,  // measure 50
0001
0000
0010
0110
0000
0100
0100
1000
,  // measure 51
1010
0000
0000
0000
0010
0000
0000
0010
0000
0000
1001
0000
0000
0100
0000
0000
,  // measure 52
0100
0000
0001
1001
0000
1000
1000
0010
,  // measure 53
0011
0000
0000
0000
0001
0000
0000
0001
0000
0000
0110
0000
0000
1000
0000
0000
,  // measure 54
1000
0000
0000
0000
0100
0000
0010
0100
0000
0000
0010
0000
0010
0000
0001
0000
,  // measure 55
0101
0000
0000
0000
0100
0000
0010
0100
0000
0001
0100
0000
0001
0010
0000
0100
,  // measure 56
0010
0000
0000
0000
1000
0000
0001
1000
0000
0000
0001
0000
0001
0000
0100
0000
,  // measure 57
1100
0000
0000
0000
1000
0000
0010
1000
0000
0010
0100
0000
1000
0001
0000
0100
,  // measure 58
0010
0000
0000
0000
0011
0000
0000
0000
1000
0100
1000
0000
1000
0010
1000
0000
,  // measure 59
0100
0000
0001
0010
0001
0000
0100
0000
0000
0000
0010
0000
0000
1001
0000
0000
,  // measure 60
0100
0000
0000
0000
1100
0000
0000
0000
0001
0010
0001
0000
0001
0100
0001
0000
,  // measure 61
0010
0000
1000
0100
1000
0000
0010
0000
0000
0000
0100
0000
0000
1001
0000
0000
,  // measure 62
0010
0000
0000
0000
;
