#VERSION:0.83;
#TITLE:MORTAL KOMBAT (TECHNO REMIX);
#SUBTITLE:;
#ARTIST:SCOOTER;
#TITLETRANSLIT:;
#SUBTITLETRANSLIT:;
#ARTISTTRANSLIT:;
#GENRE:;
#ORIGIN:;
#CREDIT:;
#BANNER:Mortal Kombat (Techno Remix).png;
#BACKGROUND:Mortal Kombat (Techno Remix)-bg.png;
#PREVIEWVID:;
#JACKET:Mortal Kombat (Techno Remix)-jacket.png;
#CDIMAGE:;
#DISCIMAGE:;
#LYRICSPATH:;
#CDTITLE:cdtitle.png;
#MUSIC:Mortal Kombat (Techno Remix).ogg;
#OFFSET:-0.448000;
#SAMPLESTART:0.400000;
#SAMPLELENGTH:15.000000;
#SELECTABLE:YES;
#DISPLAYBPM:134.000000;
#BPMS:0.000=133.930;
#STOPS:;
#DELAYS:;
#WARPS:;
#TIMESIGNATURES:0.000=4=4;
#TICKCOUNTS:0.000=4;
#COMBOS:0.000=1;
#SPEEDS:0.000=1.000=0.000=0;
#SCROLLS:0.000=1.000;
#FAKES:;
#LABELS:0.000=Song Start;
#BGCHANGES:;
#KEYSOUNDS:;
#ATTACKS:
;

//---------------dance-single - ----------------
#NOTEDATA:;
#CHARTNAME:;
#STEPSTYPE:dance-single;
#DESCRIPTION:;
#CHARTSTYLE:;
#DIFFICULTY:Beginner;
#METER:1;
#RADARVALUES:0.077551,0.108095,0.047619,0.066667,0.000000,57.000000,52.000000,5.000000,7.000000,0.000000,0.000000,0.000000,0.000000,0.000000,0.077551,0.108095,0.047619,0.066667,0.000000,57.000000,52.000000,5.000000,7.000000,0.000000,0.000000,0.000000,0.000000,0.000000;
#CREDIT:kater15;
#DISPLAYBPM:134.000000;
#NOTES:
0000
0000
0000
0000
,
0000
0000
0000
0000
,
0000
0000
0000
0000
,
1000
0000
0000
0000
,
0001
0000
0000
0000
,
1000
0000
0000
0000
,
0001
0000
0000
0000
,
0100
0000
0000
0000
,
0010
0000
0000
0000
,
0100
0000
0000
0000
,
0020
0000
0030
0000
,
0001
0000
0000
0000
,
0100
0000
0000
0000
,
0001
0000
0000
0000
,
0100
0000
0000
0000
,
1000
0000
0000
0000
,
0010
0000
0000
0000
,
1000
0000
0000
0000
,
0010
0000
0000
0000
,
1001
0000
0000
0000
,
2000
0000
0000
0000
,
3000
0000
0000
0000
,
0002
0000
0000
0000
,
0003
0000
0000
0000
,
0200
0000
0000
0000
,
0300
0000
0000
0000
,
0020
0000
0000
0000
,
0030
0000
0000
0000
,
0100
0000
0000
0000
,
0100
0000
0000
0000
,
0001
0000
0000
0000
,
1000
0000
0000
0000
,
0110
0000
0000
0000
,
0010
0000
0000
0000
,
1000
0000
0000
0000
,
0001
0000
0000
0000
,
0100
0000
0000
0000
,
0100
0000
0010
0000
,
0010
0000
0000
0000
,
1000
0000
0000
0000
,
0110
0000
0000
0000
,
0100
0000
0000
0000
,
0010
0000
0000
0000
,
0001
0000
0000
0000
,
1001
0000
0000
0000
,
1000
0000
0000
0000
,
0010
0000
0000
0000
,
0100
0000
0010
0000
,
1000
0000
0000
0000
,
0001
0000
0000
0000
,
1000
0000
0000
0000
,
0001
0000
0000
0000
,
0100
0000
0000
0000
,
0010
0000
0000
0000
,
0100
0000
0000
0000
,
0010
0000
0000
0000
,
2002
0000
0000
3003
;

//---------------dance-single - ----------------
#NOTEDATA:;
#CHARTNAME:;
#STEPSTYPE:dance-single;
#DESCRIPTION:;
#CHARTSTYLE:;
#DIFFICULTY:Easy;
#METER:3;
#RADARVALUES:0.182313,0.243214,0.038095,0.095238,0.000000,134.000000,130.000000,4.000000,10.000000,0.000000,0.000000,0.000000,0.000000,0.000000,0.182313,0.243214,0.038095,0.095238,0.000000,134.000000,130.000000,4.000000,10.000000,0.000000,0.000000,0.000000,0.000000,0.000000;
#CREDIT:kater15;
#DISPLAYBPM:134.000000;
#NOTES:
0000
0000
0000
0000
,
0000
0000
0000
0000
,
0000
0000
0000
0000
,
1000
0000
0000
0100
,
0001
0000
0000
0100
,
1000
0000
0000
0100
,
0001
0000
0000
0000
,
0100
0100
0001
0010
,
0100
0100
1000
0010
,
1000
0100
0010
0001
,
0200
0000
0000
0300
,
0001
0000
1000
0000
,
0001
0000
0010
0000
,
0001
0000
1000
0000
,
0100
0000
1000
0000
,
0010
0001
0100
0000
,
0010
1000
0001
0000
,
1000
0100
0010
0000
,
0010
0010
1000
0000
,
0110
0000
0000
0000
,
2000
0000
0000
3000
,
0002
0000
0000
0003
,
2000
0000
0000
3000
,
0002
0000
0000
0003
,
0200
0000
0000
0300
,
0020
0000
0000
0030
,
0200
0000
0000
0300
,
0020
0000
0000
0030
,
0100
0000
1000
0000
,
0010
0000
0100
0000
,
1000
0000
0001
0000
,
1000
0000
0001
0000
,
0110
1000
0100
0000
,
0010
0001
0100
0000
,
1000
0001
0001
0000
,
0010
0100
0010
0000
,
0100
1000
0100
0001
,
0100
0100
0010
0000
,
0010
0000
1000
0000
,
0100
0000
0100
0000
,
0110
1000
0001
0000
,
0100
0100
0010
0000
,
1000
1000
0010
0000
,
0001
0100
0100
0000
,
1001
0100
0010
0000
,
1000
0010
0100
0000
,
0100
0001
0010
0100
,
0100
0001
0010
0100
,
1000
0000
0000
0100
,
0001
0000
0000
0100
,
1000
0000
0000
0100
,
0001
0000
0000
0000
,
0100
0001
0010
0100
,
0010
0010
0001
1000
,
0100
0010
0100
0001
,
1000
0100
0010
0001
,
0200
0000
0000
0300
;

//---------------dance-single - ----------------
#NOTEDATA:;
#CHARTNAME:;
#STEPSTYPE:dance-single;
#DESCRIPTION:;
#CHARTSTYLE:;
#DIFFICULTY:Medium;
#METER:6;
#RADARVALUES:0.280272,0.297262,0.019048,0.038095,0.000000,206.000000,204.000000,2.000000,4.000000,0.000000,0.000000,0.000000,0.000000,0.000000,0.280272,0.297262,0.019048,0.038095,0.000000,206.000000,204.000000,2.000000,4.000000,0.000000,0.000000,0.000000,0.000000,0.000000;
#CREDIT:kater15;
#DISPLAYBPM:134.000000;
#NOTES:
0000
0000
0000
0000
,
0000
0000
0000
0000
,
0000
0000
0000
0000
,
0100
0000
0100
0001
,
0001
0000
0010
0100
,
0001
0000
0100
1000
,
0010
0000
0001
0010
,
0100
0000
0001
0000
0100
0000
0010
1000
,
0010
0000
0100
0000
0001
0000
0100
0100
,
0010
0000
1000
0000
0100
0000
1000
1000
,
0002
0000
0000
0003
,
1000
0000
0000
0000
1000
0000
0010
0001
,
1000
0000
0000
0000
0100
0000
0010
1000
,
0100
0000
0000
0000
0100
0000
0010
0010
,
0001
0000
0000
0000
0001
0000
0100
1000
,
0100
0000
0010
0000
1000
0000
0100
0010
,
0001
0000
0100
0000
0100
0000
0010
0100
,
0010
0000
1000
0000
0100
0000
0010
1000
,
1000
0000
0001
0000
0100
0000
0010
1000
,
0200
0000
0000
0300
,
1000
0000
0000
0000
0000
0000
0100
0010
,
0100
0000
0000
0000
0000
0000
0001
1000
,
0001
0000
0000
0000
0000
0000
1000
0100
,
1000
0000
0000
0000
0000
0000
0010
0001
,
0010
0000
0000
0000
0000
0000
0001
0100
,
0001
0000
0000
0000
0000
0000
0010
1000
,
0010
0000
0000
0000
0000
0000
1000
0001
,
1000
0000
0000
0000
0000
0000
0100
0100
,
0010
1000
0100
1000
,
0010
1000
0100
0001
,
0010
0010
0100
0001
,
0100
0010
1000
0001
,
1100
0010
0010
1000
,
0100
0010
0100
0001
,
1000
0010
0100
0100
,
0001
1000
0001
0100
,
0100
0000
0010
0000
,
1000
0100
0010
0000
0100
0000
0000
0000
,
0001
0000
0100
0000
0000
0000
0100
0010
,
1000
0000
0000
0000
0000
0000
0100
0001
,
1000
0000
0100
0000
0000
0000
0010
0001
,
1000
0000
0010
0000
0000
0000
0100
0100
,
0010
0000
1000
0000
0000
0000
0100
0010
,
0010
0000
1000
0000
0000
0000
1000
0100
,
1000
0000
0010
0000
1000
0000
0100
0100
,
0010
0000
1000
0000
0100
0000
1000
0001
,
0001
0000
0100
0000
0010
0000
1000
0100
,
0001
0010
0100
1000
,
0100
0000
0000
0000
0100
0000
0001
0010
,
0001
0000
0000
0000
0010
0000
0100
0010
,
0001
0000
0000
0000
0100
0000
1000
0001
,
0010
0000
0001
0010
,
0100
0000
0001
0000
0100
0000
0010
1000
,
0010
0000
0100
0000
0001
0000
0100
0100
,
0010
0000
1000
0000
0100
0000
1000
1000
,
0001
0100
0010
0001
,
2200
0000
0000
3300
;

//---------------dance-single - ----------------
#NOTEDATA:;
#CHARTNAME:;
#STEPSTYPE:dance-single;
#DESCRIPTION:;
#CHARTSTYLE:;
#DIFFICULTY:Hard;
#METER:7;
#RADARVALUES:0.414966,0.567500,0.085714,0.057143,0.461905,305.000000,296.000000,9.000000,6.000000,0.000000,0.000000,0.000000,0.000000,0.000000,0.414966,0.567500,0.085714,0.057143,0.461905,305.000000,296.000000,9.000000,6.000000,0.000000,0.000000,0.000000,0.000000,0.000000;
#CREDIT:kater15;
#DISPLAYBPM:134.000000;
#NOTES:
// measure 0
0000
0000
0000
0000
,  // measure 1
0000
0000
0000
0000
,  // measure 2
0000
0000
0000
0000
,  // measure 3
1000
0000
0000
1000
0000
0000
1000
0000
0000
1000
0000
0000
1000
0000
0100
0000
,  // measure 4
0001
0000
0000
0001
0000
0000
0001
0000
0000
0001
0000
0000
0001
0000
1000
0000
,  // measure 5
0100
0000
0000
0100
0000
0000
0100
0000
0000
0100
0000
0000
0100
0000
1000
0000
,  // measure 6
0010
0000
0000
0010
0000
0000
0010
0000
0001
1000
0000
0001
1000
0000
0000
0000
,  // measure 7
0100
0000
0000
0100
0000
0000
0100
0000
0000
0100
0000
0000
0100
0000
1000
0000
,  // measure 8
0010
0000
0000
0010
0000
0000
0010
0000
0000
0010
0000
0000
0010
0000
0100
0000
,  // measure 9
1000
0000
0000
1000
0000
0000
1000
0000
0000
1000
0000
0000
1000
0000
0010
0000
,  // measure 10
0002
0000
0000
0003
,  // measure 11
1000
0000
0000
0010
0000
0000
1000
0000
0000
0010
0000
0000
0001
0000
1000
0000
,  // measure 12
0100
0000
0000
0001
0000
0000
0100
0000
0000
0001
0000
0000
1000
0000
0100
0000
,  // measure 13
0010
0000
0000
0100
0000
0000
0010
0000
0000
0100
0000
0000
0001
0000
0010
0000
,  // measure 14
1000
0000
0000
0001
0000
0000
1000
0000
0000
0001
0000
0000
0020
0000
0030
0000
,  // measure 15
0001
0100
0000
0001
0100
0000
0001
0100
0000
0001
0100
0000
1000
0000
0001
0000
,  // measure 16
0010
1000
0000
0010
1000
0000
0010
1000
0000
0010
1000
0000
0001
0000
0010
0000
,  // measure 17
0100
0010
0000
0100
0010
0000
0100
0010
0000
0100
0010
0000
1000
0000
0100
0000
,  // measure 18
0001
1000
0000
0001
1000
0000
0001
1000
0000
0001
1000
0000
0200
0000
0300
0000
,  // measure 19
0020
0000
0000
0030
,  // measure 20
1000
0000
0000
0100
0000
0000
1000
0000
0000
0010
0000
0000
0100
0000
0100
0000
,  // measure 21
0001
0000
0000
0001
0000
0000
1000
0000
0000
0010
0000
0000
0100
0000
1000
0000
,  // measure 22
0001
0000
0000
0100
0000
0000
0100
0000
0000
0010
0000
0000
0100
0000
0100
0000
,  // measure 23
0010
0000
0000
1000
0000
0000
0001
0000
0000
0100
0000
0000
0010
0000
0001
0000
,  // measure 24
0010
0000
0000
0100
0000
0000
1000
0000
0000
0001
0000
0000
0100
0000
0001
0000
,  // measure 25
1000
0000
0000
0001
0000
0000
0100
0000
0000
0010
0000
0000
0010
0000
0010
0000
,  // measure 26
0100
0000
0000
0001
0000
0000
1000
0000
0000
0010
0000
0000
1000
0000
0010
0000
,  // measure 27
0010
0000
0000
0100
0000
0000
0001
0000
0000
0010
0000
0000
1000
0000
0001
0000
,  // measure 28
0100
0000
0010
0000
0000
1000
0000
0000
0001
0000
0000
0100
0000
0000
0010
0000
,  // measure 29
0000
0000
1000
0000
0000
0100
0000
0000
1000
0000
0000
0010
0000
0000
0100
0000
,  // measure 30
0000
0000
0001
0000
0000
0010
0000
0000
0100
0000
0000
1000
0000
0000
0010
0000
,  // measure 31
0000
0000
0100
0000
0000
0100
0000
0000
0001
0000
0000
0100
0000
0000
1000
0000
,  // measure 32
0000
0000
0010
0000
0000
1000
0000
0000
0010
0000
0000
0001
0000
0000
0010
0000
,  // measure 33
0000
0000
0100
0000
0000
1000
0000
0000
0100
0000
0000
0001
0000
0000
0100
0000
,  // measure 34
0000
0000
1000
0000
0000
0100
0000
0000
1000
0000
0000
0001
0000
0000
0010
0000
,  // measure 35
0000
0000
0001
0000
0000
0001
0000
0000
0100
0000
0000
0010
0000
0000
0100
0000
,  // measure 36
0010
0011
0001
0101
,  // measure 37
0100
0110
0010
1010
,  // measure 38
1000
1001
0001
0101
,  // measure 39
0100
1100
1000
1010
,  // measure 40
0010
0000
0000
0000
0000
0000
1000
0100
,  // measure 41
0001
0000
0000
0000
0000
0000
1000
0100
,  // measure 42
0010
0000
0000
0000
0000
0000
0100
0010
,  // measure 43
1000
0000
0000
0000
0000
0000
0001
0100
,  // measure 44
0010
0000
0100
0000
0000
0001
0000
0000
1000
0000
0000
0010
0000
0000
0100
0000
,  // measure 45
0000
0000
0001
0000
0000
0010
0000
0000
0001
0000
0000
0100
0000
0000
0010
0000
,  // measure 46
0000
0000
1000
0000
0000
0100
0000
0000
0010
0000
0000
0001
0000
0000
0100
0000
,  // measure 47
0000
0000
0010
0000
0000
0010
0000
0000
1000
0000
0000
0010
0000
0000
0001
0000
,  // measure 48
1000
0000
0000
1000
0000
0000
1000
0000
0000
1000
0000
0000
1000
0000
0100
0000
,  // measure 49
0001
0000
0000
0001
0000
0000
0001
0000
0000
0001
0000
0000
0001
0000
1000
0000
,  // measure 50
0100
0000
0000
0100
0000
0000
0100
0000
0000
0100
0000
0000
0100
0000
1000
0000
,  // measure 51
0010
0000
0000
0010
0000
0000
0010
0000
0001
1000
0000
0001
1000
0000
0000
0000
,  // measure 52
0100
0000
0000
0100
0000
0000
0100
0000
0000
0100
0000
0000
0100
0000
1000
0000
,  // measure 53
0010
0000
0000
0010
0000
0000
0010
0000
0000
0010
0000
0000
0010
0000
0100
0000
,  // measure 54
1000
0000
0000
1000
0000
0000
1000
0000
0000
1000
0000
0000
1000
0000
0010
0000
,  // measure 55
0001
0000
0000
0001
0000
0000
0001
0000
0100
0010
0000
0100
0010
0000
0000
0000
,  // measure 56
0220
0000
0000
0330
;
