#VERSION:0.83;
#TITLE:Marca da Promessa;
#SUBTITLE:;
#ARTIST:Trazendo a Arca;
#TITLETRANSLIT:;
#SUBTITLETRANSLIT:;
#ARTISTTRANSLIT:;
#GENRE:;
#ORIGIN:;
#CREDIT:;
#BANNER:Marca da Promessa.png;
#BACKGROUND:Marca da Promessa-bg.png;
#PREVIEWVID:;
#JACKET:Marca da Promessa-jacket.png;
#CDIMAGE:;
#DISCIMAGE:;
#LYRICSPATH:;
#CDTITLE:cdtitle.png;
#MUSIC:Marca da Promessa.ogg;
#OFFSET:0.000000;
#SAMPLESTART:89.510002;
#SAMPLELENGTH:15.000000;
#SELECTABLE:YES;
#DISPLAYBPM:129.000000;
#BPMS:0.000=33.100,
4.000=129.020,
132.000=128.520,
148.000=129.020;
#STOPS:172.000=1.860;
#DELAYS:;
#WARPS:;
#TIMESIGNATURES:0.000=4=4;
#TICKCOUNTS:0.000=4;
#COMBOS:0.000=1;
#SPEEDS:0.000=1.000=0.000=0;
#SCROLLS:0.000=1.000;
#FAKES:;
#LABELS:0.000=Song Start;
#BGCHANGES:;
#KEYSOUNDS:;
#ATTACKS:
;

//---------------dance-single - ----------------
#NOTEDATA:;
#CHARTNAME:;
#STEPSTYPE:dance-single;
#DESCRIPTION:;
#CHARTSTYLE:;
#DIFFICULTY:Easy;
#METER:5;
#RADARVALUES:0.183467,0.224281,0.104534,0.074667,0.000000,172.000000,158.000000,14.000000,10.000000,0.000000,0.000000,0.000000,0.000000,0.000000,0.183467,0.224281,0.104534,0.074667,0.000000,172.000000,158.000000,14.000000,10.000000,0.000000,0.000000,0.000000,0.000000,0.000000;
#CREDIT:;
#DISPLAYBPM:129.000000;
#NOTES:
0000
0000
0000
0000
,
0000
0000
0000
0000
,
0000
0000
0000
0000
,
0000
0000
0000
0000
,
0000
0000
0000
0000
,
0001
0100
0001
0000
,
1000
0100
1000
0010
,
0001
0000
0100
0100
,
0010
0000
0001
0000
,
1000
0010
1000
0000
,
0001
0010
0001
0100
,
2000
0000
0000
0001
,
3001
0000
0100
0100
,
1001
0000
0010
0010
,
1001
0000
0100
0001
,
0010
0010
1000
0100
,
0010
0000
1000
1000
,
0110
0000
0001
0001
,
0110
0000
1000
0010
,
0002
0003
2000
3000
,
0020
0000
0000
0030
,
0010
0000
1000
0100
,
0001
0000
0001
1001
,
1000
0000
1000
0001
,
0010
1000
0100
0010
,
0001
0000
0100
0001
,
0010
0000
0010
0110
,
0100
0000
0100
0010
,
1000
0100
0001
1000
,
0020
0000
0000
0000
,
0000
0000
0030
0000
,
0200
0000
0000
0000
,
0000
0000
0300
0000
,
0002
0000
0000
0000
,
0000
0000
0003
0000
,
2000
0000
0000
0000
,
0000
0000
3000
0000
,
1001
0000
0010
0010
,
1001
0000
0100
0001
,
0010
0010
1000
0100
,
0010
0000
1000
1000
,
0110
0000
0001
0001
,
0110
0000
1000
0100
,
0020
0000
0000
0030
,
0010
0000
1000
0100
,
0001
0000
0001
1001
,
1000
0000
1000
0001
,
0010
1000
0100
0010
,
0001
0000
0100
0001
,
0010
0000
0010
0110
,
0100
0000
0100
0010
,
1000
0100
0001
1000
,
0100
0000
0001
0010
,
1000
0000
1000
1001
,
0001
0000
0001
1000
,
0100
0001
0010
0100
,
1000
0000
0010
1000
,
0100
0000
0100
0110
,
0010
0000
0010
0100
,
0001
0010
1000
0001
,
0010
0000
1000
0100
,
0001
0000
0001
0000
,
1000
0000
1000
0000
,
0010
0000
0100
0000
,
0002
0000
0000
0000
,
0000
0000
0000
0000
,
0000
0000
0000
0003
;

//---------------dance-single - ----------------
#NOTEDATA:;
#CHARTNAME:;
#STEPSTYPE:dance-single;
#DESCRIPTION:;
#CHARTSTYLE:;
#DIFFICULTY:Beginner;
#METER:3;
#RADARVALUES:0.114134,0.174441,0.007467,0.044800,0.000000,107.000000,106.000000,1.000000,6.000000,0.000000,0.000000,0.000000,0.000000,0.000000,0.114134,0.174441,0.007467,0.044800,0.000000,107.000000,106.000000,1.000000,6.000000,0.000000,0.000000,0.000000,0.000000,0.000000;
#CREDIT:;
#DISPLAYBPM:129.000000;
#NOTES:
0000
0000
0000
0000
,
0000
0000
0000
0000
,
0000
0000
0000
0000
,
0000
0000
0000
0000
,
0000
0000
0000
0000
,
0001
0000
0000
0000
,
1000
0000
0000
0001
,
0001
0000
0100
0000
,
0020
0000
0030
0000
,
1000
0000
0000
0000
,
0001
0000
0000
1000
,
1000
0000
0010
0000
,
0000
0000
0100
0100
,
0100
0000
0010
0010
,
0010
0000
0100
0000
,
0001
0001
0000
0000
,
0010
0000
1000
1000
,
1000
0000
0001
0001
,
0001
0000
0100
0000
,
0010
0010
0010
0010
,
0020
0000
0000
0000
,
0030
0000
0100
0000
,
0100
0000
0001
0000
,
1000
0000
0000
0000
,
0010
0000
0100
0000
,
0001
0000
0010
0000
,
0010
0000
1000
0000
,
0001
0000
0000
0000
,
0100
0000
0010
0000
,
1000
0000
0000
0000
,
0001
0000
0000
0000
,
1000
0000
0000
0000
,
0001
0000
0000
0000
,
0100
0000
0000
0000
,
0010
0000
0000
0000
,
0100
0000
0000
0000
,
0010
0000
0100
0100
,
0100
0000
0010
0010
,
0010
0000
0100
0000
,
0001
0001
0000
0000
,
0010
0000
1000
1000
,
1000
0000
0001
0001
,
0001
0000
1000
0000
,
0200
0000
0000
0000
,
0300
0000
0010
0000
,
0010
0000
1000
0000
,
0001
0000
0000
0000
,
0100
0000
0010
0000
,
1000
0000
0100
0000
,
0100
0000
0001
0000
,
1000
0000
0000
0000
,
0100
0000
0010
0000
,
1000
0000
0100
0000
,
0100
0000
0001
0000
,
1000
0000
0000
0000
,
0010
0000
0100
0000
,
0001
0000
0010
0000
,
0010
0000
1000
0000
,
0001
0000
0000
0000
,
0100
0000
0010
0000
,
0100
0000
1000
0000
,
0001
0000
2000
0000
,
3000
0000
0000
0000
,
0100
0000
0100
0000
,
2002
0000
0000
0000
,
0000
0000
0000
0000
,
0000
0000
0000
3003
;

//---------------dance-single - ----------------
#NOTEDATA:;
#CHARTNAME:;
#STEPSTYPE:dance-single;
#DESCRIPTION:;
#CHARTSTYLE:;
#DIFFICULTY:Medium;
#METER:9;
#RADARVALUES:0.275201,0.319108,0.216534,0.014933,0.022400,258.000000,229.000000,29.000000,2.000000,0.000000,0.000000,0.000000,0.000000,0.000000,0.275201,0.319108,0.216534,0.014933,0.022400,258.000000,229.000000,29.000000,2.000000,0.000000,0.000000,0.000000,0.000000,0.000000;
#CREDIT:;
#DISPLAYBPM:129.000000;
#NOTES:
0000
0000
0000
0000
,
0000
0000
0000
0000
,
0000
0000
0000
0000
,
0000
0000
0000
0000
,
0000
0000
0000
0000
,
1000
0000
1000
0000
1000
0001
1000
0000
,
0001
0000
0001
0000
0001
1000
0001
0000
,
0110
0000
0000
0000
1000
0000
0010
0001
,
0100
0000
0000
1000
0000
0000
1000
0000
,
0010
0000
0010
0000
0010
0100
0010
0000
,
0100
0000
0100
0000
0100
0010
0100
0000
,
1001
0000
0000
0000
0010
0000
0001
0100
,
1000
0000
0000
0010
0000
0000
0010
0000
,
0101
0000
0000
0100
0000
0000
0100
0000
,
1010
0000
0001
1000
,
0011
0000
1010
0000
1000
0000
0001
0010
,
0000
0000
0000
0001
0000
0000
0001
0000
,
1100
0000
0000
1000
0000
0000
1000
0000
,
0011
0000
0100
0010
,
1000
0001
1000
0001
,
1000
0001
1000
0001
1000
0001
1000
0001
,
1000
0000
0000
0000
1000
1000
0100
0000
,
0010
0000
0000
0000
1000
0100
0001
0000
,
0011
0000
0000
0001
1000
0000
0100
0000
,
0010
0000
0100
0000
0001
0010
0100
0000
,
0010
0000
0000
0000
0001
0001
0010
0000
,
0100
0000
0000
0000
0001
0010
1000
0000
,
1100
0000
0000
0010
0100
0000
1000
0000
,
0001
0000
0000
0001
0000
0000
0001
0000
0000
0001
0000
0000
0001
0000
0000
0000
,
0010
0000
0000
1001
0000
0000
0100
0000
,
0010
0000
0000
1100
0000
0000
0001
0000
,
1000
0000
0000
0110
0000
0000
0010
0000
,
0100
0000
0000
0101
0000
0000
1000
0000
,
0100
0000
0000
1100
0000
0000
0010
0000
,
0100
0000
0000
0101
0000
0000
1000
0000
,
0010
0000
0000
1001
0000
0000
0100
0000
,
1000
0000
0000
0010
0000
0000
0010
0000
,
0101
0000
0000
0100
0000
0000
0100
0000
,
1010
0000
0001
1000
,
0011
0000
1010
0000
1000
0000
0001
0010
,
0000
0000
0000
0001
0000
0000
0001
0000
,
1100
0000
0000
1000
0000
0000
1000
0000
,
0011
0000
0100
0010
,
0001
0000
1000
0001
1000
0001
1000
0001
,
1000
0000
0000
0000
1000
1000
0100
0000
,
0010
0000
0000
0000
1000
0100
0001
0000
,
0011
0000
0000
0001
1000
0000
0100
0000
,
0010
0000
0100
0000
0001
0010
0100
0000
,
0010
0000
0000
0000
0001
0001
0010
0000
,
0100
0000
0000
0000
0001
0010
1000
0000
,
1100
0000
0000
0010
0100
0000
1000
0000
,
0001
0000
0000
0001
0000
0000
0001
0000
0000
0001
0000
0000
0001
0000
0000
0000
,
0100
0000
0000
0000
0100
0100
0001
0000
,
1000
0000
0000
0000
0100
0001
0010
0000
,
1010
0000
0000
0010
0100
0000
0001
0000
,
1000
0000
0001
0000
0010
1000
0001
0000
,
1000
0000
0000
0000
0010
0010
1000
0000
,
0001
0000
0000
0000
0010
1000
0100
0000
,
0101
0000
0000
1000
0001
0000
0100
0000
,
0010
0000
0000
0010
0000
0000
0010
0000
0000
0010
0000
0000
0010
0000
0000
0000
,
1000
0000
0000
0000
1000
1000
0100
0000
,
0010
0000
0000
0000
1000
0100
0001
0000
,
0011
0000
0000
0001
1000
0000
0000
0000
,
2002
0000
0000
0000
,
0000
0000
0000
0000
,
0000
0000
0000
3003
;

//---------------dance-single - ----------------
#NOTEDATA:;
#CHARTNAME:;
#STEPSTYPE:dance-single;
#DESCRIPTION:;
#CHARTSTYLE:;
#DIFFICULTY:Hard;
#METER:11;
#RADARVALUES:0.410668,0.417295,0.276268,0.052267,0.026133,385.000000,348.000000,37.000000,7.000000,0.000000,0.000000,0.000000,0.000000,0.000000,0.410668,0.417295,0.276268,0.052267,0.026133,385.000000,348.000000,37.000000,7.000000,0.000000,0.000000,0.000000,0.000000,0.000000;
#CREDIT:;
#DISPLAYBPM:129.000000;
#NOTES:
// measure 0
0000
0000
0000
0000
,  // measure 1
0000
0000
0000
0000
,  // measure 2
0000
0000
0000
0000
,  // measure 3
0000
0000
0000
0000
,  // measure 4
0000
0000
0000
0000
,  // measure 5
0001
0000
0100
0000
1000
0000
0100
0000
0010
0000
0000
0001
0000
0000
1000
0000
,  // measure 6
0100
0000
0000
0010
0000
0000
0001
0000
0000
0010
0000
0000
1000
0000
0000
0000
0001
0000
0000
0000
0100
0000
0000
0000
,  // measure 7
0020
0000
0031
0000
0100
1000
0010
0100
,  // measure 8
0001
0000
0000
0000
0000
0000
0001
0000
0000
0110
0000
0000
1000
0000
0000
0000
,  // measure 9
0010
0000
0001
0000
0100
0000
0001
0000
1000
0000
0000
0010
0000
0000
0100
0000
,  // measure 10
0001
0000
1000
0000
0010
0000
1000
0000
0100
0000
0000
0001
0000
0000
0100
0000
,  // measure 11
2000
0000
3010
0000
0001
0100
1000
0001
,  // measure 12
0100
0100
0100
0000
0010
0001
0010
0100
,  // measure 13
1000
0000
0000
0000
1000
0100
0010
0001
,  // measure 14
0100
0000
0000
0100
0100
0001
0000
0010
,  // measure 15
1000
0100
0010
0000
1000
0100
0010
0001
,  // measure 16
0000
0100
0100
0010
1000
0100
0010
0001
,  // measure 17
0100
0000
0000
0000
0001
0010
0100
1000
,  // measure 18
0010
0000
0000
1000
0001
0010
0001
0100
,  // measure 19
1100
0101
0011
1010
,  // measure 20
1000
0100
1000
0010
0001
0010
1000
0100
,  // measure 21
0010
0000
1000
0000
0001
0001
1000
1000
,  // measure 22
0010
0000
0110
0000
0100
1000
0010
0100
,  // measure 23
0001
0000
1001
0100
0010
0000
1001
0100
,  // measure 24
0010
1100
0101
1100
,  // measure 25
0010
0001
0100
0000
0010
0010
0001
0001
,  // measure 26
0200
0000
0000
1000
1300
0000
0010
0001
,  // measure 27
0100
0000
1000
1000
0001
0100
0010
1000
,  // measure 28
0100
0010
0001
0100
0100
0010
0001
0100
,  // measure 29
1000
0000
0100
0010
0000
0010
0100
0000
,  // measure 30
1001
0000
0100
1000
0000
0001
0010
0000
,  // measure 31
0110
0000
1000
1000
0000
0001
0001
0000
,  // measure 32
1010
0000
0100
0001
0000
1000
0010
0000
,  // measure 33
0110
0000
1000
0001
0000
0100
0010
0000
,  // measure 34
1100
0000
0001
1000
0000
1000
0001
0000
,  // measure 35
0011
0000
0100
0010
0000
0010
0100
0000
,  // measure 36
1010
0000
0001
0010
0000
0100
0010
0000
,  // measure 37
1001
0000
0000
0000
1000
0100
0010
0001
,  // measure 38
0100
0000
0000
0100
0100
0001
0000
0010
,  // measure 39
1000
0100
0010
0000
1000
0100
0010
0001
,  // measure 40
0000
0100
0100
0010
1000
0100
0010
0001
,  // measure 41
0100
0000
0000
0000
0001
0010
0100
1000
,  // measure 42
0010
0000
0000
1000
0001
0010
0001
0100
,  // measure 43
0010
1000
0000
0000
0000
0000
0000
0000
0000
0000
0000
0000
0000
0000
0000
0000
0000
0000
0000
0000
0000
0000
0000
0000
0100
0000
0000
0000
0000
0000
0000
0000
0000
0000
0000
0000
0000
0000
0000
0000
0000
0000
0000
0000
0000
0000
0000
0000
1000
0000
0000
0000
0000
0000
0000
0000
0000
0000
0000
0000
0000
0000
0000
0000
0000
0000
0000
0000
0000
0000
0000
0000
0010
0000
0000
0000
0000
0000
0000
0000
0000
0000
0000
0000
0000
0000
0000
0000
0000
0000
0000
0000
0000
0000
0000
0000
0001
0000
0000
0000
0000
0000
0000
0000
0000
0000
0000
0000
0000
0000
0000
0000
0000
0000
0000
0000
0000
0000
0000
0000
0010
0000
0000
0000
0000
0000
0000
0000
0000
0000
0000
0000
0000
0000
0000
0000
0000
0000
0000
0000
0000
0000
0000
0000
1000
0000
0000
0000
0000
0000
0000
0000
0000
0000
0000
0000
0000
0000
0000
0000
0000
0000
0000
0000
0000
0000
0000
0000
0100
0000
0000
0000
0000
0000
0000
0000
0000
0000
0000
0000
0000
0000
0000
0000
0000
0000
0000
0000
0000
0000
0000
0000
,  // measure 44
0010
0000
0100
0100
0001
0001
1000
1000
,  // measure 45
0010
0000
0110
0000
0100
1000
0010
0100
,  // measure 46
0001
0000
1001
0100
0010
0000
1001
0100
,  // measure 47
0010
1100
0101
1100
,  // measure 48
0010
0001
0100
0000
0010
0010
0001
0001
,  // measure 49
0200
0000
0000
1000
1300
0000
0010
0001
,  // measure 50
0100
0000
1000
1000
0001
0100
0010
1000
,  // measure 51
0100
0010
0001
0100
0100
0010
0001
0100
,  // measure 52
1000
0000
0110
0000
1000
1000
0001
0001
,  // measure 53
0100
0000
0110
0000
0010
0001
0100
0010
,  // measure 54
1000
0000
1001
0010
0100
0000
1001
0010
,  // measure 55
0100
0011
1010
0011
,  // measure 56
0100
1000
0010
0000
0100
0100
1000
1000
,  // measure 57
0020
0000
0000
0001
0031
0000
0100
1000
,  // measure 58
0010
0000
0001
0001
1000
0010
0100
0001
,  // measure 59
0010
0100
1000
0010
0010
0100
1000
0010
,  // measure 60
0001
0000
0100
0100
0001
0001
1000
1000
,  // measure 61
0010
0000
0110
0000
0100
1000
0010
0100
,  // measure 62
0001
0110
1001
0110
,  // measure 63
2002
0000
0000
0000
,  // measure 64
0000
0000
0000
0000
,  // measure 65
0000
0000
0000
3003
;

//---------------dance-single - ----------------
#NOTEDATA:;
#CHARTNAME:;
#STEPSTYPE:dance-single;
#DESCRIPTION:;
#CHARTSTYLE:;
#DIFFICULTY:Challenge;
#METER:15;
#RADARVALUES:0.599469,0.687310,0.388268,0.014933,0.392002,562.000000,510.000000,52.000000,2.000000,0.000000,0.000000,0.000000,0.000000,0.000000,0.599469,0.687310,0.388268,0.014933,0.392002,562.000000,510.000000,52.000000,2.000000,0.000000,0.000000,0.000000,0.000000,0.000000;
#CREDIT:;
#DISPLAYBPM:129.000000;
#NOTES:
0000
0000
0000
0000
,
0000
0000
0000
0000
,
0000
0000
0000
0000
,
0000
0000
0000
0000
,
0000
0000
0000
0000
,
0010
0000
0100
0000
0001
0000
1000
0000
0010
0000
0100
0001
0000
0010
1000
0100
,
1000
0000
0000
0010
0000
0000
0001
0000
0000
0001
0000
0000
0010
0000
0100
0000
0010
0000
1000
0000
0100
0000
1000
0000
,
0010
0000
0100
0001
1000
0000
0000
0000
0100
0000
1000
0001
0000
0100
0010
0000
,
0001
1000
0000
0000
0000
0000
0001
1000
0000
0010
0100
0000
1000
0001
0100
0010
,
0100
0000
0010
0000
1000
0000
0001
0000
0100
0000
0010
1000
0000
0100
0001
0010
,
0001
0000
0100
0000
1000
0000
1000
0000
0100
0000
0010
0000
0001
0010
0001
1000
,
0100
0000
0010
1000
0100
0100
1000
0001
,
0100
0001
0010
0001
0100
0000
0000
0000
0010
1000
0001
0100
0001
0010
0100
0010
,
1000
0000
0000
0000
0101
0000
0000
0000
1000
0000
0010
0001
0010
0000
1000
0000
,
0100
0000
0000
0000
1100
0000
0010
0000
0100
0000
0001
1000
0000
0001
0010
0000
,
1100
0001
0101
0000
1000
0100
0010
0001
,
0000
0000
0100
0000
0100
0000
0010
0000
1000
0000
0100
0000
0010
1000
0001
1000
,
0100
0000
0000
0000
0110
0000
0000
0000
0010
0000
0001
0000
0100
0010
1000
0100
,
0010
0000
0000
0000
0110
0000
1000
0000
0001
0000
0010
1000
0001
0010
0100
0000
,
1000
0001
0100
0010
0100
1000
0010
0100
,
1000
0001
1000
0010
1000
0001
1000
0100
1000
0001
1000
0010
1000
0001
1000
0100
,
0001
0000
0000
0000
1000
0000
0000
0000
0010
0000
0001
0100
1000
0000
1000
0100
,
0001
0000
0000
0000
1100
0000
0000
0000
0100
0000
0010
0001
0010
0000
0100
1000
,
0100
0000
1001
0100
0010
1000
0100
0010
,
0010
0001
1100
1000
0011
0001
1010
0100
,
0010
0000
0001
0000
0100
0000
0000
0000
0010
0000
0010
1000
0001
0000
0001
1000
,
0100
0000
0000
0000
0011
0000
1000
0000
1000
0000
0010
0001
0100
0000
0010
1000
,
0100
0000
1010
1000
0001
0100
0010
1000
,
0100
0000
0001
1000
0001
0010
0100
0000
0001
0000
1000
0010
0100
0001
0100
0010
,
1000
0001
0100
0011
1000
1000
0100
0010
,
1001
0001
0100
1100
1000
0001
0010
0100
,
0011
0001
1000
1010
0100
0010
1000
0100
,
1001
0001
0100
0110
1000
1000
0010
0100
,
0011
1000
0100
1010
0010
0100
0001
0010
,
1100
1000
0001
1010
0010
1000
0001
0100
,
0011
0001
0100
0110
1000
0010
0100
0001
,
1000
0001
1000
0001
1000
0000
0010
0000
0100
0010
0100
0010
0100
0010
0100
0000
,
1001
0000
0000
0000
1010
0000
0000
0000
0001
0000
0100
1000
0100
0000
0001
0000
,
0010
0000
0000
0000
0011
0000
0100
0000
0010
0000
1000
0001
0000
1000
0100
0000
,
0011
1000
1010
0000
0001
0010
0100
1000
,
0000
0000
0010
0000
0010
0000
0100
0000
0001
0000
0010
0000
0100
0001
1000
0001
,
0010
0000
0000
0000
0110
0000
0000
0000
0100
0000
1000
0000
0010
0100
0001
0010
,
0100
0000
0000
0000
0110
0000
0001
0000
1000
0000
0100
0001
1000
0100
0010
0000
,
0100
1000
0000
0000
0000
0000
0000
0000
0000
0000
0000
0000
0001
0000
0000
0000
0000
0000
0000
0000
0000
0000
0000
0000
1000
0000
0000
0000
0000
0000
0000
0000
0000
0000
0000
0000
0010
0000
0000
0000
0000
0000
0000
0000
0000
0000
0000
0000
1000
0000
0000
0000
0000
0000
0000
0000
0000
0000
0000
0000
0001
0000
0000
0000
0000
0000
0000
0000
0000
0000
0000
0000
1000
0000
0000
0000
0000
0000
0000
0000
0000
0000
0000
0000
0100
0000
0000
0000
0000
0000
0000
0000
0000
0000
0000
0000
1000
0000
0000
0000
0000
0000
0000
0000
0000
0000
0000
0000
0001
0000
0000
0000
0000
0000
0000
0000
0000
0000
0000
0000
1000
0000
0000
0000
0000
0000
0000
0000
0000
0000
0000
0000
0010
0000
0000
0000
0000
0000
0000
0000
0000
0000
0000
0000
1000
0000
0000
0000
0000
0000
0000
0000
0000
0000
0000
0000
0001
0000
0000
0000
0000
0000
0000
0000
0000
0000
0000
0000
1000
0000
0000
0000
0000
0000
0000
0000
0000
0000
0000
0000
0100
0000
0000
0000
0000
0000
0000
0000
0000
0000
0000
0000
,
0001
0000
0000
0000
1000
0000
0000
0000
0010
0000
0001
0100
1000
0000
1000
0100
,
0001
0000
0000
0000
1100
0000
0000
0000
0100
0000
0010
0001
0010
0000
0100
1000
,
0100
0000
1001
0100
0010
1000
0100
0010
,
0010
0001
1100
1000
0011
0001
1010
0100
,
0010
0000
0001
0000
0100
0000
0000
0000
0010
0000
0010
1000
0001
0000
0001
1000
,
0100
0000
0000
0000
0011
0000
1000
0000
1000
0000
0010
0001
0100
0000
0010
1000
,
0100
0000
1010
1000
0001
0100
0010
1000
,
0100
0000
0001
1000
0001
0010
0100
0000
0001
0000
1000
0010
0100
0001
0100
0010
,
1000
0000
0000
0000
0001
0000
0000
0000
0100
0000
1000
0010
0001
0000
0001
0010
,
1000
0000
0000
0000
0011
0000
0000
0000
0010
0000
0100
1000
0100
0000
0010
0001
,
0010
0000
1001
0010
0100
0001
0010
0100
,
0100
1000
0011
0001
1100
1000
0101
0010
,
0100
0000
1000
0000
0010
0000
0000
0000
0100
0000
0100
0001
1000
0000
1000
0001
,
0010
0000
0000
0000
1100
0000
0001
0000
0001
0000
0100
1000
0010
0000
0100
0001
,
0010
0000
1010
1000
0001
0100
0010
1000
,
0100
0000
0001
1000
0001
0010
0100
0000
0001
0000
1000
0010
0100
0001
0100
0010
,
1000
0000
0100
0100
0001
0001
1000
1000
,
0010
0000
0110
0000
0100
1000
0010
0100
,
0001
0110
1001
0110
,
2002
0000
0000
0000
,
0000
0000
0000
0000
,
0000
0000
0000
3003
;
