#VERSION:0.83;
#TITLE:Malacca;
#SUBTITLE:(kater15 edit);
#ARTIST:nc ft NRG factory;
#TITLETRANSLIT:;
#SUBTITLETRANSLIT:;
#ARTISTTRANSLIT:;
#GENRE:;
#ORIGIN:;
#CREDIT:;
#BANNER:Malacca(kater15 edit).png;
#BACKGROUND:Malacca(kater15 edit)-bg.png;
#PREVIEWVID:;
#JACKET:Malacca(kater15 edit)-jacket.png;
#CDIMAGE:;
#DISCIMAGE:;
#LYRICSPATH:;
#CDTITLE:cdtitle.png;
#MUSIC:Malacca(kater15 edit).ogg;
#OFFSET:0.000000;
#SAMPLESTART:58.310001;
#SAMPLELENGTH:15.000000;
#SELECTABLE:YES;
#DISPLAYBPM:140.000000:280.000000;
#BPMS:0.000=280.156,
8.000=279.992,
72.000=139.996,
104.000=279.992,
107.000=139.996,
111.000=279.992,
114.000=139.996,
118.000=279.992,
121.000=139.996,
125.000=279.992,
128.000=139.996,
164.500=279.992;
#STOPS:104.000=0.643,
105.000=0.214,
106.000=0.214,
111.000=0.644,
112.000=0.214,
113.000=0.214,
118.000=0.643,
119.000=0.214,
120.000=0.215,
125.000=0.642,
126.000=0.214,
127.000=0.215,
164.000=1.524;
#DELAYS:;
#WARPS:;
#TIMESIGNATURES:0.000=4=4;
#TICKCOUNTS:0.000=4;
#COMBOS:0.000=1;
#SPEEDS:0.000=1.000=0.000=0;
#SCROLLS:0.000=1.000;
#FAKES:;
#LABELS:0.000=Song Start;
#BGCHANGES:;
#KEYSOUNDS:;
#ATTACKS:
;

//---------------dance-single - ----------------
#NOTEDATA:;
#CHARTNAME:;
#STEPSTYPE:dance-single;
#DESCRIPTION:;
#CHARTSTYLE:;
#DIFFICULTY:Easy;
#METER:6;
#RADARVALUES:0.259702,0.402834,0.155544,0.174987,0.000000,187.000000,171.000000,16.000000,18.000000,0.000000,0.000000,0.000000,0.000000,0.000000,0.259702,0.402834,0.155544,0.174987,0.000000,187.000000,171.000000,16.000000,18.000000,0.000000,0.000000,0.000000,0.000000,0.000000;
#CREDIT:kater15;
#DISPLAYBPM:140.000000:280.000000;
#NOTES:
0000
0000
0000
0000
,
0000
0000
0000
0000
,
0000
0000
0000
0000
,
0000
0000
0000
0000
,
0000
0000
0000
0000
,
0000
0000
0000
0000
,
0000
0000
0000
0000
,
0000
0000
0000
0000
,
0000
0000
0000
0000
,
0000
0000
0000
0000
,
1000
0000
1000
0000
,
0001
0000
0001
0000
,
0010
0000
0010
0000
,
0100
0000
0100
0000
,
2000
0000
3000
0000
,
0002
0000
0003
0000
,
1000
0100
1000
0100
,
0001
0010
0001
0010
,
0100
0000
1001
0000
,
0100
0000
1001
0000
,
0010
0000
1001
0000
,
0010
0000
1001
0000
,
0100
0000
0000
0100
0001
0000
0000
0001
,
0100
0000
0000
0100
1000
0000
0000
1000
,
0010
0000
0000
0010
0001
0000
0000
0001
,
0010
0100
1000
0010
,
1001
0010
0100
0001
,
0000
0010
0100
0001
,
0100
0010
1000
0000
,
0001
1000
0110
1000
,
0100
0010
0000
1000
,
0001
0100
1000
0001
,
0010
0000
0100
1000
,
0020
0000
0001
0030
,
0020
0000
1000
0030
,
0200
0000
0001
0300
,
0200
0000
1000
0300
,
0002
0000
0100
0003
,
2000
0000
0010
3000
,
1100
0000
0101
0000
,
1000
0100
0010
0001
,
0110
0001
0000
0000
0000
0100
0000
0000
,
0000
0010
0000
0000
0000
1000
0000
0000
,
0000
0200
0000
0000
0000
0300
0000
0000
,
0000
0020
0000
0000
0000
0030
0000
0000
,
0000
1100
0000
0000
0000
0001
0000
0000
,
0000
0101
0000
0000
0000
0010
0000
0000
,
0000
2000
0000
0000
0000
3000
0000
0000
,
0000
0002
0000
0000
0000
0003
0000
0000
,
0000
0010
0000
0000
0000
0100
0000
0000
,
0000
0001
0000
0000
0000
1000
0000
0000
,
0000
0022
0000
0000
0000
0033
0000
0000
,
0000
0202
0000
0000
0000
0303
0000
0000
,
0000
1000
0000
0000
0000
0100
0000
0000
,
0000
0010
0000
0000
0000
0001
0000
0000
,
0000
0200
0000
0000
0000
0300
0000
0000
,
0000
1000
0000
0001
0000
1000
0000
0001
,
0000
0100
0000
0000
0000
0010
0000
0000
,
0000
0100
0000
0000
0000
1000
0000
0000
,
0000
0100
0000
1000
0000
0100
0000
0000
,
0000
0001
0000
0010
0000
0001
0000
0000
,
0000
1000
0000
0000
0000
1010
0000
0000
,
0000
0001
0000
0000
0000
0011
0000
0000
,
0000
0100
0000
0001
0000
0010
0000
0000
,
0000
0001
0000
0100
0000
1000
0000
0000
,
0000
0010
0000
0000
0000
0100
0000
0000
,
0000
0110
0000
0000
0000
1000
0000
0000
,
0000
0001
0000
0010
0000
0100
0000
0000
,
0000
0010
0000
0100
0000
1000
0000
0000
,
0000
0001
0000
0000
0000
1000
0000
0000
,
0000
0010
0000
0000
0000
0010
0000
0000
,
0000
0100
0000
0010
0000
0100
0000
0010
,
0000
1000
0000
0010
0000
0100
0000
0010
,
0000
1000
0000
0000
0000
1000
0000
0000
,
0000
0001
0000
0000
0000
0001
0000
0000
,
0000
0100
0000
0000
0000
0100
0000
0000
,
0000
0010
0000
0000
0000
0010
0000
0000
,
0000
1000
0000
0000
0000
0100
0000
0000
,
0000
1000
0000
0000
0000
0010
0000
0000
,
0000
0001
0000
0000
0000
0100
0000
0000
,
0000
0001
0000
0000
0000
0010
0000
0000
,
0000
0200
0000
0000
0000
0000
0000
0000
,
0000
0000
0000
0000
0000
0000
0000
0300
;

//---------------dance-single - ----------------
#NOTEDATA:;
#CHARTNAME:;
#STEPSTYPE:dance-single;
#DESCRIPTION:;
#CHARTSTYLE:;
#DIFFICULTY:Beginner;
#METER:3;
#RADARVALUES:0.124990,0.197164,0.058329,0.009721,0.000000,90.000000,84.000000,6.000000,1.000000,0.000000,0.000000,0.000000,0.000000,0.000000,0.124990,0.197164,0.058329,0.009721,0.000000,90.000000,84.000000,6.000000,1.000000,0.000000,0.000000,0.000000,0.000000,0.000000;
#CREDIT:kater15;
#DISPLAYBPM:140.000000:280.000000;
#NOTES:
0000
0000
0000
0000
,
0000
0000
0000
0000
,
0000
0000
0000
0000
,
0000
0000
0000
0000
,
0000
0000
0000
0000
,
0000
0000
0000
0000
,
0000
0000
0000
0000
,
0000
0000
0000
0000
,
0000
0000
0000
0000
,
0000
0000
0000
0000
,
1000
0000
0000
0000
,
0001
0000
0000
0000
,
1000
0000
0000
0000
,
0001
0000
0000
0000
,
0100
0000
0000
0000
,
0010
0000
0000
0000
,
0100
0000
0000
0000
,
0010
0000
0000
0000
,
1000
0000
0000
0000
,
1000
0000
0000
0000
,
1000
0000
0000
0000
,
1000
0000
0000
0000
,
0001
0000
0000
0000
,
0001
0000
0000
0000
,
0001
0000
0000
0000
,
0001
0000
0000
0000
,
0100
0000
0000
0000
,
0000
1001
0000
0010
,
0000
0000
0000
0000
,
1001
0000
1000
0000
,
0000
0000
0000
0110
,
0000
0001
0000
0000
,
0000
0000
0110
0000
,
1000
0000
0000
0000
,
0100
0000
0000
0000
,
0010
0000
0000
0000
,
0001
0000
0000
0000
,
1000
0000
0000
0000
,
0001
0000
0000
0000
,
0010
0000
0000
0000
,
0100
0000
0010
0000
,
1001
0000
0000
0000
,
0000
1000
0000
0000
0000
1000
0000
0000
,
0000
0010
0000
0000
0000
0000
0000
0000
,
0000
0001
0000
0000
0000
0100
0000
0000
,
0000
0010
0000
0000
0000
0000
0000
0000
,
0000
1000
0000
0000
0000
0001
0000
0000
,
0000
0100
0000
0000
0000
0000
0000
0000
,
0000
0010
0000
0000
0000
0010
0000
0000
,
0000
0100
0000
0000
0000
0000
0000
0000
,
0000
0001
0000
0000
0000
0100
0000
0000
,
0000
0010
0000
0000
0000
0000
0000
0000
,
0000
1000
0000
0000
0000
0100
0000
0000
,
0000
0010
0000
0000
0000
0000
0000
0000
,
0000
0100
0000
0000
0000
0010
0000
0000
,
0000
0200
0000
0000
0000
0000
0000
0000
,
0000
0000
0000
0300
0000
0000
0000
0000
,
0000
0001
0000
0000
0000
0000
0000
0000
,
0000
1000
0000
0000
0000
0000
0000
0000
,
0000
0010
0000
0000
0000
0000
0000
0000
,
0000
0100
0000
0000
0000
0100
0000
0000
,
0000
0001
0000
0000
0000
0000
0000
0000
,
0000
1000
0000
0000
0000
0000
0000
0000
,
0000
0010
0000
0000
0000
0000
0000
0000
,
0000
0001
0000
0000
0000
1000
0000
0000
,
0000
0010
0000
0000
0000
0000
0000
0000
,
0000
0100
0000
0000
0000
0000
0000
0000
,
0000
1000
0000
0000
0000
0000
0000
0000
,
0000
0001
0000
0000
0000
0001
0000
0000
,
0000
0010
0000
0000
0000
0000
0000
0000
,
0000
0100
0000
0000
0000
0000
0000
0000
,
0000
1000
0000
0000
0000
0000
0000
0000
,
0000
0010
0000
0000
0000
0100
0000
0000
,
0000
1000
0000
0000
0000
0000
0000
0000
,
0000
0001
0000
0000
0000
0000
0000
0000
,
0000
1000
0000
0000
0000
0000
0000
0000
,
0000
0001
0000
0000
0000
0000
0000
0000
,
0000
0010
0000
0000
0000
0000
0000
0000
,
0000
0100
0000
0000
0000
0000
0000
0000
,
0000
0010
0000
0000
0000
0000
0000
0000
,
0000
0100
0000
0000
0000
0000
0000
0000
,
0000
1001
0000
0000
0000
0000
0000
0000
;

//---------------dance-single - ----------------
#NOTEDATA:;
#CHARTNAME:;
#STEPSTYPE:dance-single;
#DESCRIPTION:;
#CHARTSTYLE:;
#DIFFICULTY:Medium;
#METER:11;
#RADARVALUES:0.373583,0.644534,0.126379,0.252758,0.038886,269.000000,256.000000,13.000000,26.000000,0.000000,0.000000,0.000000,0.000000,0.000000,0.373583,0.644534,0.126379,0.252758,0.038886,269.000000,256.000000,13.000000,26.000000,0.000000,0.000000,0.000000,0.000000,0.000000;
#CREDIT:kater15;
#DISPLAYBPM:140.000000:280.000000;
#NOTES:
0000
0000
0000
0000
,
0000
0000
0000
0000
,
0000
0000
0000
0000
,
0000
0000
0000
0000
,
0000
0000
0000
0000
,
0000
0000
0000
0000
,
0000
0000
0000
0000
,
0000
0000
0000
0000
,
0000
0000
0000
0000
,
0000
0000
0000
0000
,
1000
0000
0000
1000
0000
0000
1000
0000
,
0001
0000
0000
0001
0000
0000
0001
0000
,
0100
0000
0000
0100
0000
0000
0100
0000
,
0010
0000
0000
0010
0000
0000
0010
0000
,
1000
0100
0010
0000
,
0001
0010
0100
0000
,
1000
0100
0010
0100
,
0001
0000
1000
0000
0010
1000
0010
0000
,
0001
0000
0000
0001
0000
0000
0000
0000
1000
0000
0000
1000
0000
0000
0000
0000
,
0100
0000
0000
0100
0000
0000
0000
0000
1000
0000
0000
1000
0000
0000
0000
0000
,
0010
0000
0000
0010
0000
0000
0000
0000
0100
0000
0000
0100
0000
0000
0000
0000
,
0001
0000
0000
0001
0000
0000
0000
0000
1000
0000
0000
1000
0000
0000
0000
0000
,
0001
0010
0100
0001
0010
0000
1100
0000
,
0001
1000
0100
0010
0100
0000
0101
0000
,
0010
1000
0010
0100
0001
0000
0110
0000
,
1000
0100
0010
0001
0100
0000
1001
0000
,
0020
2030
3200
0310
,
0000
0000
0000
1000
0100
0100
2000
0000
,
3002
0203
0310
0000
,
0000
0010
0001
0010
0200
0000
0302
0000
,
0023
0000
0130
0000
0000
0000
0000
1000
,
0100
0010
0002
0000
0023
0000
0230
0000
,
1300
0000
0000
0000
0000
0010
0010
0100
,
1000
0002
0000
0000
1000
0000
0000
0100
,
0003
0020
0000
0000
0001
0000
0000
0100
,
0030
2000
0000
0000
0001
0000
0000
0010
,
3000
0200
0000
0000
0001
0000
0000
1000
,
0300
0010
0001
0010
0100
0000
0000
0000
,
0000
0010
1000
0010
0100
0000
0000
0000
,
0000
1000
0000
0100
0000
0010
0000
0001
,
0000
1000
0100
0010
0001
1000
0100
0010
,
0001
0100
0000
1000
0000
0000
0000
1000
,
0000
0010
0000
0000
0000
0100
0000
0010
,
0000
0001
0000
0100
0000
0000
0000
0001
,
0000
1000
0000
0000
0000
0010
0000
0100
,
0000
1001
0000
0010
0000
0000
0000
1000
,
0000
0010
0000
0000
0000
1000
0000
0100
,
0000
0010
0000
0001
0000
0000
0000
0001
,
0000
0001
0000
1000
0001
1000
0000
0100
,
0000
0010
0000
0100
0000
0000
0000
0001
,
0000
1000
0000
0000
0000
0100
0000
0010
,
0000
1000
0000
0001
0000
0000
0000
0100
,
0000
0100
0000
0000
0000
0010
0000
0010
,
0000
1000
0000
0001
0000
0000
0000
0100
,
0000
0010
0000
0000
0000
1000
0000
0100
,
0000
0020
0000
0000
0000
0000
0000
0030
,
0000
1000
0100
1000
0000
0010
1000
0010
,
0000
0001
0000
0100
0000
0000
0000
0001
,
0000
0020
0000
0000
1000
0000
0000
0130
,
0000
1001
0000
0010
0000
0000
0000
1000
,
0000
0200
0000
0000
0010
0000
0000
1300
,
0000
0011
0000
0100
0000
0000
0000
1000
,
0000
0002
0000
0000
0100
0000
0000
1003
,
0000
0110
0000
0010
0000
0000
0000
0100
,
0000
2000
0000
0000
0010
0000
0000
3100
,
0000
0101
0000
1000
0000
0000
0000
0010
,
0000
0002
0000
0000
1000
0000
0000
0013
,
0000
1001
0000
0100
0000
0000
0000
0100
,
0000
0020
0000
0000
1000
0000
0000
0031
,
0000
1010
0000
1000
0000
0000
0000
0001
,
0000
0200
0000
0000
1000
0000
0000
0310
,
0000
1001
0000
0001
0000
0100
0000
0010
,
0000
0100
0000
1000
0001
1000
0000
0001
,
0010
0001
0000
0000
0001
0000
0000
0001
,
0000
1000
0000
0000
1000
0000
0000
1000
,
0000
0010
0000
0000
0010
0000
0000
0010
,
0000
0100
0000
0000
0100
0000
0000
0100
,
0000
1000
0000
0000
1000
0000
0000
1000
,
0000
0001
0000
0000
0001
0000
0000
0001
,
0000
0100
0000
0000
0100
0000
0000
0100
,
0000
0010
0000
0000
0010
0000
0000
0010
,
0000
2002
0000
0000
0000
0000
0000
0000
,
0000
0000
0000
0000
0000
0000
0000
3003
;

//---------------dance-single - ----------------
#NOTEDATA:;
#CHARTNAME:;
#STEPSTYPE:dance-single;
#DESCRIPTION:;
#CHARTSTYLE:;
#DIFFICULTY:Hard;
#METER:15;
#RADARVALUES:0.648562,0.886234,0.340252,0.097215,0.272201,467.000000,432.000000,35.000000,10.000000,0.000000,0.000000,0.000000,0.000000,0.000000,0.648562,0.886234,0.340252,0.097215,0.272201,467.000000,432.000000,35.000000,10.000000,0.000000,0.000000,0.000000,0.000000,0.000000;
#CREDIT:kater15;
#DISPLAYBPM:140.000000:280.000000;
#NOTES:
// measure 0
0000
0000
0000
0000
,  // measure 1
0000
0000
0000
0000
,  // measure 2
0000
0000
0000
0000
,  // measure 3
0000
0000
0000
0000
,  // measure 4
0000
0000
0000
0000
,  // measure 5
0000
0000
0000
0000
,  // measure 6
0000
0000
0000
0000
,  // measure 7
0000
0000
0000
0000
,  // measure 8
0000
0000
0000
0000
,  // measure 9
0000
0000
0000
0000
,  // measure 10
1000
0100
0010
0011
,  // measure 11
1010
0100
0010
1000
,  // measure 12
0100
0010
1000
0001
,  // measure 13
0100
0010
1000
1100
,  // measure 14
0102
0000
0000
1000
,  // measure 15
2003
0000
0000
0001
,  // measure 16
3001
0010
0100
0101
,  // measure 17
1000
0010
1000
0100
0010
1000
0010
0100
,  // measure 18
0002
0003
2000
3000
,  // measure 19
0020
0030
0200
0300
,  // measure 20
0001
0000
1000
0100
0010
1000
0001
0100
,  // measure 21
0010
1000
0100
0010
0100
0001
0010
0100
,  // measure 22
0100
0010
0000
0100
0000
0000
0010
0000
1000
0001
0000
0100
0000
0000
0010
0000
,  // measure 23
1000
0100
0000
0011
0000
0000
0100
0000
0010
1000
0000
1100
0000
0000
0010
0000
,  // measure 24
0001
0100
0000
0010
0000
0000
1000
0000
0100
0010
0000
0001
0000
0000
0100
0000
,  // measure 25
0010
1000
0010
0100
0001
0000
0010
0000
0100
0001
1000
0010
0100
0000
0001
0000
,  // measure 26
0010
0000
0000
1000
0001
0000
0000
1000
0001
0000
0000
1000
0100
0000
0000
0000
,  // measure 27
0000
0000
1000
0000
0010
0001
1000
0100
0010
0000
0001
1000
0010
0000
0000
0100
,  // measure 28
0001
0000
0000
0100
0001
0000
0000
0100
0010
0000
0000
0000
0000
0000
0100
0000
,  // measure 29
0001
1000
0010
0100
0010
0000
1000
0001
0100
0000
0000
1000
0010
0000
0000
1000
,  // measure 30
0010
0000
0000
1000
0001
0000
0000
0000
0000
0000
0010
0000
0001
0010
0100
1000
,  // measure 31
0001
0000
0010
0100
1000
0000
0000
0010
0001
0000
0000
0010
0001
0000
0000
0010
,  // measure 32
0100
0000
0000
0000
0000
0000
0100
0000
1000
0010
0100
0001
1000
0000
0010
1000
,  // measure 33
0001
0000
0100
0000
0000
0101
0000
0000
0011
0000
0000
0101
0000
0000
1000
0000
,  // measure 34
0010
0000
0100
0000
0000
1001
0000
0000
0110
0000
0000
1001
0000
0000
0010
0000
,  // measure 35
0100
0000
1000
0000
0000
1100
0000
0000
0011
0000
0000
1100
0000
0000
1000
0000
,  // measure 36
1000
0000
0001
0000
0000
1100
0000
0000
0110
0000
0000
1100
0000
0000
0010
0000
,  // measure 37
0001
0000
1000
0000
0000
1010
0000
0000
1001
0000
0000
1010
0000
0000
0100
0000
,  // measure 38
0001
0000
1000
0000
0000
0110
0000
0000
0011
0000
0000
0110
0000
0000
1000
0000
,  // measure 39
0100
0200
0000
0000
0000
0000
0300
0000
,  // measure 40
1000
0000
0100
0001
1000
0000
0010
0100
1000
0000
0010
0001
0100
0000
1000
0010
,  // measure 41
0100
1000
0000
0100
0000
0010
0000
0100
,  // measure 42
0000
0001
0100
0010
1000
0100
0000
0010
,  // measure 43
0100
1000
0000
0100
0000
0010
0000
0011
,  // measure 44
0000
0100
1000
0001
1000
0010
0000
0100
,  // measure 45
0001
0010
0000
1000
0100
0010
0100
0010
,  // measure 46
0000
1000
0001
1000
0001
0100
0000
0010
,  // measure 47
1000
0001
1000
0001
0000
0100
0010
0100
,  // measure 48
0010
1000
0000
0100
0001
0100
0001
0010
,  // measure 49
0000
0100
0000
1000
0000
0010
0000
0100
,  // measure 50
0000
0001
0100
0010
1000
0100
0000
0010
,  // measure 51
0001
0100
0000
0010
0000
1001
0000
1000
,  // measure 52
0000
0100
0001
0010
0001
1000
0000
0010
,  // measure 53
1000
0010
0000
0100
0000
1001
0000
0010
,  // measure 54
0000
0100
1000
0010
0100
0001
0000
0010
,  // measure 55
1000
0200
0000
0000
0000
0000
0000
0300
,  // measure 56
0000
1000
0100
1000
0010
0100
0010
0001
,  // measure 57
1000
0001
0000
1000
0100
0010
1000
0100
,  // measure 58
0001
1000
0010
0001
0100
0010
1000
0100
,  // measure 59
0000
0001
0010
0001
0100
0010
0100
1000
,  // measure 60
0001
1000
0000
0001
0010
0100
0000
0100
,  // measure 61
0000
0010
0000
0100
0001
1000
0100
0001
,  // measure 62
0010
0100
1000
0010
0001
1000
0100
0001
,  // measure 63
0000
0010
1000
0010
0001
1000
0001
0100
,  // measure 64
0010
0100
0000
0010
1000
0001
0000
1000
,  // measure 65
0000
0010
0000
0100
0001
1000
0100
0001
,  // measure 66
0010
0100
1000
0010
0001
1000
0100
0001
,  // measure 67
0000
0010
1000
0010
0001
1000
0001
0100
,  // measure 68
0010
0100
0000
0010
1000
0001
0000
0001
,  // measure 69
0000
1000
0000
0001
0010
0100
0001
0010
,  // measure 70
1000
0001
0100
1000
0010
0100
0001
0010
,  // measure 71
0000
1000
0100
1000
0010
0100
0010
0001
,  // measure 72
1000
0001
0100
1000
0100
0010
1000
0100
,  // measure 73
0010
0100
0000
0001
0000
1000
0000
1010
,  // measure 74
0000
1100
0000
0001
0000
1000
0000
0100
,  // measure 75
0000
0001
0000
1000
0000
0100
0000
0010
,  // measure 76
0000
0001
0000
1000
0000
0100
0000
0101
,  // measure 77
0000
0010
0000
1000
0000
0001
0000
0101
,  // measure 78
0000
0011
0000
1000
0000
0001
0000
0010
,  // measure 79
0000
1000
0000
0001
0000
0010
0000
0100
,  // measure 80
0000
1000
0000
0001
0000
0010
0000
1010
,  // measure 81
0000
0220
0000
0000
0000
0000
0000
0000
,  // measure 82
0000
0000
0000
0000
0000
0000
0000
0330
;
