#TITLE:MAXX UNLIMITED(kater15 Edit);
#SUBTITLE:;
#ARTIST:Z;
#TITLETRANSLIT:;
#SUBTITLETRANSLIT:;
#ARTISTTRANSLIT:;
#GENRE:;
#CREDIT:;
#BANNER:MAXX UNLIMITED(kater15 Edit).png;
#BACKGROUND:MAXX UNLIMITED(kater15 Edit)-bg.png;
#LYRICSPATH:;
#CDTITLE:;
#MUSIC:MAXX UNLIMITED(kater15 Edit).ogg;
#OFFSET:0.800000;
#SAMPLESTART:13.600000;
#SAMPLELENGTH:15.000000;
#SELECTABLE:YES;
#DISPLAYBPM:70.000000:160.000000;
#BPMS:0.000000=150.000000
,84.000000=139.940994
,100.000000=150.000000
,148.000000=70.039001
,156.000000=159.992004
;
#STOPS:
;
#BGCHANGES:;
#KEYSOUNDS:;
#ATTACKS:;

//---------------dance-single - ----------------
#NOTES:
     dance-single:
     :
     Easy:
     4:
     0.179641,0.272829,0.049900,0.189621,0.000000,126.000000,121.000000,5.000000,19.000000,0.000000,0.000000,0.179641,0.272829,0.049900,0.189621,0.000000,126.000000,121.000000,5.000000,19.000000,0.000000,0.000000:
0000
0000
0000
0000
,
0000
0000
0000
0000
,
0000
0000
0000
0000
,
0000
0000
0000
0000
,
0000
0000
0000
0000
,
0002
0000
0003
0000
,
2000
0000
3000
0000
,
0020
0000
0030
0000
,
0200
0000
0300
0000
,
0010
0001
0010
0000
,
0100
0010
0002
0000
,
0103
0100
1000
0000
,
0100
0001
0020
0000
,
0130
0100
0001
0000
,
0010
0000
0002
1003
,
0100
0000
0110
0000
,
0001
0000
2000
3001
,
0010
0000
0001
0000
,
0010
0000
1000
0010
,
0100
0000
0001
0000
,
1000
0000
0010
0100
,
2002
0000
3003
0000
,
0200
0000
0300
0001
,
0002
0000
0003
0000
,
0100
0000
0100
0000
,
1001
0000
0001
0000
,
0010
0000
0001
0000
,
0100
0100
1000
0000
,
0100
0100
0001
0000
,
2000
0000
0000
3000
,
0002
0000
0000
0003
,
0200
0000
0000
0300
,
0020
0000
0000
0030
,
0100
0000
0010
0000
,
1000
0000
0001
0000
,
0100
0010
1000
0000
,
0001
0010
0100
1000
,
0010
0000
1000
0000
,
0200
0000
0000
0000
,
0301
0000
0010
0000
,
0100
0000
0100
0000
,
0001
0000
1000
0000
,
0010
0000
0100
1000
,
0100
0000
0001
0010
,
0001
0000
0100
1000
,
0100
0000
1001
0000
,
0010
0001
0100
0010
,
1000
0000
1000
0000
,
1000
0000
0000
0000
,
0001
0000
0001
0000
,
0001
0000
0000
0000
,
0100
0000
0100
0000
,
0100
0000
0000
0000
,
0010
0000
0010
0000
,
0010
0000
0000
0000
,
1000
1000
0001
0001
,
1000
0100
1000
0010
,
0001
0100
0001
0010
,
1000
0000
0001
0000
,
1000
0000
0001
0000
,
2002
0000
0000
3003
;

//---------------dance-single - ----------------
#NOTES:
     dance-single:
     :
     Beginner:
     2:
     0.126889,0.242515,0.069860,0.109780,0.000000,89.000000,82.000000,7.000000,11.000000,0.000000,0.000000,0.126889,0.242515,0.069860,0.109780,0.000000,89.000000,82.000000,7.000000,11.000000,0.000000,0.000000:
0000
0000
0000
0000
,
0000
0000
0000
0000
,
0000
0000
0000
0000
,
0000
0000
0000
0000
,
0000
0000
0000
0000
,
0010
0000
0000
0000
,
0001
0000
0000
0000
,
0100
0000
0000
0000
,
1000
0000
0000
0000
,
0010
0000
0010
0000
,
0100
0000
0000
0000
,
1000
0000
1000
0000
,
0001
0000
0000
0000
,
0110
0000
0000
0000
,
0010
0000
0100
0100
,
0100
0000
0000
0000
,
0001
0000
1000
1000
,
1000
0000
0000
0000
,
0100
0000
0010
0010
,
0010
0000
0000
0000
,
1000
0000
0001
0001
,
0002
0000
0003
0000
,
1000
0000
0001
0000
,
1000
0000
0000
0000
,
0100
0000
0000
0000
,
1001
0000
0000
0000
,
0100
0000
0001
0000
,
0010
0000
1000
0000
,
0000
0000
1000
1000
,
1000
0000
0000
0000
,
0100
0000
0000
0000
,
0010
0000
0000
0000
,
0001
0000
0000
0000
,
1001
0000
0000
0000
,
0001
0000
0000
0000
,
0110
0000
0000
0000
,
0010
0010
0010
0000
,
0100
0000
0100
0000
,
0200
0000
0300
0000
,
0020
0000
0030
0000
,
0200
0000
0300
0000
,
0002
0000
0003
0000
,
2000
0000
3000
0000
,
0100
0000
0010
0000
,
0001
0000
0100
0000
,
1000
0000
0010
0000
,
1000
0000
0001
0001
,
0002
0000
0003
0000
,
0001
0000
0000
0000
,
2000
0000
3000
0000
,
1000
0000
0000
0000
,
0020
0000
0030
0000
,
0010
0000
0000
0000
,
0200
0000
0300
0000
,
0100
0000
0000
0000
,
1000
0000
0001
0000
,
0100
0000
0010
0000
,
1001
0000
1001
0000
,
1001
0000
0000
0000
,
0000
0000
0010
0010
,
0020
0000
0000
0030
;

//---------------dance-single - ----------------
#NOTES:
     dance-single:
     :
     Medium:
     7:
     0.387796,0.485030,0.399202,0.099800,0.089820,272.000000,232.000000,40.000000,10.000000,0.000000,0.000000,0.387796,0.485030,0.399202,0.099800,0.089820,272.000000,232.000000,40.000000,10.000000,0.000000,0.000000:
0000
0000
0000
0000
,
0000
0000
0000
0000
,
0000
0000
0000
0000
,
0000
0000
0000
0000
,
0000
0000
0000
0000
,
0001
0001
1000
1000
,
0010
0010
0100
0100
,
0001
1000
0001
1000
,
0010
0100
0010
0100
,
1001
0000
0000
0000
1000
0100
0001
0000
,
1000
0010
0001
0000
0220
0000
0330
0000
,
0110
0000
0000
0000
0100
1000
0010
0000
,
0100
0001
0010
0000
2002
0000
3003
0000
,
1000
1000
0100
0010
,
0001
0000
0101
0000
0010
0010
0010
0000
,
1000
0100
1000
0010
,
0100
0000
1100
0000
0001
0001
0001
0000
,
0110
0100
0001
0010
,
1000
0100
1000
0000
0001
0010
0001
0000
,
1000
0100
0010
1000
,
1010
0011
0101
1100
,
1002
0000
0000
0000
,
1000
0000
0000
0013
0000
0000
0100
0000
,
0102
0000
0000
0000
,
0100
0000
0000
2000
0000
0000
3003
0000
,
0100
1000
0100
1000
0010
0000
0100
0000
,
0011
0000
0100
0000
1010
0000
0100
0001
,
0010
1000
0100
1000
,
0010
0000
1000
0100
0001
0100
1000
0000
,
0100
0000
0000
0000
0110
0000
0000
0000
0001
0000
0000
0001
0000
0000
0001
0000
,
1000
0000
0000
0000
1100
0000
0000
0000
0010
0000
0000
0010
0000
0000
0010
0000
,
0100
0000
0000
0000
1010
0000
0000
0000
1000
0000
0000
1000
0000
0000
1000
0000
,
0001
0000
0000
0000
1001
0000
0000
0000
0100
0000
0000
0100
0000
0000
0100
0000
,
0010
0000
0100
0000
0001
1000
0100
0000
,
0010
0000
1100
0000
0001
0010
0100
0000
,
0001
1000
0100
0010
,
0010
0000
1000
0100
0001
0100
1000
0000
,
0011
0101
1100
1010
,
2002
0000
0000
3003
,
1000
1100
0001
0101
,
0100
0000
0010
0000
1000
0001
1000
0000
,
0010
1000
0100
0010
,
0100
0000
0001
0000
1000
0100
0001
0000
,
0100
0000
1010
0000
0001
0100
0010
0000
,
1000
0100
0010
0100
,
0110
0000
1001
0000
,
1100
0101
0011
1010
,
1000
0000
0000
1000
0000
0000
0000
0000
0001
0000
0000
0001
0000
0000
0000
0000
,
1000
0000
0000
1000
0000
0000
0000
0000
0001
0000
1000
0000
0000
0000
0000
0000
,
0010
0000
0000
0010
0000
0000
0000
0000
0100
0000
0000
0100
0000
0000
0000
0000
,
0010
0000
0000
0010
0000
0000
0000
0000
0100
0000
0010
0000
0100
0000
0000
0000
,
1000
0000
0000
0100
0000
0000
0000
0000
0001
0000
0000
0100
0000
0000
0000
0000
,
1000
0000
0000
0100
0000
0000
0001
0000
0100
0000
0001
0000
0000
0000
0000
0000
,
1000
0000
0000
0010
0000
0000
0000
0000
0001
0000
0000
0010
0000
0000
0000
0000
,
1000
0000
0000
0010
0000
0000
0001
0000
0010
0000
0001
0000
0000
0000
0000
0000
,
0100
1001
0010
1001
,
1000
1100
0001
0101
,
1000
0110
0001
0110
,
1000
0000
0000
0001
0000
0000
0000
0000
1000
0000
0000
0001
0000
0000
0000
0000
,
1000
0100
1000
0000
0010
0001
0010
0000
,
0200
0000
0000
0300
;

//---------------dance-single - ----------------
#NOTES:
     dance-single:
     :
     Hard:
     12:
     0.568862,0.666916,0.409182,0.109780,0.314371,399.000000,358.000000,41.000000,11.000000,0.000000,0.000000,0.568862,0.666916,0.409182,0.109780,0.314371,399.000000,358.000000,41.000000,11.000000,0.000000,0.000000:
0000
0000
0000
0000
,
0000
0000
0000
0000
,
0000
0000
0000
0000
,
0000
0000
0000
0000
,
0000
0000
0000
0000
,
0001
0000
0000
0001
0000
0000
0001
0000
0100
0000
0000
0100
0000
0000
0100
0000
,
0010
0000
0000
0010
0000
0000
0010
0000
1000
0000
0000
1000
0000
0000
1000
0000
,
0001
0000
0000
1000
0000
0000
0001
0000
0100
0000
0000
0010
0000
0000
0100
0000
,
0001
0000
0000
0202
0000
0000
0000
0000
0000
0000
0000
0000
0303
0000
0000
0000
,
1000
0100
1000
0010
0100
0001
0010
0001
,
0100
0010
1000
1000
0200
0000
0300
0000
,
0100
0100
0001
1000
0010
0100
0001
1000
,
0100
0010
1000
0001
0020
0000
0030
0000
,
0100
1000
0100
0010
1000
0001
0100
0010
,
0100
0100
0001
1000
0110
0110
0110
0000
,
1000
0010
1000
0100
0100
0001
1000
0010
,
0100
0100
0001
0010
1001
1001
1001
0000
,
0100
1000
0100
0100
0001
0010
0100
0010
,
0010
1000
0100
0010
0100
0001
1000
0000
,
0010
0100
0001
1000
0100
0100
1000
0010
,
0100
0100
0001
1000
0010
0100
0010
0000
,
1000
0000
0001
0000
0100
0000
0010
0000
1000
0000
0001
0000
,
0101
0000
0010
0000
1000
0000
0100
0000
0010
0000
0100
0000
,
1001
0000
0010
0000
0010
0000
1000
0000
0101
0000
0010
0000
,
1100
0000
0100
0000
0010
0000
1000
0000
0001
0000
0100
0000
,
0010
1000
0100
0010
0001
0000
0110
0000
,
1000
0100
0001
0100
0010
1000
0100
0010
,
0200
0000
0000
0000
0001
0001
0301
0000
,
0100
0000
0001
0000
0100
0000
1000
0000
0100
0000
0010
0100
0010
0000
0001
0000
,
0000
0000
0100
0000
0000
1010
0000
0000
1001
0000
0000
0101
0000
0000
0010
0000
,
0100
0000
1000
0000
0000
0101
0000
0000
0011
0000
0000
1010
0000
0000
0001
0000
,
1000
0000
0010
0000
0000
0110
0000
0000
1001
0000
0000
1100
0000
0000
0010
0000
,
0001
0000
0010
0000
0000
1100
0000
0000
0101
0000
0000
0011
0000
0000
0100
0000
,
1000
1000
0010
0010
0100
0100
0001
0001
,
1000
0001
0100
0100
0010
0010
1000
1000
,
0001
0001
0010
0010
0001
0001
0100
0100
,
0010
0000
1000
0000
0100
0000
0010
0000
0001
0000
1000
0001
0010
0000
1000
0000
,
0100
0000
0000
1000
0000
0000
0000
0000
0100
0000
0000
0000
0001
0000
0000
0000
0100
0000
0000
0000
0000
0010
0000
0000
0000
0000
0000
1000
0000
0000
0000
0000
0010
0000
0000
0000
0100
0000
0000
0000
1000
0000
0000
0000
0000
0001
0000
0000
,
2200
0000
0000
3300
,
1000
0100
0010
1000
0100
0010
0100
0100
,
0002
0100
1000
0013
,
0100
0001
1000
0010
0100
0100
0001
1000
,
0020
0100
1000
0130
,
1000
0001
0010
0100
0001
1000
0010
0100
,
0020
1000
0001
0130
,
1000
1000
1000
0000
0001
0001
0001
0000
,
1000
0000
0100
0000
1000
0000
0010
0000
0001
0000
0100
0010
0100
0000
0001
0000
,
1000
0000
0000
1001
0000
0000
0100
0000
0001
0000
0000
1001
0000
0000
0100
0000
,
1000
0000
0000
1001
0000
0000
0100
0000
0010
0000
0100
0000
0000
0000
0000
0000
,
0100
0000
0000
0110
0000
0000
1000
0000
0010
0000
0000
0110
0000
0000
0001
0000
,
0100
0000
0000
0110
0000
0000
1000
0000
0001
0000
1000
0000
0010
0000
0001
0000
,
0100
0000
0000
1010
0000
0000
0001
0000
1000
0000
0000
0011
0000
0000
1000
0000
,
0001
0000
0000
1010
0000
0000
0100
0000
0010
0000
1000
0000
0100
0000
0000
0000
,
0010
0000
0000
0101
0000
0000
0010
0000
1000
0000
0000
1100
0000
0000
0001
0000
,
0010
0000
0000
0101
0000
0000
1000
0000
0100
0000
0010
0000
0001
0000
0000
0000
,
1000
0000
0000
1000
0001
0000
0010
0000
0100
0000
0001
0000
0010
0000
0000
0000
,
1000
0000
0000
0001
0100
0000
0100
0000
0010
0000
1000
0000
0001
0000
0000
0000
,
0100
0000
0000
0001
0010
0000
0001
0000
1000
0000
0100
0000
0010
0000
0000
0000
,
1001
0000
0000
1001
0000
0000
0000
0000
0110
0000
0000
0110
0000
0000
0000
0000
,
0001
0000
0000
1000
0001
0000
0000
1000
0001
0000
0000
1000
0001
0000
0000
0100
,
0020
0000
0000
0030
;

//---------------dance-single - ----------------
#NOTES:
     dance-single:
     :
     Challenge:
     7:
     0.359281,0.424401,0.359281,0.099800,0.089820,252.000000,216.000000,36.000000,10.000000,92.000000,0.000000,0.359281,0.424401,0.359281,0.099800,0.089820,252.000000,216.000000,36.000000,10.000000,92.000000,0.000000:
// measure 0
0000
0000
0000
0000
,  // measure 1
0000
0000
0000
0000
,  // measure 2
0000
0000
0000
0000
,  // measure 3
0000
0000
0000
0000
,  // measure 4
0000
0000
0000
0000
,  // measure 5
0001
0001
1000
1000
,  // measure 6
0010
0010
0100
0100
,  // measure 7
0001
1000
0001
1000
,  // measure 8
0010
0100
0010
0100
,  // measure 9
1001
0000
MMMM
0000
1000
0100
0001
0000
,  // measure 10
1000
0010
0001
0000
0220
0000
0330
0000
,  // measure 11
0110
0000
MMMM
0000
0100
1000
0010
0000
,  // measure 12
0100
0001
0010
0000
2002
0000
3003
0000
,  // measure 13
1000
1000
0100
0010
,  // measure 14
0001
0000
0101
0000
0010
0010
MMMM
0000
,  // measure 15
1000
0100
1000
0010
,  // measure 16
0100
0000
1100
0000
0001
0001
MMMM
0000
,  // measure 17
0110
0100
0001
0010
,  // measure 18
1000
0100
MMMM
0000
0001
0010
MMMM
0000
,  // measure 19
1000
0100
0010
1000
,  // measure 20
1010
0011
0101
1100
,  // measure 21
1002
0000
0000
0000
,  // measure 22
1000
0000
0000
0013
0000
0000
0100
0000
,  // measure 23
0102
0000
0000
0000
,  // measure 24
0100
0000
0000
2000
0000
0000
3003
0000
,  // measure 25
0100
1000
MMMM
1000
0010
0000
0100
0000
,  // measure 26
0011
0000
0100
0000
1010
0000
0100
0001
,  // measure 27
0010
1000
0100
1000
,  // measure 28
0010
0000
1000
0100
0001
0100
1000
0000
,  // measure 29
MMMM
0000
0000
0000
0110
0000
0000
0000
0001
0000
0000
0001
0000
0000
0001
0000
,  // measure 30
MMMM
0000
0000
0000
1100
0000
0000
0000
0010
0000
0000
0010
0000
0000
0010
0000
,  // measure 31
MMMM
0000
0000
0000
1010
0000
0000
0000
1000
0000
0000
1000
0000
0000
1000
0000
,  // measure 32
MMMM
0000
0000
0000
1001
0000
0000
0000
0100
0000
0000
0100
0000
0000
0100
0000
,  // measure 33
MMMM
0000
0100
0000
0001
1000
0100
0000
,  // measure 34
0010
0000
1100
0000
0001
0010
0100
0000
,  // measure 35
0001
1000
0100
0010
,  // measure 36
0010
0000
1000
0100
0001
0100
1000
0000
,  // measure 37
0011
MMMM
1100
MMMM
,  // measure 38
2002
0000
0000
3003
,  // measure 39
1000
1100
0001
0101
,  // measure 40
0100
0000
0010
0000
1000
0001
1000
0000
,  // measure 41
MMMM
1000
0100
0010
,  // measure 42
0100
0000
0001
0000
1000
0100
0001
0000
,  // measure 43
0100
0000
1010
0000
0001
0100
0010
0000
,  // measure 44
1000
0100
0010
0100
,  // measure 45
0110
0000
1001
0000
,  // measure 46
1100
MMMM
0011
MMMM
,  // measure 47
1000
0000
0000
1000
0000
0000
0000
0000
0001
0000
0000
0001
0000
0000
0000
0000
,  // measure 48
1000
0000
0000
1000
0000
0000
0000
0000
0001
0000
1000
0000
MMMM
0000
0000
0000
,  // measure 49
0010
0000
0000
0010
0000
0000
0000
0000
0100
0000
0000
0100
0000
0000
0000
0000
,  // measure 50
0010
0000
0000
0010
0000
0000
0000
0000
0100
0000
0010
0000
MMMM
0000
0000
0000
,  // measure 51
1000
0000
0000
0100
0000
0000
0000
0000
0001
0000
0000
0100
0000
0000
0000
0000
,  // measure 52
1000
0000
0000
0100
0000
0000
0001
0000
0100
0000
0001
0000
MMMM
0000
0000
0000
,  // measure 53
1000
0000
0000
0010
0000
0000
0000
0000
0001
0000
0000
0010
0000
0000
0000
0000
,  // measure 54
1000
0000
0000
0010
0000
0000
0001
0000
0010
0000
0001
0000
MMMM
0000
0000
0000
,  // measure 55
0100
1001
0010
1001
,  // measure 56
1000
1100
0001
0101
,  // measure 57
1000
0110
0001
0110
,  // measure 58
1000
0000
0000
0001
0000
0000
MMMM
0000
1000
0000
0000
0001
0000
0000
MMMM
0000
,  // measure 59
1000
0100
1000
0000
0010
0001
0010
0000
,  // measure 60
0200
0000
0000
0300
;
