#TITLE:Let It Go;
#SUBTITLE:;
#ARTIST:Demi Lovato;
#TITLETRANSLIT:;
#SUBTITLETRANSLIT:;
#ARTISTTRANSLIT:;
#GENRE:;
#CREDIT:;
#BANNER:Let It Go.png;
#BACKGROUND:Let It Go-bg.png;
#LYRICSPATH:;
#CDTITLE:cdtitle.png;
#MUSIC:Let It Go.ogg;
#OFFSET:0.000000;
#SAMPLESTART:26.938999;
#SAMPLELENGTH:15.000000;
#SELECTABLE:YES;
#DISPLAYBPM:70.000000:280.000000;
#BPMS:0.000000=248.899979
,8.000000=279.880005
,112.000000=93.292999
,114.000000=52.478001
,115.500000=69.970001
,116.000000=279.880005
,340.000000=69.970001
,348.000000=139.940002
,352.000000=279.880005
;
#STOPS:
;
#BGCHANGES:;
#KEYSOUNDS:;
#ATTACKS:;

//---------------dance-single - ----------------
#NOTES:
     dance-single:
     :
     Easy:
     9:
     0.271919,0.535340,0.118964,0.565081,0.000000,256.000000,240.000000,16.000000,76.000000,0.000000,0.000000,0.271919,0.535340,0.118964,0.565081,0.000000,256.000000,240.000000,16.000000,76.000000,0.000000,0.000000:
0000
0000
0000
0000
,
0000
0000
0000
0000
,
0000
0000
0000
0000
,
0000
0000
0000
0000
,
0000
0000
0000
0000
,
0000
0000
0000
0000
,
0000
0000
0000
0000
,
0000
0000
0000
0000
,
0001
0001
0001
0000
,
1000
1000
1000
0000
,
0100
0000
0001
0000
,
0010
0000
1000
0000
,
0100
0000
0100
0000
,
0001
0200
0000
0000
,
0001
0000
0301
0000
,
0100
0001
0010
0100
,
1000
0000
1001
0000
,
0100
0000
0010
0001
,
0100
0000
2000
0000
,
3100
0000
0000
1000
,
0001
0000
0001
1000
,
0000
1000
0002
0000
,
0000
0000
0100
0000
,
0103
0000
0010
0001
,
0010
0000
0100
0000
,
1000
0000
0010
0000
,
0001
0000
0200
0000
,
0310
0000
1000
0100
,
0001
0000
1000
0000
0002
0000
0000
0003
,
0100
0000
0100
0000
,
0001
0010
0010
0010
,
0000
0000
0010
0000
,
0100
0000
0100
0000
,
0001
0000
1001
0000
,
0010
0010
0000
0200
,
0000
0000
0000
0000
,
0300
0001
0001
0001
,
0000
0000
0100
0000
,
1000
0010
0010
0010
,
0000
0000
1001
0000
,
0010
0000
0001
0100
,
0001
0000
0010
1000
,
0000
1000
0100
2000
,
0000
0000
0001
0000
,
3001
0000
0000
0000
,
0002
0000
0000
0203
,
0000
0000
2300
0000
,
0000
0000
0000
0000
,
3000
0000
0000
0000
,
0020
0000
0000
2030
,
0000
0000
3200
0000
,
0000
0000
0000
0000
,
0300
1000
1000
1000
,
0000
0000
0010
0000
,
0001
0100
0100
0100
,
0000
0000
1001
0000
,
0100
0000
0010
0000
,
1100
0000
1000
0000
,
0001
0002
0000
0000
,
1000
0000
1003
0000
,
0200
0000
0020
0000
,
0330
0000
0000
2000
,
0000
0000
0200
0000
,
3300
0000
0000
0002
,
0000
0000
0020
0000
,
0033
0000
0000
2000
,
0000
0000
0001
0001
,
3000
0000
0100
0000
,
0001
0000
0202
0000
,
0303
0000
0000
0200
,
0000
0000
0002
0000
,
0303
0000
0000
0020
,
0000
0000
2000
0000
,
3030
0000
0000
0200
,
0000
0000
0010
0010
,
0300
0000
0001
0000
,
0010
0000
0022
0000
,
0033
0000
0000
0200
,
0000
0000
0020
0000
,
0330
0000
0000
2000
,
0000
0000
0002
0000
,
3003
0000
0000
0200
,
0000
0000
1000
0010
,
0300
0000
1000
0000
,
0010
1000
0100
0010
,
0002
0000
0000
0003
2200
0000
0000
3300
,
0020
0030
2002
3003
0200
0300
0000
0000
,
1000
0100
2002
3003
,
0100
0000
0100
0000
,
0001
0010
0010
0010
,
0000
0000
0010
0000
,
0010
0000
0001
0100
,
0001
0000
0010
1000
,
0000
1000
0100
2000
,
0000
0000
0001
0000
,
3001
0000
0000
0000
,
0002
0000
0000
0203
,
0000
0000
2300
0000
,
0000
0000
0000
0000
,
3000
0000
0000
0000
,
0020
0000
0000
2030
,
0000
0000
3200
0000
,
0000
0000
0000
0000
,
0300
1000
1000
1000
,
0000
0000
0010
0000
,
0001
0100
0100
0100
,
0000
0000
1001
0000
,
0100
0000
0010
0000
,
1100
0000
1000
0000
,
0001
0002
0000
0000
,
1000
0000
1003
0000
,
0200
0000
0020
0000
,
0330
0000
0000
2000
,
0000
0000
0200
0000
,
3300
0000
0000
0002
,
0000
0000
0020
0000
,
0033
0000
0000
2000
,
0000
0000
0001
0001
,
3000
0000
0100
0000
,
0001
0000
0202
0000
,
0303
0000
0000
0200
,
0000
0000
0002
0000
,
0303
0000
0000
0020
,
0000
0000
2000
0000
,
3030
0000
0000
0200
,
0000
0000
0010
0010
,
0300
0000
0001
0000
,
0010
0000
0022
0000
,
0033
0000
0000
0200
,
0000
0000
0020
0000
,
0330
0000
0000
2000
,
0000
0000
0002
0000
,
3003
0000
0000
0200
,
0000
0000
1000
0010
,
0300
0000
1000
0000
,
0010
0100
0100
0100
,
0000
0000
1000
0000
,
0010
0001
0001
0001
,
0000
0000
0110
0000
,
0001
0000
1000
0000
,
0101
0000
0100
0000
,
0010
0020
0000
0000
,
0100
0000
0130
0000
,
0002
0000
2000
0000
,
3003
0000
0000
0000
;

//---------------dance-single - ----------------
#NOTES:
     dance-single:
     :
     Beginner:
     7:
     0.218810,0.642408,0.178447,0.498163,0.000000,206.000000,182.000000,24.000000,67.000000,0.000000,0.000000,0.218810,0.642408,0.178447,0.498163,0.000000,206.000000,182.000000,24.000000,67.000000,0.000000,0.000000:
0000
0000
0000
0000
,
0000
0000
0000
0000
,
0000
0000
0000
0000
,
0000
0000
0000
0000
,
0000
0000
0000
0000
,
0000
0000
0000
0000
,
0000
0000
0000
0000
,
0000
0000
0000
0000
,
0001
0000
1001
0000
,
1000
0000
1001
0000
,
0001
0000
0100
0000
,
0010
0000
0010
0000
,
0200
0000
0300
0000
,
0002
0000
0003
0000
,
2000
0000
3000
0000
,
0010
0010
0010
0000
,
0100
0000
0001
0000
,
0020
0000
0030
0000
,
0200
0000
0300
0000
,
0002
0000
0003
0000
,
0100
0000
0000
0110
,
0000
0000
0020
0000
,
0000
0000
0000
0000
,
0030
0000
0000
0000
,
0010
0000
0100
0000
,
1001
0000
1001
0000
,
0002
0000
0003
0000
,
0020
0000
0030
0000
,
0100
0100
0200
0000
,
0300
0000
1001
0000
,
0000
0010
0000
0010
,
0000
0000
1001
0000
,
0100
0000
0100
0000
,
0001
0000
1000
0000
,
0020
0030
0000
2000
,
0000
0000
0000
3000
,
0000
0001
0000
0001
,
0000
0000
0110
0000
,
0000
1000
0000
1000
,
0000
0000
0110
0000
,
0010
0000
0001
0001
,
0001
0000
0000
0110
,
0000
1000
0000
0200
,
0000
0000
0000
0000
,
0300
0000
0000
0000
,
1000
0000
0000
0001
,
0000
0000
2000
0000
,
0000
0000
0000
0000
,
3000
0000
0000
0000
,
0010
0000
0000
0100
,
0000
0000
0020
0000
,
0000
0000
0000
0030
,
0000
1000
0000
1000
,
0000
0000
1100
0000
,
0000
0100
0000
0100
,
0000
0000
0011
0000
,
1000
0000
1000
0000
,
0001
0000
1000
0000
,
0002
0000
0000
0000
,
0003
0000
0010
0000
,
1000
0000
0020
0000
,
0030
0000
0000
0002
,
0000
0003
2000
0000
,
3000
0000
0000
2000
,
0000
3000
0002
0000
,
0003
0000
0000
2000
,
0000
3000
0002
0000
,
0003
0000
0010
0000
,
0001
0000
0200
0000
,
0300
0000
0000
0020
,
0000
0030
0200
0000
,
0300
0000
0000
0200
,
0000
0300
0020
0000
,
0030
0000
0000
0200
,
0000
0300
0020
0000
,
0030
0000
1000
0000
,
0010
0000
0002
0000
,
0003
0000
0000
2000
,
0000
3000
0200
0000
,
0300
0000
0000
0200
,
0000
0300
2000
0000
,
3000
0000
0000
0200
,
0000
0300
2000
0000
,
3000
0000
1000
0000
,
0100
0000
0010
0000
,
0001
0001
1000
1000
,
0010
0010
0100
0100
,
1001
1001
2002
0000
,
3003
0000
0110
0000
,
0000
0001
0000
0001
,
0000
0000
0110
0000
,
0100
0000
1000
1000
,
1000
0000
0000
0110
,
0000
0001
0000
0020
,
0000
0000
0000
0000
,
0030
0000
0000
0000
,
0001
0000
0000
1000
,
0000
0000
0002
0000
,
0000
0000
0000
0000
,
0003
0000
0000
0000
,
0100
0000
0000
0010
,
0000
0000
0200
0000
,
0000
0000
0000
0300
,
0000
0001
0000
0001
,
0000
0000
0011
0000
,
0000
0010
0000
0010
,
0000
0000
1100
0000
,
0001
0000
0001
0000
,
1000
0000
0001
0000
,
2000
0000
0000
0000
,
3000
0000
0100
0000
,
0001
0000
0200
0000
,
0300
0000
0000
2000
,
0000
3000
0002
0000
,
0003
0000
0000
0002
,
0000
0003
2000
0000
,
3000
0000
0000
0002
,
0000
0003
2000
0000
,
3000
0000
0100
0000
,
1000
0000
0020
0000
,
0030
0000
0000
0200
,
0000
0300
0020
0000
,
0030
0000
0000
0020
,
0000
0030
0200
0000
,
0300
0000
0000
0020
,
0000
0030
0200
0000
,
0300
0000
0001
0000
,
0100
0000
2000
0000
,
3000
0000
0000
0002
,
0000
0003
0020
0000
,
0030
0000
0000
0020
,
0000
0030
0002
0000
,
0003
0000
0000
0020
,
0000
0030
0002
0000
,
0003
0000
0001
0000
,
0000
0001
0000
0001
,
0000
0000
1010
0000
,
0000
0100
0000
0100
,
0000
0000
0101
0000
,
0001
0000
1000
0000
,
0101
0000
0100
0000
,
0020
0030
0000
0000
,
1000
0000
0001
0000
,
2002
0000
0000
0000
,
3003
0000
0000
0000
;

//---------------dance-single - ----------------
#NOTES:
     dance-single:
     :
     Medium:
     14:
     0.539589,0.963612,0.579952,1.866254,0.000000,508.000000,430.000000,78.000000,251.000000,0.000000,0.000000,0.539589,0.963612,0.579952,1.866254,0.000000,508.000000,430.000000,78.000000,251.000000,0.000000,0.000000:
0000
0000
0000
0000
,
0000
0000
0000
0000
,
0000
0000
0000
0000
,
0000
0000
0000
0000
,
0000
0000
0000
0000
,
0000
0000
0000
0000
,
0000
0000
0000
0000
,
0000
0000
0000
0000
,
0001
0100
0020
1000
,
1030
0100
0001
1100
,
0001
0100
0020
0100
,
0130
0000
1001
0000
,
2000
3001
2000
3010
,
2000
3001
2000
3100
,
0010
0001
1010
0011
,
0200
0300
1001
0000
,
0010
0001
2000
0100
,
3100
0001
0010
0101
,
0010
0001
2000
0001
,
3001
0000
0110
0000
,
0200
0310
0200
1300
,
0200
0310
0200
0301
,
1000
0010
1100
1010
,
0002
0003
0110
0000
,
0100
1000
0002
0010
,
0013
1000
0100
1010
,
0100
1000
0002
1000
,
1003
0000
0110
0000
,
2000
3200
0320
0030
,
1000
0100
0100
0010
,
0010
0001
1000
0001
,
0220
0330
2002
3003
,
2200
3300
0202
0303
,
1000
0100
1000
0010
,
0100
0001
0010
0100
,
1000
0001
1000
0000
0022
0000
0033
0000
,
0002
2003
3002
2003
,
3001
0010
0010
0100
,
0100
1000
0001
1000
,
0220
0330
2002
3003
,
0022
0033
2020
3030
,
0001
0010
0001
0100
,
0010
1000
0100
0010
,
0001
1000
0001
0000
2200
0000
3300
0000
,
2000
3002
2003
3002
,
0203
0000
0010
0320
,
0000
1000
2030
0000
,
3000
0100
0001
0110
,
2100
0000
0002
3003
,
0020
0000
0100
0230
,
0000
0001
0302
0000
,
0003
0010
1000
1001
,
0200
0320
0230
0320
,
0130
0001
0001
1000
,
1000
0010
0100
0010
,
2002
3003
0220
0330
,
0202
0303
0022
0033
,
0100
0001
0100
2000
,
0010
3010
0100
0011
,
0110
1100
0000
0000
,
1000
0010
1000
0000
0001
0000
1000
0000
,
0220
0330
0002
2000
,
0003
3020
0200
0330
,
2002
3003
0200
0002
,
0300
2003
0020
3030
,
0202
0303
2000
0200
,
3000
0302
0020
0033
,
2200
3300
0000
0000
,
0001
0100
0001
0000
1000
0000
0001
0000
,
0220
0330
2000
0002
,
3000
0203
0020
0330
,
2002
3003
0020
2000
,
0030
3002
0200
0303
,
2020
3030
0002
0020
,
0003
2030
0200
3300
,
0022
0033
0000
0000
,
0010
0001
0010
0000
0100
0000
0010
0000
,
2002
3003
0200
0020
,
0300
0032
2000
3003
,
0220
0330
2000
0200
,
3000
0320
0002
0033
,
2200
3300
0020
2000
,
0030
3200
0002
0303
,
2020
3030
0000
0000
,
1000
0010
1000
0000
0001
0000
1000
0000
,
0210
0301
0020
1030
0002
0013
0200
1300
,
0200
0310
2000
3001
0002
0013
0200
0310
,
1000
0100
0010
0001
2200
0000
3300
0000
,
0010
1000
1000
0001
,
0001
0100
0010
0100
,
2002
3003
0220
0330
,
2020
3030
2200
3300
,
0010
1000
0010
0001
,
1000
0100
0001
1000
,
0010
0100
0010
0000
0202
0000
0303
0000
,
0200
0320
0230
0320
,
0032
0000
1000
2003
,
0000
0100
3200
0000
,
0300
0001
0010
1001
,
0201
0000
0020
0330
,
2000
0000
0001
3002
,
0000
0010
0023
0000
,
0030
1000
0100
0110
,
0002
2003
3002
2003
,
3001
0010
0010
0100
,
0100
1000
0001
1000
,
0220
0330
2002
3003
,
0022
0033
2020
3030
,
0001
0010
0001
0200
,
1000
1300
0001
1010
,
1001
0101
0000
0000
,
0100
1000
0100
0000
0010
0000
0100
0000
,
2002
3003
0020
0200
,
0030
2300
0002
3003
,
0220
0330
0002
0020
,
0003
0230
2000
3300
,
0022
0033
0200
0002
,
0300
0023
2000
3030
,
0202
0303
0000
0000
,
0010
0001
0010
0000
0100
0000
0010
0000
,
2002
3003
0200
0020
,
0300
0032
2000
3003
,
0220
0330
2000
0200
,
3000
0320
0002
0033
,
2200
3300
0020
2000
,
0030
3200
0002
0303
,
2020
3030
0000
0000
,
1000
0010
1000
0000
0001
0000
1000
0000
,
0220
0330
0002
2000
,
0003
3020
0200
0330
,
2002
3003
0200
0002
,
0300
2003
0020
3030
,
0202
0303
2000
0200
,
3000
0302
0020
0033
,
2200
3300
0000
0000
,
0020
0230
0320
0230
,
0310
1000
1000
0001
,
0001
0100
0010
0100
,
2002
3003
0220
0330
,
2020
3030
2200
3300
,
0010
1000
0010
0001
,
1000
0100
0001
1000
,
0010
0100
0010
0000
0202
0000
0303
0000
,
0200
0320
0230
0320
,
0031
0000
0000
0000
;

//---------------dance-single - ----------------
#NOTES:
     dance-single:
     :
     Hard:
     16:
     0.748838,1.775823,0.609693,0.921974,0.055765,705.000000,623.000000,82.000000,124.000000,0.000000,0.000000,0.748838,1.775823,0.609693,0.921974,0.055765,705.000000,623.000000,82.000000,124.000000,0.000000,0.000000:
0000
0000
0000
0000
,
0000
0000
0000
0000
,
0000
0000
0000
0000
,
0000
0000
0000
0000
,
0000
0000
0000
0000
,
0000
0000
0000
0000
,
0000
0000
0000
0000
,
0000
0000
0000
0000
,
1000
0100
0010
1100
,
0001
0000
0011
0000
0100
0000
0001
1000
,
0010
0000
0100
0001
1000
0000
0100
0001
,
0010
0200
0002
0303
,
0010
1001
1000
0010
,
0110
0002
0100
0013
,
1000
0000
0010
0100
1000
0000
0100
0001
,
0010
2000
0002
3003
,
0100
0001
1000
0101
,
0010
0000
1010
0000
0001
0000
0010
0100
,
1000
0000
0001
0010
0100
0000
0001
0010
,
1000
0002
0020
0033
,
1000
0110
0100
1000
,
1001
0020
0001
1030
,
0100
0000
1000
0001
0100
0000
0001
0010
,
1000
0200
0020
0330
,
0100
0000
0001
0010
0100
0000
1000
0010
,
0100
0101
1100
0020
,
1030
0000
0100
0010
0001
0000
0100
0010
,
1000
0200
0302
0023
,
0230
0000
0000
0000
0001
0000
0302
0000
0000
0000
1000
0000
2003
0000
0000
0000
0000
0000
0000
0000
0000
3000
0000
0000
,
0011
0000
1000
0100
1000
0000
0010
0001
,
0100
2010
3001
0010
,
1100
0000
0001
0010
0001
0000
0100
1000
,
0010
0102
1003
0100
,
0001
0200
0310
0000
1000
0002
0103
0000
,
0020
1000
0001
0200
,
0000
0330
0000
0000
,
1000
0010
0200
0000
0001
0000
0310
0000
,
1100
0000
0001
0010
0001
0000
0100
1000
,
0010
0102
1003
0100
,
0011
0000
1000
0100
1000
0000
0010
0001
,
0100
2010
3001
0010
,
1000
0020
0130
0000
0001
2000
3010
0000
,
0200
0001
1000
0020
,
0000
0000
0330
0000
0000
0000
0000
0010
,
1000
0001
0100
0010
1000
0000
0001
2000
,
0100
0000
3000
0000
0100
0002
0100
0000
,
0003
0000
1000
0020
1000
0000
0030
0000
,
0000
0000
0000
0000
0110
0000
0000
1000
,
0100
0010
0001
1000
0100
0000
0010
0200
,
0001
0000
0300
0000
0001
0020
0001
0000
,
0030
0000
0100
2000
0100
0000
3000
0000
,
0000
0000
0000
0000
1001
0000
0000
0100
,
0001
0010
0001
0000
0010
0100
1000
0010
,
1010
0000
0100
0001
0100
0000
1000
0010
,
0001
1200
0310
1000
,
0101
0000
0010
1000
0010
0000
0001
0100
,
1000
0021
0130
0001
,
0020
0000
1000
0100
,
1000
0000
2030
0000
3200
0000
0301
0010
,
0001
0100
0010
0000
0000
0000
0000
0000
,
0100
1000
0010
0100
0001
1000
0100
0010
,
0001
0000
0000
0000
0100
0010
0200
0000
,
0000
0000
0301
1000
0001
0000
1100
0000
,
2020
0000
3030
0000
0001
0010
0002
0000
,
0000
0000
1003
0100
1000
0000
0011
0000
,
0202
0000
0303
0000
0010
1000
0020
0000
,
0000
0000
0130
0001
0100
0000
1001
0000
,
0220
0330
1000
0100
,
0010
0001
0100
0000
0010
1000
0100
0010
,
0001
0000
0000
0000
1000
0001
2000
0000
,
0000
0000
3100
0010
0100
0000
1010
0000
,
0022
0000
0033
0000
0100
0001
0200
0000
,
0000
0000
0310
1000
0010
0000
0101
0000
,
2200
0000
3300
0000
0001
0010
0002
0000
,
0000
0000
1003
0100
1000
0000
0110
0000
,
2002
3003
0010
1000
,
0001
0100
1000
0000
0001
0010
1000
0001
,
0100
0000
0000
0000
0001
1000
0002
0000
,
0000
0000
0013
0100
0010
0000
0101
0000
,
2200
0000
3300
0000
0010
1000
0020
0000
,
0000
0000
0130
0001
0100
0000
1010
0000
,
0022
0000
0033
0000
1000
0100
2000
0000
,
0000
0000
3001
0010
0001
0000
0110
0000
,
2002
3003
0100
0001
,
1000
0010
0001
0000
1000
0100
0001
1000
,
0010
0000
0100
0100
0010
1000
0100
0010
0100
0000
0002
1000
1003
0100
0010
0100
,
0011
0110
1100
0001
0010
0100
1000
1002
0000
0100
0100
0103
0000
1000
0100
0000
,
0011
0001
0101
0010
2200
0000
0000
3300
,
0011
0000
1000
0100
1000
0000
0010
0001
,
0100
2010
3001
0010
,
1100
0000
0001
0010
0001
0000
0100
1000
,
0010
0102
1003
0100
,
0001
0200
0310
0000
1000
0002
0103
0000
,
0020
1000
0001
0200
,
0000
0000
0330
0000
0000
0000
0000
0100
,
0001
1000
0010
0100
0001
0000
1000
0002
,
0010
0000
0003
0000
0010
2000
0010
0000
,
3000
0000
0001
0200
0001
0000
0300
0000
,
0000
0000
0000
0000
0110
0000
0000
0001
,
0010
0100
1000
0001
0010
0000
0100
0020
,
1000
0000
0030
0000
1000
0200
1000
0000
,
0300
0000
0010
0002
0010
0000
0003
0000
,
0000
0000
0000
0000
1001
0000
0000
0010
,
1000
0100
1000
0000
0100
0010
0001
0100
,
0101
0000
0010
1000
0010
0000
0001
0100
,
1000
0021
0130
0001
,
1010
0000
0100
0001
0100
0000
1000
0010
,
0001
1200
0310
1000
,
0200
0000
0001
0010
,
0001
0000
0302
0000
0023
0000
1030
0100
,
1000
0010
0100
0000
0000
0000
0000
0000
,
0010
0001
0100
0010
1000
0001
0010
0100
,
1000
0000
0000
0000
0010
0100
0020
0000
,
0000
0000
1030
0001
1000
0000
0011
0000
,
0202
0000
0303
0000
1000
0100
2000
0000
,
0000
0000
3001
0010
0001
0000
1100
0000
,
2020
0000
3030
0000
0100
0001
0200
0000
,
0000
0000
0310
1000
0010
0000
1001
0000
,
0220
0330
0001
0010
,
0100
1000
0010
0000
0100
0001
0010
0100
,
1000
0000
0000
0000
0001
1000
0002
0000
,
0000
0000
0013
0100
0010
0000
0101
0000
,
2200
0000
3300
0000
0010
1000
0020
0000
,
0000
0000
0130
0001
0100
0000
1010
0000
,
0022
0000
0033
0000
1000
0100
2000
0000
,
0000
0000
3001
0010
0001
0000
0110
0000
,
2002
3003
0100
0001
,
1000
0010
0001
0000
1000
0100
0001
1000
,
0010
0000
0000
0000
1000
0001
2000
0000
,
0000
0000
3100
0010
0100
0000
1010
0000
,
0022
0000
0033
0000
0100
0001
0200
0000
,
0000
0000
0310
1000
0010
0000
0101
0000
,
2200
0000
3300
0000
0001
0010
0002
0000
,
0000
0000
1003
0100
1000
0000
0110
0000
,
2002
3003
0010
1000
,
0001
0100
1000
0000
0001
0010
1000
0001
,
1100
0000
0001
0010
0001
0000
0100
1000
,
0010
0102
1003
0100
,
0011
0000
1000
0100
1000
0000
0010
0001
,
0100
2010
3001
0010
,
1000
0020
0130
0000
0001
2000
3010
0000
,
0200
0001
1000
0020
,
0000
0000
0330
0000
0000
0000
0000
0010
,
1000
0001
0100
0010
1000
0000
0001
1000
,
0202
0000
0000
0303
;

//---------------dance-single - ----------------
#NOTES:
     dance-single:
     :
     Challenge:
     18:
     0.969772,2.098700,0.847621,0.698916,0.096659,913.000000,799.000000,114.000000,94.000000,0.000000,0.000000,0.969772,2.098700,0.847621,0.698916,0.096659,913.000000,799.000000,114.000000,94.000000,0.000000,0.000000:
// measure 0
0000
0000
0000
0000
,  // measure 1
0000
0000
0000
0000
,  // measure 2
0000
0000
0000
0000
,  // measure 3
0000
0000
0000
0000
,  // measure 4
0000
0000
0000
0000
,  // measure 5
0000
0000
0000
0000
,  // measure 6
0000
0000
0000
0000
,  // measure 7
0000
0000
0000
0000
,  // measure 8
1001
0000
0010
0002
1003
0000
0100
2000
,  // measure 9
3001
1100
0110
0011
,  // measure 10
0100
0000
1000
0010
0100
0000
0001
0010
,  // measure 11
0001
1000
0010
0000
0110
0000
0101
0000
,  // measure 12
2000
0000
0000
3000
0010
0001
0010
0200
,  // measure 13
0000
0000
0300
0010
0001
0010
2000
0000
,  // measure 14
0000
3000
0100
0010
0001
0200
0000
0000
,  // measure 15
0310
0001
1000
0100
1001
0000
0011
0000
,  // measure 16
0110
0000
0001
0200
0310
0000
1000
0020
,  // measure 17
0130
1010
1001
0101
,  // measure 18
1000
0000
0010
0001
1000
0000
0100
0001
,  // measure 19
0100
0010
0001
0000
1001
0000
1100
0000
,  // measure 20
0020
0000
0000
0030
0001
0100
0001
2000
,  // measure 21
0000
0000
3000
0001
0100
0001
0020
0000
,  // measure 22
0000
0030
1000
0001
0100
2000
0000
0000
,  // measure 23
3001
0100
0010
1000
0110
0000
0101
0000
,  // measure 24
1001
0000
0001
0010
1000
0010
0100
0000
,  // measure 25
1010
0000
0100
0001
1000
0010
0001
0000
,  // measure 26
1100
0000
0010
1000
0100
0010
0001
0000
,  // measure 27
0101
0000
1000
0001
0100
0010
0100
0000
,  // measure 28
1000
0000
0110
0000
0001
0010
0100
0000
1100
0000
0010
0100
0002
0000
0000
0000
0000
0000
0000
0000
0000
0003
0000
0000
,  // measure 29
0110
0000
1000
0020
0130
0000
1000
0100
,  // measure 30
0010
0001
0100
0010
1100
0000
0101
0000
,  // measure 31
1001
0000
0100
2000
3001
0000
0100
0001
,  // measure 32
1000
0010
0001
1000
0101
0000
0011
0000
,  // measure 33
2000
0000
3001
0200
0310
0000
0001
2000
,  // measure 34
3100
0000
0011
0000
1100
0000
1000
0100
,  // measure 35
0010
0000
1000
0001
0010
0100
0010
1000
,  // measure 36
0100
0010
0001
0100
0010
1000
0100
0010
,  // measure 37
1001
0000
0010
0002
1003
0000
0010
1000
,  // measure 38
0001
0100
1000
0001
1010
0000
1100
0000
,  // measure 39
0110
0000
1000
0020
0130
0000
1000
0100
,  // measure 40
0010
0001
0100
0010
1100
0000
0101
0000
,  // measure 41
0020
0000
0130
2000
3001
0000
0100
0020
,  // measure 42
1030
0000
0101
0000
1010
0000
0010
1000
,  // measure 43
0001
0000
0010
0100
0001
1000
0001
0010
,  // measure 44
1000
0001
0100
1000
0001
0010
1000
0001
,  // measure 45
0200
0000
0310
0000
0100
0001
2000
0000
,  // measure 46
3010
0000
0100
0010
2000
0000
3100
0000
,  // measure 47
0001
0010
0200
0000
1000
0000
1300
0000
,  // measure 48
0001
1000
0010
0001
1000
0100
0001
1000
,  // measure 49
0020
0000
0130
0000
0010
1000
0002
0000
,  // measure 50
0103
0000
0010
0100
0002
0000
0013
0000
,  // measure 51
1000
0100
0020
0000
0001
0000
0031
0000
,  // measure 52
0100
0010
0001
0100
0010
1000
0100
0010
,  // measure 53
0110
0000
0001
0200
0310
0000
0001
0010
,  // measure 54
0100
1000
0010
0100
0011
0000
1010
0000
,  // measure 55
1001
0000
0010
0002
1003
0000
0010
1000
,  // measure 56
0001
0100
1000
0001
1010
0000
1100
0000
,  // measure 57
0002
0000
1003
0020
0130
0000
1000
0002
,  // measure 58
0013
0000
1100
0000
0011
0000
0001
0010
,  // measure 59
0100
0000
0001
1000
0100
0010
0100
0001
,  // measure 60
0010
0100
1000
0010
0100
0001
0010
0100
,  // measure 61
2000
0000
0001
0000
3001
0000
0100
0002
,  // measure 62
1000
0100
0013
0011
,  // measure 63
1000
0100
0010
0000
1100
0000
0010
0002
,  // measure 64
0100
0010
1003
0110
,  // measure 65
0001
0100
1000
0000
0011
0000
1000
0020
,  // measure 66
0100
1000
0031
1100
,  // measure 67
0010
0100
2000
0000
3010
0000
0101
0000
,  // measure 68
1000
0001
0100
0001
0010
1000
0100
1000
,  // measure 69
0020
0000
0100
0000
0130
0000
1000
0200
,  // measure 70
0010
1000
0301
0101
,  // measure 71
0010
1000
0001
0000
1010
0000
0001
0200
,  // measure 72
1000
0001
0310
1001
,  // measure 73
0100
1000
0010
0000
0101
0000
0010
0002
,  // measure 74
1000
0010
0103
1010
,  // measure 75
0001
1000
0020
0000
0031
0000
1100
0000
,  // measure 76
0010
0100
1000
0100
0001
0010
1000
0010
,  // measure 77
0002
0000
1000
0000
1003
0000
0010
2000
,  // measure 78
0001
0010
3100
1100
,  // measure 79
0001
0010
0100
0000
0011
0000
0100
2000
,  // measure 80
0010
0100
3001
0110
,  // measure 81
1000
0010
0001
0000
1100
0000
0001
0200
,  // measure 82
0010
0001
1300
0011
,  // measure 83
0100
0010
0002
0000
0103
0000
1010
0000
,  // measure 84
0001
1000
0010
1000
0100
0001
0010
0001
,  // measure 85
0100
0000
1000
0000
0101
0000
0010
0000
1100
0000
0001
0000
0001
0010
1000
0000
0100
0000
0010
0000
1001
0000
0100
0000
0110
0000
0001
0000
1000
0001
0010
0000
,  // measure 86
1000
0100
1000
0011
0101
1000
0100
0010
0001
0010
0100
1000
0020
0000
0130
0000
,  // measure 87
1000
0001
0100
0010
0001
0010
0100
1000
0022
0000
0000
0000
0033
0000
0000
0000
,  // measure 88
0110
0000
1000
0020
0130
0000
1000
0100
,  // measure 89
0010
0001
0100
0010
1100
0000
0101
0000
,  // measure 90
1001
0000
0100
2000
3001
0000
0100
0001
,  // measure 91
1000
0010
0001
1000
0101
0000
0011
0000
,  // measure 92
2000
0000
3001
0200
0310
0000
0001
2000
,  // measure 93
3100
0000
0011
0000
1100
0000
1000
0100
,  // measure 94
0010
0000
1000
0001
0010
0100
0010
1000
,  // measure 95
0100
0010
0001
0100
0010
1000
0100
0010
,  // measure 96
0002
0000
1003
0000
0001
0010
0200
0000
,  // measure 97
1300
0000
0001
1000
0200
0000
0301
0000
,  // measure 98
0010
1000
0002
0000
0100
0000
0103
0000
,  // measure 99
0010
0100
1000
0010
0100
0001
0010
0100
,  // measure 100
2000
0000
3001
0000
1000
0100
0020
0000
,  // measure 101
0031
0000
1000
0001
0020
0000
1030
0000
,  // measure 102
0100
0001
2000
0000
0010
0000
3010
0000
,  // measure 103
0001
1000
0010
0001
1000
0100
0001
1000
,  // measure 104
1001
0000
0010
0002
1003
0000
0010
1000
,  // measure 105
0001
0100
1000
0001
1010
0000
1100
0000
,  // measure 106
0110
0000
1000
0020
0130
0000
1000
0100
,  // measure 107
0010
0001
0100
0010
1100
0000
0101
0000
,  // measure 108
0020
0000
0130
2000
3001
0000
0100
0020
,  // measure 109
1030
0000
0101
0000
1010
0000
0010
1000
,  // measure 110
0001
0000
0010
0100
0001
1000
0001
0010
,  // measure 111
1000
0001
0100
1000
0001
0010
1000
0001
,  // measure 112
0200
0000
0010
0000
0310
0000
0001
0020
,  // measure 113
0100
0001
1030
1010
,  // measure 114
0100
0001
1000
0000
0101
0000
1000
0020
,  // measure 115
0001
1000
0130
1001
,  // measure 116
0010
0001
0100
0000
1010
0000
0100
2000
,  // measure 117
0001
0100
3010
0101
,  // measure 118
1000
0001
0200
0000
1300
0000
0011
0000
,  // measure 119
0100
0010
0001
0010
1000
0100
0001
0100
,  // measure 120
2000
0000
0001
0000
3001
0000
0100
0002
,  // measure 121
1000
0100
0013
0011
,  // measure 122
1000
0100
0010
0000
1100
0000
0010
0002
,  // measure 123
0100
0010
1003
0110
,  // measure 124
0001
0100
1000
0000
0011
0000
1000
0020
,  // measure 125
0100
1000
0031
1100
,  // measure 126
0010
0100
2000
0000
3010
0000
0101
0000
,  // measure 127
1000
0001
0100
0001
0010
1000
0100
1000
,  // measure 128
0020
0000
0100
0000
0130
0000
1000
0200
,  // measure 129
0010
1000
0301
0101
,  // measure 130
0010
1000
0001
0000
1010
0000
0001
0200
,  // measure 131
1000
0001
0310
1001
,  // measure 132
0100
1000
0010
0000
0101
0000
0010
0002
,  // measure 133
1000
0010
0103
1010
,  // measure 134
0001
1000
0020
0000
0031
0000
1100
0000
,  // measure 135
0010
0100
1000
0100
0001
0010
1000
0010
,  // measure 136
1001
0000
0100
2000
3001
0000
0100
0001
,  // measure 137
1000
0010
0001
1000
0101
0000
0011
0000
,  // measure 138
0110
0000
0001
0200
0310
0000
0001
0010
,  // measure 139
0100
1000
0010
0100
0011
0000
1010
0000
,  // measure 140
0200
0000
0310
0002
1003
0000
0010
0200
,  // measure 141
0301
0000
1010
0000
0101
0000
0100
0001
,  // measure 142
1000
0000
0100
0010
1000
0001
1000
0100
,  // measure 143
0001
1000
0010
0001
1000
0100
0001
1000
,  // measure 144
0220
0000
0000
0330
;
